  0
SECTION
  2
HEADER
  9
$ACADVER
  1
AC1004
  9
$INSBASE
 10
0.0
 20
0.0
  9
$EXTMIN
 10
38923.26190446367
 20
-6774.82651730407
  9
$EXTMAX
 10
40333.26190446367
 20
-5414.826523641706
  9
$LIMMIN
 10
0.0
 20
0.0
  9
$LIMMAX
 10
12.0
 20
9.0
  9
$ORTHOMODE
 70
     0
  9
$REGENMODE
 70
     1
  9
$FILLMODE
 70
     1
  9
$QTEXTMODE
 70
     0
  9
$DRAGMODE
 70
     2
  9
$LTSCALE
 40
0.5
  9
$OSMODE
 70
  2175
  9
$ATTMODE
 70
     1
  9
$TEXTSIZE
 40
4.0
  9
$TRACEWID
 40
0.05
  9
$TEXTSTYLE
  7
STANDARD
  9
$CLAYER
  8
1DIM
  9
$CELTYPE
  6
BYLAYER
  9
$CECOLOR
 62
   256
  9
$DIMSCALE
 40
10.0
  9
$DIMASZ
 40
2.0
  9
$DIMEXO
 40
0.0
  9
$DIMDLI
 40
7.0
  9
$DIMRND
 40
0.0
  9
$DIMDLE
 40
0.0
  9
$DIMEXE
 40
1.0
  9
$DIMTP
 40
0.0
  9
$DIMTM
 40
0.0
  9
$DIMTXT
 40
3.5
  9
$DIMCEN
 40
0.0
  9
$DIMTSZ
 40
0.0
  9
$DIMTOL
 70
     0
  9
$DIMLIM
 70
     0
  9
$DIMTIH
 70
     0
  9
$DIMTOH
 70
     0
  9
$DIMSE1
 70
     0
  9
$DIMSE2
 70
     0
  9
$DIMTAD
 70
     1
  9
$DIMZIN
 70
     8
  9
$DIMBLK
  1

  9
$DIMASO
 70
     1
  9
$DIMSHO
 70
     1
  9
$DIMPOST
  1
 
  9
$DIMAPOST
  1

  9
$DIMALT
 70
     0
  9
$DIMALTD
 70
     2
  9
$DIMALTF
 40
25.4
  9
$DIMLFAC
 40
1.0
  9
$DIMTOFL
 70
     1
  9
$DIMTVP
 40
0.0
  9
$DIMTIX
 70
     0
  9
$DIMSOXD
 70
     0
  9
$DIMSAH
 70
     1
  9
$DIMBLK1
  1
OPEN30
  9
$DIMBLK2
  1
OPEN30
  9
$LUNITS
 70
     2
  9
$LUPREC
 70
     4
  9
$SKETCHINC
 40
0.1
  9
$FILLETRAD
 40
3.0
  9
$AUNITS
 70
     0
  9
$AUPREC
 70
     2
  9
$MENU
  1
acad
  9
$ELEVATION
 40
0.0
  9
$THICKNESS
 40
0.0
  9
$LIMCHECK
 70
     0
  9
$CHAMFERA
 40
0.0
  9
$CHAMFERB
 40
0.0
  9
$SKPOLY
 70
     0
  9
$TDCREATE
 40
2448750.487089225
  9
$TDUPDATE
 40
2459500.751686956
  9
$TDINDWG
 40
2.2856499421
  9
$TDUSRTIMER
 40
2.2856499421
  9
$USRTIMER
 70
     1
  9
$ANGBASE
 50
0.0
  9
$ANGDIR
 70
     0
  9
$PDMODE
 70
     0
  9
$PDSIZE
 40
0.0
  9
$PLINEWID
 40
1.0
  9
$COORDS
 70
     2
  9
$SPLFRAME
 70
     0
  9
$SPLINETYPE
 70
     6
  9
$SPLINESEGS
 70
     8
  9
$ATTDIA
 70
     0
  9
$ATTREQ
 70
     1
  9
$SURFTAB1
 70
     6
  9
$SURFTAB2
 70
     6
  9
$SURFTYPE
 70
     6
  9
$SURFU
 70
     6
  9
$SURFV
 70
     6
  9
$UCSNAME
  2

  9
$UCSORG
 10
0.0
 20
0.0
 30
0.0
  9
$UCSXDIR
 10
1.0
 20
0.0
 30
0.0
  9
$UCSYDIR
 10
0.0
 20
1.0
 30
0.0
  9
$USERI1
 70
     0
  9
$USERI2
 70
     0
  9
$USERI3
 70
     0
  9
$USERI4
 70
     0
  9
$USERI5
 70
     0
  9
$USERR1
 40
0.0
  9
$USERR2
 40
0.0
  9
$USERR3
 40
0.0
  9
$USERR4
 40
0.0
  9
$USERR5
 40
0.0
  9
$WORLDVIEW
 70
     1
  0
ENDSEC
  0
SECTION
  2
TABLES
  0
TABLE
  2
LTYPE
 70
    12
  0
LTYPE
  2
CONTINUOUS
 70
     0
  3
Solid line
 72
    65
 73
     0
 40
0.0
  0
LTYPE
  2
HIDDEN
 70
     0
  3
Hidden __ __ __ __ __ __ __ __ __ __ __ __ __ _
 72
    65
 73
     2
 40
9.525
 49
6.35
 49
-3.175
  0
LTYPE
  2
PHANTOM2
 70
     0
  3
Phantom (0.5x) ___ _ _ ___ _ _ ___ _ _ ___ _ _
 72
    65
 73
     6
 40
31.75
 49
15.875
 49
-3.175
 49
3.175
 49
-3.175
 49
3.175
 49
-3.175
  0
LTYPE
  2
CENTER2
 70
     0
  3
Center (.5x) ___ _ ___ _ ___ _ ___ _ ___ _ ___
 72
    65
 73
     4
 40
28.575
 49
19.05
 49
-3.175
 49
3.175
 49
-3.175
  0
LTYPE
  2
HADAN
 70
     0
  3
Hadansen
 72
    65
 73
     4
 40
58.0
 49
50.0
 49
-2.0
 49
-4.0
 49
-2.0
  0
LTYPE
  2
BATTING
 70
     0
  3
Batting SSSSSSSSSSSSSSSSSSSSSSSSSSSSSSSSSSSSSSS
 72
    65
 73
     4
 40
10.16254
 49
0.00254
 49
-2.54
 49
-5.08
 49
-2.54
  0
LTYPE
  2
DASHED2
 70
     0
  3
Dashed (0.5x) _ _ _ _ _ _ _ _ _ _ _ _ _ _ _ _ _
 72
    65
 73
     2
 40
9.525
 49
6.35
 49
-3.175
  0
LTYPE
  2
FENCELINE1
 70
     0
  3
Fenceline circle -0-----0----0-----0----0-----0
 72
    65
 73
     4
 40
36.83
 49
3.81
 49
-2.54
 49
-2.54
 49
27.94
  0
LTYPE
  2
FENCELINE2
 70
     0
  3
Fenceline square -[]-----[]----[]-----[]----[]-
 72
    65
 73
     4
 40
36.83
 49
3.81
 49
-2.54
 49
-2.54
 49
27.94
  0
LTYPE
  2
TRACKS
 70
     0
  3
Tracks -|-|-|-|-|-|-|-|-|-|-|-|-|-|-|-|-|-|-|-|
 72
    65
 73
     2
 40
7.62
 49
3.81
 49
3.81
  0
LTYPE
  2
ZIGZAG
 70
     0
  3
Zig zag /\/\/\/\/\/\/\/\/\/\/\/\/\/\/\/\/\/\/\/
 72
    65
 73
     4
 40
20.32254
 49
0.00254
 49
-5.08
 49
-10.16
 49
-5.08
  0
LTYPE
  2
BORDER2
 70
     0
  3
Border (0.5x) __.__.__.__.__.__.__.__.__.__.__.
 72
    65
 73
     6
 40
22.225
 49
6.35
 49
-3.175
 49
6.35
 49
-3.175
 49
0.0
 49
-3.175
  0
ENDTAB
  0
TABLE
  2
LAYER
 70
    36
  0
LAYER
  2
0
 70
     0
 62
     7
  6
CONTINUOUS
  0
LAYER
  2
1DIM
 70
     0
 62
     8
  6
CONTINUOUS
  0
LAYER
  2
2VIEWPORT
 70
     0
 62
    -1
  6
CONTINUOUS
  0
LAYER
  2
01
 70
     0
 62
     1
  6
CONTINUOUS
  0
LAYER
  2
DEFPOINTS
 70
     0
 62
     7
  6
CONTINUOUS
  0
LAYER
  2
1HIDDEN
 70
     0
 62
     8
  6
HIDDEN
  0
LAYER
  2
1PHANTOM
 70
     0
 62
   254
  6
PHANTOM2
  0
LAYER
  2
03
 70
     0
 62
     3
  6
CONTINUOUS
  0
LAYER
  2
02
 70
     0
 62
     2
  6
CONTINUOUS
  0
LAYER
  2
1TEXT
 70
     0
 62
   201
  6
CONTINUOUS
  0
LAYER
  2
04
 70
     0
 62
     4
  6
CONTINUOUS
  0
LAYER
  2
POINT
 70
     0
 62
     7
  6
CONTINUOUS
  0
LAYER
  2
1HATCH
 70
     0
 62
     8
  6
CONTINUOUS
  0
LAYER
  2
05
 70
     0
 62
     5
  6
CONTINUOUS
  0
LAYER
  2
06
 70
     0
 62
     6
  6
CONTINUOUS
  0
LAYER
  2
07
 70
     0
 62
   143
  6
CONTINUOUS
  0
LAYER
  2
08
 70
     0
 62
    95
  6
CONTINUOUS
  0
LAYER
  2
09
 70
     0
 62
    15
  6
CONTINUOUS
  0
LAYER
  2
10
 70
     0
 62
   213
  6
CONTINUOUS
  0
LAYER
  2
11
 70
     0
 62
     7
  6
CONTINUOUS
  0
LAYER
  2
1CENTER
 70
     0
 62
   221
  6
CONTINUOUS
  0
LAYER
  2
1DIM1
 70
     0
 62
   221
  6
CONTINUOUS
  0
LAYER
  2
1DIM2
 70
     0
 62
   254
  6
CONTINUOUS
  0
LAYER
  2
1DIM3
 70
     0
 62
     8
  6
CONTINUOUS
  0
LAYER
  2
2BATTING
 70
     0
 62
     7
  6
BATTING
  0
LAYER
  2
2FENCELINE1
 70
     0
 62
     7
  6
FENCELINE1
  0
LAYER
  2
2FENCELINE2
 70
     0
 62
     7
  6
FENCELINE2
  0
LAYER
  2
2TRACKS
 70
     0
 62
     7
  6
TRACKS
  0
LAYER
  2
2ZIGZAG
 70
     0
 62
     7
  6
ZIGZAG
  0
LAYER
  2
2HADAN
 70
     0
 62
     7
  6
HADAN
  0
LAYER
  2
1TEXT2
 70
     0
 62
   221
  6
CONTINUOUS
  0
LAYER
  2
99WAKU
 70
     0
 62
   253
  6
CONTINUOUS
  0
LAYER
  2
MIDFINE
 70
     0
 62
     9
  6
CONTINUOUS
  0
LAYER
  2
THICK
 70
     0
 62
   252
  6
CONTINUOUS
  0
LAYER
  2
ZZ
 70
     0
 62
    -8
  6
CONTINUOUS
  0
LAYER
  2
ZZXX
 70
     0
 62
   243
  6
CONTINUOUS
  0
ENDTAB
  0
TABLE
  2
STYLE
 70
     3
  0
STYLE
  2
STANDARD
 70
     0
 40
0.0
 41
1.0
 50
0.0
 71
     0
 42
4.0
  3
romans.shx
  4
extfont2.shx
  0
STYLE
  2
KAI
 70
     0
 40
0.0
 41
1.0
 50
0.0
 71
     0
 42
4.0
  3
HGRSKP_0.TTF
  4

  0
STYLE
  2

 70
     1
 40
0.2
 41
1.0
 50
0.0
 71
     0
 42
4.0
  3
ltypeshp.shx
  4

  0
ENDTAB
  0
TABLE
  2
VIEW
 70
     0
  0
ENDTAB
  0
ENDSEC
  0
SECTION
  2
BLOCKS
  0
BLOCK
  8
0
  2
_OPEN30
 70
     0
 10
0.0
 20
0.0
  0
LINE
  8
0
  6
BYBLOCK
 62
     0
 10
-1.0
 20
0.26794919
 11
0.0
 21
0.0
  0
LINE
  8
0
  6
BYBLOCK
 62
     0
 10
0.0
 20
0.0
 11
-1.0
 21
-0.26794919
  0
LINE
  8
0
  6
BYBLOCK
 62
     0
 10
0.0
 20
0.0
 11
-1.0
 21
0.0
  0
ENDBLK
  8
0
  0
BLOCK
  8
0
  2
*D200
 70
     1
 10
0.0
 20
0.0
  0
LINE
  8
1DIM
 10
42005.6707798823
 20
-4001.944598209428
 11
42005.6707798823
 21
-4061.944598209428
  0
LINE
  8
1DIM
 10
42555.87409757655
 20
-4001.944598162407
 11
42555.87409757655
 21
-4061.944598209428
  0
LINE
  8
1DIM
 10
42025.6707798823
 20
-4051.944598209428
 11
42535.87409757655
 21
-4051.944598209428
  0
INSERT
  8
1DIM
  2
_OPEN30
 10
42005.6707798823
 20
-4051.944598209428
 30
0.0
 41
20.0
 42
20.0
 43
20.0
 50
180.0
  0
INSERT
  8
1DIM
  2
_OPEN30
 10
42555.87409757655
 20
-4051.944598209428
 30
0.0
 41
20.0
 42
20.0
 43
20.0
  0
TEXT
  8
1DIM
  6
CONTINUOUS
 62
   201
 10
42230.77243872943
 20
-4044.944598209428
 40
35.0
  1
550
  0
POINT
  8
DEFPOINTS
 62
     0
 10
42005.6707798823
 20
-3951.944598209428
 30
0.0
  0
POINT
  8
DEFPOINTS
 62
     0
 10
42555.87409757655
 20
-3951.944598162407
 30
0.0
  0
POINT
  8
DEFPOINTS
 62
     0
 10
42555.87409757655
 20
-4051.944598209428
 30
0.0
  0
ENDBLK
  8
0
  0
BLOCK
  8
0
  2
*D201
 70
     1
 10
0.0
 20
0.0
  0
LINE
  8
1DIM
 10
43666.23282492236
 20
-3156.669077685088
 11
43726.23282492236
 21
-3156.669077685088
  0
LINE
  8
1DIM
 10
43666.23282492236
 20
-3951.944598209428
 11
43726.23282492236
 21
-3951.944598209428
  0
LINE
  8
1DIM
 10
43716.23282492236
 20
-3176.669077685088
 11
43716.23282492236
 21
-3931.944598209428
  0
INSERT
  8
1DIM
  2
_OPEN30
 10
43716.23282492236
 20
-3156.669077685088
 30
0.0
 41
20.0
 42
20.0
 43
20.0
 50
90.0
  0
INSERT
  8
1DIM
  2
_OPEN30
 10
43716.23282492236
 20
-3951.944598209428
 30
0.0
 41
20.0
 42
20.0
 43
20.0
 50
270.0
  0
TEXT
  8
1DIM
  6
CONTINUOUS
 62
   201
 10
43709.23282492236
 20
-3604.306837947261
 40
35.0
  1
800
 50
90.0
  0
POINT
  8
DEFPOINTS
 62
     0
 10
43616.23282492236
 20
-3156.669077685088
 30
0.0
  0
POINT
  8
DEFPOINTS
 62
     0
 10
43616.23282492236
 20
-3951.944598209428
 30
0.0
  0
POINT
  8
DEFPOINTS
 62
     0
 10
43716.23282492236
 20
-3951.944598209428
 30
0.0
  0
ENDBLK
  8
0
  0
BLOCK
  8
0
  2
*D202
 70
     1
 10
0.0
 20
0.0
  0
LINE
  8
1DIM
 10
43055.87409757655
 20
-4001.944598209428
 11
43055.87409757655
 21
-4061.944598209428
  0
LINE
  8
1DIM
 10
43616.23282492236
 20
-4001.944598209428
 11
43616.23282492236
 21
-4061.944598209428
  0
LINE
  8
1DIM
 10
43075.87409757655
 20
-4051.944598209428
 11
43596.23282492236
 21
-4051.944598209428
  0
INSERT
  8
1DIM
  2
_OPEN30
 10
43055.87409757655
 20
-4051.944598209428
 30
0.0
 41
20.0
 42
20.0
 43
20.0
 50
180.0
  0
INSERT
  8
1DIM
  2
_OPEN30
 10
43616.23282492236
 20
-4051.944598209428
 30
0.0
 41
20.0
 42
20.0
 43
20.0
  0
TEXT
  8
1DIM
  6
CONTINUOUS
 62
   201
 10
43286.05346124945
 20
-4044.944598209428
 40
35.0
  1
560
  0
POINT
  8
DEFPOINTS
 62
     0
 10
43055.87409757655
 20
-3951.944598209428
 30
0.0
  0
POINT
  8
DEFPOINTS
 62
     0
 10
43616.23282492236
 20
-3951.944598209428
 30
0.0
  0
POINT
  8
DEFPOINTS
 62
     0
 10
43616.23282492236
 20
-4051.944598209428
 30
0.0
  0
ENDBLK
  8
0
  0
BLOCK
  8
0
  2
*D203
 70
     1
 10
0.0
 20
0.0
  0
LINE
  8
1DIM
 10
41955.6707798823
 20
-3519.260033357796
 11
41895.6707798823
 21
-3519.260033357796
  0
LINE
  8
1DIM
 10
41955.6707798823
 20
-3951.944598209428
 11
41895.6707798823
 21
-3951.944598209428
  0
LINE
  8
1DIM
 10
41905.6707798823
 20
-3539.260033357796
 11
41905.6707798823
 21
-3931.944598209428
  0
INSERT
  8
1DIM
  2
_OPEN30
 10
41905.6707798823
 20
-3519.260033357796
 30
0.0
 41
20.0
 42
20.0
 43
20.0
 50
90.0
  0
INSERT
  8
1DIM
  2
_OPEN30
 10
41905.6707798823
 20
-3951.944598209428
 30
0.0
 41
20.0
 42
20.0
 43
20.0
 50
270.0
  0
TEXT
  8
1DIM
  6
CONTINUOUS
 62
   201
 10
41898.6707798823
 20
-3785.60231578361
 40
35.0
  1
435
 50
90.0
  0
POINT
  8
DEFPOINTS
 62
     0
 10
42005.6707798823
 20
-3519.260033357796
 30
0.0
  0
POINT
  8
DEFPOINTS
 62
     0
 10
42005.6707798823
 20
-3951.944598209428
 30
0.0
  0
POINT
  8
DEFPOINTS
 62
     0
 10
41905.6707798823
 20
-3951.944598209428
 30
0.0
  0
ENDBLK
  8
0
  0
BLOCK
  8
0
  2
*D204
 70
     1
 10
0.0
 20
0.0
  0
LINE
  8
1DIM
 10
43005.87409757655
 20
-3451.452493056941
 11
42945.87409757655
 21
-3451.452493056941
  0
LINE
  8
1DIM
 10
43005.87409757655
 20
-3951.944598209428
 11
42945.87409757655
 21
-3951.944598209428
  0
LINE
  8
1DIM
 10
42955.87409757655
 20
-3471.452493056941
 11
42955.87409757655
 21
-3931.944598209428
  0
INSERT
  8
1DIM
  2
_OPEN30
 10
42955.87409757655
 20
-3451.452493056941
 30
0.0
 41
20.0
 42
20.0
 43
20.0
 50
90.0
  0
INSERT
  8
1DIM
  2
_OPEN30
 10
42955.87409757655
 20
-3951.944598209428
 30
0.0
 41
20.0
 42
20.0
 43
20.0
 50
270.0
  0
TEXT
  8
1DIM
  6
CONTINUOUS
 62
   201
 10
42948.87409757655
 20
-3751.698545633182
 40
35.0
  1
500
 50
90.0
  0
POINT
  8
DEFPOINTS
 62
     0
 10
43055.87409757655
 20
-3451.452493056941
 30
0.0
  0
POINT
  8
DEFPOINTS
 62
     0
 10
43055.87409757655
 20
-3951.944598209428
 30
0.0
  0
POINT
  8
DEFPOINTS
 62
     0
 10
42955.87409757655
 20
-3951.944598209428
 30
0.0
  0
ENDBLK
  8
0
  0
BLOCK
  8
0
  2
*D205
 70
     1
 10
0.0
 20
0.0
  0
LINE
  8
1DIM
 10
41955.6707798823
 20
-2856.669077685088
 11
41895.6707798823
 21
-2856.669077685088
  0
LINE
  8
1DIM
 10
41955.6707798823
 20
-2444.463013902858
 11
41895.6707798823
 21
-2444.463013902858
  0
LINE
  8
1DIM
 10
41905.6707798823
 20
-2836.669077685088
 11
41905.6707798823
 21
-2464.463013902858
  0
INSERT
  8
1DIM
  2
_OPEN30
 10
41905.6707798823
 20
-2856.669077685088
 30
0.0
 41
20.0
 42
20.0
 43
20.0
 50
270.0
  0
INSERT
  8
1DIM
  2
_OPEN30
 10
41905.6707798823
 20
-2444.463013902858
 30
0.0
 41
20.0
 42
20.0
 43
20.0
 50
90.0
  0
TEXT
  8
1DIM
  6
CONTINUOUS
 62
   201
 10
41898.6707798823
 20
-2700.566045793974
 40
35.0
  1
420
 50
90.0
  0
POINT
  8
DEFPOINTS
 62
     0
 10
42005.6707798823
 20
-2856.669077685088
 30
0.0
  0
POINT
  8
DEFPOINTS
 62
     0
 10
42005.6707798823
 20
-2444.463013902858
 30
0.0
  0
POINT
  8
DEFPOINTS
 62
     0
 10
41905.6707798823
 20
-2444.463013902858
 30
0.0
  0
ENDBLK
  8
0
  0
BLOCK
  8
0
  2
*D206
 70
     1
 10
0.0
 20
0.0
  0
LINE
  8
1DIM
 10
42071.31588734892
 20
-3106.669077685088
 11
42071.31588734892
 21
-3046.669077685088
  0
LINE
  8
1DIM
 10
42490.22898972603
 20
-3106.669077685088
 11
42490.22898972603
 21
-3046.669077685088
  0
LINE
  8
1DIM
 10
42091.31588734892
 20
-3056.669077685088
 11
42470.22898972603
 21
-3056.669077685088
  0
INSERT
  8
1DIM
  2
_OPEN30
 10
42071.31588734892
 20
-3056.669077685088
 30
0.0
 41
20.0
 42
20.0
 43
20.0
 50
180.0
  0
INSERT
  8
1DIM
  2
_OPEN30
 10
42490.22898972603
 20
-3056.669077685088
 30
0.0
 41
20.0
 42
20.0
 43
20.0
  0
TEXT
  8
1DIM
  6
CONTINUOUS
 62
   201
 10
42230.77243853747
 20
-3049.669077685088
 40
35.0
  1
420
  0
POINT
  8
DEFPOINTS
 62
     0
 10
42071.31588734892
 20
-3156.669077685088
 30
0.0
  0
POINT
  8
DEFPOINTS
 62
     0
 10
42490.22898972603
 20
-3156.669077685088
 30
0.0
  0
POINT
  8
DEFPOINTS
 62
     0
 10
42490.22898972603
 20
-3056.669077685088
 30
0.0
  0
ENDBLK
  8
0
  0
BLOCK
  8
0
  2
*D240
 70
     1
 10
0.0
 20
0.0
  0
LINE
  8
1DIM
 10
43467.01622796573
 20
-779.840746125876
 11
43407.01622796573
 21
-779.840746125876
  0
LINE
  8
1DIM
 10
43467.01622796573
 20
-1270.332851278365
 11
43407.01622796573
 21
-1270.332851278365
  0
LINE
  8
1DIM
 10
43417.01622796573
 20
-799.840746125876
 11
43417.01622796573
 21
-1250.332851278365
  0
INSERT
  8
1DIM
  2
_OPEN30
 10
43417.01622796573
 20
-779.840746125876
 30
0.0
 41
20.0
 42
20.0
 43
20.0
 50
90.0
  0
INSERT
  8
1DIM
  2
_OPEN30
 10
43417.01622796573
 20
-1270.332851278365
 30
0.0
 41
20.0
 42
20.0
 43
20.0
 50
270.0
  0
TEXT
  8
1DIM
  6
CONTINUOUS
 62
   201
 10
43410.01622796573
 20
-1075.086798702119
 40
35.0
  1
490
 50
90.0
  0
POINT
  8
DEFPOINTS
 62
     0
 10
43517.01622796573
 20
-779.840746125876
 30
0.0
  0
POINT
  8
DEFPOINTS
 62
     0
 10
43517.01622796573
 20
-1270.332851278365
 30
0.0
  0
POINT
  8
DEFPOINTS
 62
     0
 10
43417.01622796573
 20
-1270.332851278365
 30
0.0
  0
ENDBLK
  8
0
  0
BLOCK
  8
0
  2
*D241
 70
     1
 10
0.0
 20
0.0
  0
LINE
  8
1DIM
 10
43517.01622796573
 20
-1320.332851278365
 11
43517.01622796573
 21
-1380.332851278365
  0
LINE
  8
1DIM
 10
44077.37495531156
 20
-1320.332851278365
 11
44077.37495531156
 21
-1380.332851278365
  0
LINE
  8
1DIM
 10
43537.01622796573
 20
-1370.332851278365
 11
44057.37495531156
 21
-1370.332851278365
  0
INSERT
  8
1DIM
  2
_OPEN30
 10
43517.01622796573
 20
-1370.332851278365
 30
0.0
 41
20.0
 42
20.0
 43
20.0
 50
180.0
  0
INSERT
  8
1DIM
  2
_OPEN30
 10
44077.37495531156
 20
-1370.332851278365
 30
0.0
 41
20.0
 42
20.0
 43
20.0
  0
TEXT
  8
1DIM
  6
CONTINUOUS
 62
   201
 10
43747.19559163864
 20
-1363.332851278365
 40
35.0
  1
560
  0
POINT
  8
DEFPOINTS
 62
     0
 10
43517.01622796573
 20
-1270.332851278365
 30
0.0
  0
POINT
  8
DEFPOINTS
 62
     0
 10
44077.37495531156
 20
-1270.332851278365
 30
0.0
  0
POINT
  8
DEFPOINTS
 62
     0
 10
44077.37495531156
 20
-1370.332851278365
 30
0.0
  0
ENDBLK
  8
0
  0
BLOCK
  8
0
  2
*D242
 70
     1
 10
0.0
 20
0.0
  0
LINE
  8
1DIM
 10
42466.8129102715
 20
-1320.332851278365
 11
42466.8129102715
 21
-1380.332851278365
  0
LINE
  8
1DIM
 10
43017.01622796573
 20
-1320.332851278365
 11
43017.01622796573
 21
-1380.332851278365
  0
LINE
  8
1DIM
 10
42486.8129102715
 20
-1370.332851278365
 11
42997.01622796573
 21
-1370.332851278365
  0
INSERT
  8
1DIM
  2
_OPEN30
 10
42466.8129102715
 20
-1370.332851278365
 30
0.0
 41
20.0
 42
20.0
 43
20.0
 50
180.0
  0
INSERT
  8
1DIM
  2
_OPEN30
 10
43017.01622796573
 20
-1370.332851278365
 30
0.0
 41
20.0
 42
20.0
 43
20.0
  0
TEXT
  8
1DIM
  6
CONTINUOUS
 62
   201
 10
42691.91456911861
 20
-1363.332851278365
 40
35.0
  1
550
  0
POINT
  8
DEFPOINTS
 62
     0
 10
42466.8129102715
 20
-1270.332851278365
 30
0.0
  0
POINT
  8
DEFPOINTS
 62
     0
 10
43017.01622796573
 20
-1270.332851278365
 30
0.0
  0
POINT
  8
DEFPOINTS
 62
     0
 10
43017.01622796573
 20
-1370.332851278365
 30
0.0
  0
ENDBLK
  8
0
  0
BLOCK
  8
0
  2
*D243
 70
     1
 10
0.0
 20
0.0
  0
LINE
  8
1DIM
 10
44127.37495531156
 20
-482.074377443143
 11
44187.37495531156
 21
-482.074377443143
  0
LINE
  8
1DIM
 10
44127.37495531156
 20
-1270.332851278365
 11
44187.37495531156
 21
-1270.332851278365
  0
LINE
  8
1DIM
 10
44177.37495531156
 20
-502.074377443143
 11
44177.37495531156
 21
-1250.332851278365
  0
INSERT
  8
1DIM
  2
_OPEN30
 10
44177.37495531156
 20
-482.074377443143
 30
0.0
 41
20.0
 42
20.0
 43
20.0
 50
90.0
  0
INSERT
  8
1DIM
  2
_OPEN30
 10
44177.37495531156
 20
-1270.332851278365
 30
0.0
 41
20.0
 42
20.0
 43
20.0
 50
270.0
  0
TEXT
  8
1DIM
  6
CONTINUOUS
 62
   201
 10
44170.37495531156
 20
-926.203614360755
 40
35.0
  1
790
 50
90.0
  0
POINT
  8
DEFPOINTS
 62
     0
 10
44077.37495531156
 20
-482.074377443143
 30
0.0
  0
POINT
  8
DEFPOINTS
 62
     0
 10
44077.37495531156
 20
-1270.332851278365
 30
0.0
  0
POINT
  8
DEFPOINTS
 62
     0
 10
44177.37495531156
 20
-1270.332851278365
 30
0.0
  0
ENDBLK
  8
0
  0
BLOCK
  8
0
  2
*D244
 70
     1
 10
0.0
 20
0.0
  0
LINE
  8
1DIM
 10
42416.74843318335
 20
-847.648286426733
 11
42356.74843318335
 21
-847.648286426733
  0
LINE
  8
1DIM
 10
42416.74843318335
 20
-1270.332851278365
 11
42356.74843318335
 21
-1270.332851278365
  0
LINE
  8
1DIM
 10
42366.74843318335
 20
-867.648286426733
 11
42366.74843318335
 21
-1250.332851278365
  0
INSERT
  8
1DIM
  2
_OPEN30
 10
42366.74843318335
 20
-847.648286426733
 30
0.0
 41
20.0
 42
20.0
 43
20.0
 50
90.0
  0
INSERT
  8
1DIM
  2
_OPEN30
 10
42366.74843318335
 20
-1270.332851278365
 30
0.0
 41
20.0
 42
20.0
 43
20.0
 50
270.0
  0
TEXT
  8
1DIM
  6
CONTINUOUS
 62
   201
 10
42359.74843318335
 20
-1108.990568852547
 40
35.0
  1
425
 50
90.0
  0
POINT
  8
DEFPOINTS
 62
     0
 10
42466.74843318335
 20
-847.648286426733
 30
0.0
  0
POINT
  8
DEFPOINTS
 62
     0
 10
42466.74843318335
 20
-1270.332851278365
 30
0.0
  0
POINT
  8
DEFPOINTS
 62
     0
 10
42366.74843318335
 20
-1270.332851278365
 30
0.0
  0
ENDBLK
  8
0
  0
BLOCK
  8
0
  2
*D245
 70
     1
 10
0.0
 20
0.0
  0
LINE
  8
1DIM
 10
42532.39354064997
 20
-433.491907109456
 11
42532.39354064997
 21
-373.491907109456
  0
LINE
  8
1DIM
 10
42951.30664302708
 20
-433.491907109456
 11
42951.30664302708
 21
-373.491907109456
  0
LINE
  8
1DIM
 10
42552.39354064997
 20
-383.491907109456
 11
42931.30664302708
 21
-383.491907109456
  0
INSERT
  8
1DIM
  2
_OPEN30
 10
42532.39354064997
 20
-383.491907109456
 30
0.0
 41
20.0
 42
20.0
 43
20.0
 50
180.0
  0
INSERT
  8
1DIM
  2
_OPEN30
 10
42951.30664302708
 20
-383.491907109456
 30
0.0
 41
20.0
 42
20.0
 43
20.0
  0
TEXT
  8
1DIM
  6
CONTINUOUS
 62
   201
 10
42691.85009183853
 20
-376.491907109456
 40
35.0
  1
420
  0
POINT
  8
DEFPOINTS
 62
     0
 10
42532.39354064997
 20
-483.491907109456
 30
0.0
  0
POINT
  8
DEFPOINTS
 62
     0
 10
42951.30664302708
 20
-483.491907109456
 30
0.0
  0
POINT
  8
DEFPOINTS
 62
     0
 10
42951.30664302708
 20
-383.491907109456
 30
0.0
  0
ENDBLK
  8
0
  0
BLOCK
  8
0
  2
*D246
 70
     1
 10
0.0
 20
0.0
  0
LINE
  8
1DIM
 10
43519.61622796573
 20
-432.074377443143
 11
43519.61622796573
 21
-372.074377443143
  0
LINE
  8
1DIM
 10
43939.68600619607
 20
-432.074377443143
 11
43939.68600619607
 21
-372.074377443143
  0
LINE
  8
1DIM
 10
43539.61622796573
 20
-382.074377443143
 11
43919.68600619607
 21
-382.074377443143
  0
INSERT
  8
1DIM
  2
_OPEN30
 10
43519.61622796573
 20
-382.074377443143
 30
0.0
 41
20.0
 42
20.0
 43
20.0
 50
180.0
  0
INSERT
  8
1DIM
  2
_OPEN30
 10
43939.68600619607
 20
-382.074377443143
 30
0.0
 41
20.0
 42
20.0
 43
20.0
  0
TEXT
  8
1DIM
  6
CONTINUOUS
 62
   201
 10
43679.6511170809
 20
-375.074377443143
 40
35.0
  1
420
  0
POINT
  8
DEFPOINTS
 62
     0
 10
43519.61622796573
 20
-482.074377443143
 30
0.0
  0
POINT
  8
DEFPOINTS
 62
     0
 10
43939.68600619607
 20
-482.074377443143
 30
0.0
  0
POINT
  8
DEFPOINTS
 62
     0
 10
43939.68600619607
 20
-382.074377443143
 30
0.0
  0
ENDBLK
  8
0
  0
BLOCK
  8
0
  2
*D254
 70
     1
 10
0.0
 20
0.0
  0
LINE
  8
1DIM
 10
38900.82638174239
 20
-6714.82651730407
 11
38900.82638174239
 21
-6774.82651730407
  0
LINE
  8
1DIM
 10
39321.26190446367
 20
-6714.82651730407
 11
39321.26190446367
 21
-6774.82651730407
  0
LINE
  8
1DIM
 10
38920.82638174239
 20
-6764.82651730407
 11
39301.26190446367
 21
-6764.82651730407
  0
INSERT
  8
1DIM
  2
_OPEN30
 10
38900.82638174239
 20
-6764.82651730407
 30
0.0
 41
20.0
 42
20.0
 43
20.0
 50
180.0
  0
INSERT
  8
1DIM
  2
_OPEN30
 10
39321.26190446367
 20
-6764.82651730407
 30
0.0
 41
20.0
 42
20.0
 43
20.0
  0
TEXT
  8
1DIM
  6
CONTINUOUS
 62
   201
 10
39061.04414310303
 20
-6757.82651730407
 40
35.0
  1
420
  0
POINT
  8
DEFPOINTS
 62
     0
 10
38900.82638174239
 20
-6664.82651730407
 30
0.0
  0
POINT
  8
DEFPOINTS
 62
     0
 10
39321.26190446367
 20
-6664.82651730407
 30
0.0
  0
POINT
  8
DEFPOINTS
 62
     0
 10
39321.26190446367
 20
-6764.82651730407
 30
0.0
  0
ENDBLK
  8
0
  0
BLOCK
  8
0
  2
*D255
 70
     1
 10
0.0
 20
0.0
  0
LINE
  8
1DIM
 10
39823.26190446367
 20
-6714.82651730407
 11
39823.26190446367
 21
-6774.82651730407
  0
LINE
  8
1DIM
 10
40341.41905519964
 20
-6714.82651730407
 11
40341.41905519964
 21
-6774.82651730407
  0
LINE
  8
1DIM
 10
39843.26190446367
 20
-6764.82651730407
 11
40321.41905519964
 21
-6764.82651730407
  0
INSERT
  8
1DIM
  2
_OPEN30
 10
39823.26190446367
 20
-6764.82651730407
 30
0.0
 41
20.0
 42
20.0
 43
20.0
 50
180.0
  0
INSERT
  8
1DIM
  2
_OPEN30
 10
40341.41905519964
 20
-6764.82651730407
 30
0.0
 41
20.0
 42
20.0
 43
20.0
  0
TEXT
  8
1DIM
  6
CONTINUOUS
 62
   201
 10
40032.34047983166
 20
-6757.82651730407
 40
35.0
  1
518
  0
POINT
  8
DEFPOINTS
 62
     0
 10
39823.26190446367
 20
-6664.82651730407
 30
0.0
  0
POINT
  8
DEFPOINTS
 62
     0
 10
40341.41905519964
 20
-6664.82651730407
 30
0.0
  0
POINT
  8
DEFPOINTS
 62
     0
 10
40341.41905519964
 20
-6764.82651730407
 30
0.0
  0
ENDBLK
  8
0
  0
BLOCK
  8
0
  2
*D256
 70
     1
 10
0.0
 20
0.0
  0
LINE
  8
1DIM
 10
40391.41905519964
 20
-6664.82651730407
 11
40451.41905519964
 21
-6664.82651730407
  0
LINE
  8
1DIM
 10
40391.41905519964
 20
-5789.82651730407
 11
40451.41905519964
 21
-5789.82651730407
  0
LINE
  8
1DIM
 10
40441.41905519964
 20
-6644.82651730407
 11
40441.41905519964
 21
-5809.82651730407
  0
INSERT
  8
1DIM
  2
_OPEN30
 10
40441.41905519964
 20
-6664.82651730407
 30
0.0
 41
20.0
 42
20.0
 43
20.0
 50
270.0
  0
INSERT
  8
1DIM
  2
_OPEN30
 10
40441.41905519964
 20
-5789.82651730407
 30
0.0
 41
20.0
 42
20.0
 43
20.0
 50
90.0
  0
TEXT
  8
1DIM
  6
CONTINUOUS
 62
   201
 10
40434.41905519964
 20
-6277.326517304071
 40
35.0
  1
880
 50
90.0
  0
POINT
  8
DEFPOINTS
 62
     0
 10
40341.41905519964
 20
-6664.82651730407
 30
0.0
  0
POINT
  8
DEFPOINTS
 62
     0
 10
40341.41905519964
 20
-5789.82651730407
 30
0.0
  0
POINT
  8
DEFPOINTS
 62
     0
 10
40441.41905519964
 20
-5789.82651730407
 30
0.0
  0
ENDBLK
  8
0
  0
BLOCK
  8
0
  2
*D257
 70
     1
 10
0.0
 20
0.0
  0
LINE
  8
1DIM
 10
39823.26190446367
 20
-5739.82651730407
 11
39823.26190446367
 21
-5679.82651730407
  0
LINE
  8
1DIM
 10
40227.36637812293
 20
-5739.82651730407
 11
40227.36637812293
 21
-5679.82651730407
  0
LINE
  8
1DIM
 10
39843.26190446367
 20
-5689.82651730407
 11
40207.36637812293
 21
-5689.82651730407
  0
INSERT
  8
1DIM
  2
_OPEN30
 10
39823.26190446367
 20
-5689.82651730407
 30
0.0
 41
20.0
 42
20.0
 43
20.0
 50
180.0
  0
INSERT
  8
1DIM
  2
_OPEN30
 10
40227.36637812293
 20
-5689.82651730407
 30
0.0
 41
20.0
 42
20.0
 43
20.0
  0
TEXT
  8
1DIM
  6
CONTINUOUS
 62
   201
 10
39974.48080795996
 20
-5682.82651730407
 40
35.0
  1
404
  0
POINT
  8
DEFPOINTS
 62
     0
 10
39823.26190446367
 20
-5789.82651730407
 30
0.0
  0
POINT
  8
DEFPOINTS
 62
     0
 10
40227.36637812293
 20
-5789.82651730407
 30
0.0
  0
POINT
  8
DEFPOINTS
 62
     0
 10
40227.36637812293
 20
-5689.82651730407
 30
0.0
  0
ENDBLK
  8
0
  0
BLOCK
  8
0
  2
*D258
 70
     1
 10
0.0
 20
0.0
  0
LINE
  8
1DIM
 10
38846.82724623389
 20
-6222.474032201824
 11
38788.82724623389
 21
-6222.474032201824
  0
LINE
  8
1DIM
 10
38848.82724623389
 20
-6664.826523641706
 11
38788.82724623389
 21
-6664.826523641706
  0
LINE
  8
1DIM
 10
38798.82724623389
 20
-6242.474032201824
 11
38798.82724623389
 21
-6644.826523641706
  0
INSERT
  8
1DIM
  2
_OPEN30
 10
38798.82724623389
 20
-6222.474032201824
 30
0.0
 41
20.0
 42
20.0
 43
20.0
 50
90.0
  0
INSERT
  8
1DIM
  2
_OPEN30
 10
38798.82724623389
 20
-6664.826523641706
 30
0.0
 41
20.0
 42
20.0
 43
20.0
 50
270.0
  0
TEXT
  8
1DIM
  6
CONTINUOUS
 62
   201
 10
38791.82724623389
 20
-6493.650277921763
 40
35.0
  1
440
 50
90.0
  0
POINT
  8
DEFPOINTS
 62
     0
 10
38896.82724623389
 20
-6222.474032201824
 30
0.0
  0
POINT
  8
DEFPOINTS
 62
     0
 10
38898.82724623389
 20
-6664.826523641706
 30
0.0
  0
POINT
  8
DEFPOINTS
 62
     0
 10
38798.82724623389
 20
-6664.826523641706
 30
0.0
  0
ENDBLK
  8
0
  0
BLOCK
  8
0
  2
*D259
 70
     1
 10
0.0
 20
0.0
  0
LINE
  8
1DIM
 10
40823.26181744663
 20
-6664.826502045281
 11
40763.26181744663
 21
-6664.826502045281
  0
LINE
  8
1DIM
 10
40823.26181744663
 20
-5864.826502045283
 11
40763.26181744663
 21
-5864.826502045283
  0
LINE
  8
1DIM
 10
40773.26181744663
 20
-6644.826502045281
 11
40773.26181744663
 21
-5884.826502045283
  0
INSERT
  8
1DIM
  2
_OPEN30
 10
40773.26181744663
 20
-6664.826502045281
 30
0.0
 41
20.0
 42
20.0
 43
20.0
 50
270.0
  0
INSERT
  8
1DIM
  2
_OPEN30
 10
40773.26181744663
 20
-5864.826502045283
 30
0.0
 41
20.0
 42
20.0
 43
20.0
 50
90.0
  0
TEXT
  8
1DIM
  6
CONTINUOUS
 62
   201
 10
40766.26181744663
 20
-6314.826502045282
 40
35.0
  1
800
 50
90.0
  0
POINT
  8
DEFPOINTS
 62
     0
 10
40873.26181744663
 20
-6664.826502045281
 30
0.0
  0
POINT
  8
DEFPOINTS
 62
     0
 10
40873.26181744663
 20
-5864.826502045283
 30
0.0
  0
POINT
  8
DEFPOINTS
 62
     0
 10
40773.26181744663
 20
-5864.826502045283
 30
0.0
  0
ENDBLK
  8
0
  0
BLOCK
  8
0
  2
*D260
 70
     1
 10
0.0
 20
0.0
  0
LINE
  8
1DIM
 10
45523.25123621211
 20
-1320.332927572316
 11
45523.25123621211
 21
-1380.332927572316
  0
LINE
  8
1DIM
 10
45943.68675893338
 20
-1320.332927572316
 11
45943.68675893338
 21
-1380.332927572316
  0
LINE
  8
1DIM
 10
45543.25123621211
 20
-1370.332927572316
 11
45923.68675893338
 21
-1370.332927572316
  0
INSERT
  8
1DIM
  2
_OPEN30
 10
45523.25123621211
 20
-1370.332927572316
 30
0.0
 41
20.0
 42
20.0
 43
20.0
 50
180.0
  0
INSERT
  8
1DIM
  2
_OPEN30
 10
45943.68675893338
 20
-1370.332927572316
 30
0.0
 41
20.0
 42
20.0
 43
20.0
  0
TEXT
  8
1DIM
  6
CONTINUOUS
 62
   201
 10
45683.46899757274
 20
-1363.332927572316
 40
35.0
  1
420
  0
POINT
  8
DEFPOINTS
 62
     0
 10
45523.25123621211
 20
-1270.332927572316
 30
0.0
  0
POINT
  8
DEFPOINTS
 62
     0
 10
45943.68675893338
 20
-1270.332927572316
 30
0.0
  0
POINT
  8
DEFPOINTS
 62
     0
 10
45943.68675893338
 20
-1370.332927572316
 30
0.0
  0
ENDBLK
  8
0
  0
BLOCK
  8
0
  2
*D261
 70
     1
 10
0.0
 20
0.0
  0
LINE
  8
1DIM
 10
46445.68675893338
 20
-1320.332927572316
 11
46445.68675893338
 21
-1380.332927572316
  0
LINE
  8
1DIM
 10
46963.84390966935
 20
-1320.332927572316
 11
46963.84390966935
 21
-1380.332927572316
  0
LINE
  8
1DIM
 10
46465.68675893338
 20
-1370.332927572316
 11
46943.84390966935
 21
-1370.332927572316
  0
INSERT
  8
1DIM
  2
_OPEN30
 10
46445.68675893338
 20
-1370.332927572316
 30
0.0
 41
20.0
 42
20.0
 43
20.0
 50
180.0
  0
INSERT
  8
1DIM
  2
_OPEN30
 10
46963.84390966935
 20
-1370.332927572316
 30
0.0
 41
20.0
 42
20.0
 43
20.0
  0
TEXT
  8
1DIM
  6
CONTINUOUS
 62
   201
 10
46654.76533430137
 20
-1363.332927572316
 40
35.0
  1
518
  0
POINT
  8
DEFPOINTS
 62
     0
 10
46445.68675893338
 20
-1270.332927572316
 30
0.0
  0
POINT
  8
DEFPOINTS
 62
     0
 10
46963.84390966935
 20
-1270.332927572316
 30
0.0
  0
POINT
  8
DEFPOINTS
 62
     0
 10
46963.84390966935
 20
-1370.332927572316
 30
0.0
  0
ENDBLK
  8
0
  0
BLOCK
  8
0
  2
*D262
 70
     1
 10
0.0
 20
0.0
  0
LINE
  8
1DIM
 10
47013.84390966935
 20
-1270.332927572316
 11
47073.84390966935
 21
-1270.332927572316
  0
LINE
  8
1DIM
 10
47013.84390966935
 20
-395.332927572316
 11
47073.84390966935
 21
-395.332927572316
  0
LINE
  8
1DIM
 10
47063.84390966935
 20
-1250.332927572316
 11
47063.84390966935
 21
-415.332927572316
  0
INSERT
  8
1DIM
  2
_OPEN30
 10
47063.84390966935
 20
-1270.332927572316
 30
0.0
 41
20.0
 42
20.0
 43
20.0
 50
270.0
  0
INSERT
  8
1DIM
  2
_OPEN30
 10
47063.84390966935
 20
-395.332927572316
 30
0.0
 41
20.0
 42
20.0
 43
20.0
 50
90.0
  0
TEXT
  8
1DIM
  6
CONTINUOUS
 62
   201
 10
47056.84390966935
 20
-882.832927572315
 40
35.0
  1
880
 50
90.0
  0
POINT
  8
DEFPOINTS
 62
     0
 10
46963.84390966935
 20
-1270.332927572316
 30
0.0
  0
POINT
  8
DEFPOINTS
 62
     0
 10
46963.84390966935
 20
-395.332927572316
 30
0.0
  0
POINT
  8
DEFPOINTS
 62
     0
 10
47063.84390966935
 20
-395.332927572316
 30
0.0
  0
ENDBLK
  8
0
  0
BLOCK
  8
0
  2
*D263
 70
     1
 10
0.0
 20
0.0
  0
LINE
  8
1DIM
 10
46445.68675893338
 20
-345.332927572316
 11
46445.68675893338
 21
-285.332927572316
  0
LINE
  8
1DIM
 10
46849.79123259264
 20
-345.332927572316
 11
46849.79123259264
 21
-285.332927572316
  0
LINE
  8
1DIM
 10
46465.68675893338
 20
-295.332927572316
 11
46829.79123259264
 21
-295.332927572316
  0
INSERT
  8
1DIM
  2
_OPEN30
 10
46445.68675893338
 20
-295.332927572316
 30
0.0
 41
20.0
 42
20.0
 43
20.0
 50
180.0
  0
INSERT
  8
1DIM
  2
_OPEN30
 10
46849.79123259264
 20
-295.332927572316
 30
0.0
 41
20.0
 42
20.0
 43
20.0
  0
TEXT
  8
1DIM
  6
CONTINUOUS
 62
   201
 10
46596.90566242967
 20
-288.332927572316
 40
35.0
  1
404
  0
POINT
  8
DEFPOINTS
 62
     0
 10
46445.68675893338
 20
-395.332927572316
 30
0.0
  0
POINT
  8
DEFPOINTS
 62
     0
 10
46849.79123259264
 20
-395.332927572316
 30
0.0
  0
POINT
  8
DEFPOINTS
 62
     0
 10
46849.79123259264
 20
-295.332927572316
 30
0.0
  0
ENDBLK
  8
0
  0
BLOCK
  8
0
  2
*D264
 70
     1
 10
0.0
 20
0.0
  0
LINE
  8
1DIM
 10
45469.2521007036
 20
-827.980442470069
 11
45411.2521007036
 21
-827.980442470069
  0
LINE
  8
1DIM
 10
45471.2521007036
 20
-1270.332933909951
 11
45411.2521007036
 21
-1270.332933909951
  0
LINE
  8
1DIM
 10
45421.2521007036
 20
-847.980442470069
 11
45421.2521007036
 21
-1250.332933909951
  0
INSERT
  8
1DIM
  2
_OPEN30
 10
45421.2521007036
 20
-827.980442470069
 30
0.0
 41
20.0
 42
20.0
 43
20.0
 50
90.0
  0
INSERT
  8
1DIM
  2
_OPEN30
 10
45421.2521007036
 20
-1270.332933909951
 30
0.0
 41
20.0
 42
20.0
 43
20.0
 50
270.0
  0
TEXT
  8
1DIM
  6
CONTINUOUS
 62
   201
 10
45414.2521007036
 20
-1099.156688190007
 40
35.0
  1
440
 50
90.0
  0
POINT
  8
DEFPOINTS
 62
     0
 10
45519.2521007036
 20
-827.980442470069
 30
0.0
  0
POINT
  8
DEFPOINTS
 62
     0
 10
45521.2521007036
 20
-1270.332933909951
 30
0.0
  0
POINT
  8
DEFPOINTS
 62
     0
 10
45421.2521007036
 20
-1270.332933909951
 30
0.0
  0
ENDBLK
  8
0
  0
BLOCK
  8
0
  2
*D265
 70
     1
 10
0.0
 20
0.0
  0
LINE
  8
1DIM
 10
47445.68667191634
 20
-1270.332912313527
 11
47385.68667191634
 21
-1270.332912313527
  0
LINE
  8
1DIM
 10
47445.68667191634
 20
-470.332912313529
 11
47385.68667191634
 21
-470.332912313529
  0
LINE
  8
1DIM
 10
47395.68667191634
 20
-1250.332912313527
 11
47395.68667191634
 21
-490.332912313529
  0
INSERT
  8
1DIM
  2
_OPEN30
 10
47395.68667191634
 20
-1270.332912313527
 30
0.0
 41
20.0
 42
20.0
 43
20.0
 50
270.0
  0
INSERT
  8
1DIM
  2
_OPEN30
 10
47395.68667191634
 20
-470.332912313529
 30
0.0
 41
20.0
 42
20.0
 43
20.0
 50
90.0
  0
TEXT
  8
1DIM
  6
CONTINUOUS
 62
   201
 10
47388.68667191634
 20
-920.332912313526
 40
35.0
  1
800
 50
90.0
  0
POINT
  8
DEFPOINTS
 62
     0
 10
47495.68667191634
 20
-1270.332912313527
 30
0.0
  0
POINT
  8
DEFPOINTS
 62
     0
 10
47495.68667191634
 20
-470.332912313529
 30
0.0
  0
POINT
  8
DEFPOINTS
 62
     0
 10
47395.68667191634
 20
-470.332912313529
 30
0.0
  0
ENDBLK
  8
0
  0
BLOCK
  8
0
  2
NOCIRCLE
 70
     2
 10
0.0
 20
0.0
  0
CIRCLE
  8
0
  6
BYBLOCK
 62
     0
 10
0.0
 20
0.0
 40
4.2
  0
ATTDEF
  8
1TEXT
 10
-1.904761904762
 20
-2.0
 40
4.0
  1
0
 72
     4
 11
0.0
 21
0.0
  3
NO.
  2
NO
 70
     0
  0
ENDBLK
  8
0
  0
BLOCK
  8
0
  2
_OPEN
 70
     0
 10
0.0
 20
0.0
  0
LINE
  8
0
  6
BYBLOCK
 62
     0
 10
-1.0
 20
0.166667
 11
0.0
 21
0.0
  0
LINE
  8
0
  6
BYBLOCK
 62
     0
 10
-1.0
 20
-0.166667
 11
0.0
 21
0.0
  0
LINE
  8
0
  6
BYBLOCK
 62
     0
 10
0.0
 20
0.0
 11
-1.0
 21
0.0
  0
ENDBLK
  8
0
  0
BLOCK
  8
0
  2
YA__
 70
     0
 10
0.0
 20
0.0
  0
INSERT
  8
0
  2
YA_
 10
0.0
 20
0.0
 30
0.0
 50
180.0
  0
ENDBLK
  8
0
  0
BLOCK
  8
0
  2
YA_
 70
     0
 10
0.0
 20
0.0
  0
LINE
  8
0
 10
-5.598760219962
 20
0.622116757674
 11
-2.488360049962
 21
0.622116757674
  0
LINE
  8
0
 10
-5.598760219962
 20
-0.622043242326
 11
-2.488359989962
 21
-0.622043242326
  0
LINE
  8
0
 10
-5.598760219962
 20
0.622116757674
 11
-5.598760219962
 21
-0.622043242326
  0
LINE
  8
0
 10
-2.488360079962
 20
1.346879757674
 11
-2.488360049962
 21
0.622116757674
  0
LINE
  8
0
 10
0.155480482306
 20
-1.993947296099
 11
0.155480380551
 21
1.993947304034
  0
LINE
  8
0
 10
-0.000039515118
 20
-1.99999999961
 11
-0.000039719246
 21
1.999999999606
  0
LINE
  8
0
 10
-0.155559515297
 20
-1.993941131829
 11
-0.155559619962
 21
0.000036757674
  0
LINE
  8
0
 10
-0.155559619962
 20
0.000036757674
 11
-0.155559718965
 21
1.99394111594
  0
LINE
  8
0
 10
-2.488359989962
 20
-0.622043242326
 11
-2.488359959962
 21
-1.346806242326
  0
LINE
  8
0
 10
-0.155559619962
 20
0.000036757674
 11
-2.488360199962
 21
-1.346806242326
  0
LINE
  8
0
 10
-0.155559619962
 20
0.000036757674
 11
-2.488360079962
 21
1.346879757674
  0
POINT
  8
POINT
 10
0.0
 20
0.0
 30
0.0
  0
ENDBLK
  8
0
  0
BLOCK
  8
0
  2
*D273
 70
     1
 10
0.0
 20
0.0
  0
LINE
  8
1DIM
 10
39111.07107297645
 20
-5489.82651730407
 11
39622.24617163939
 21
-5489.82651730407
  0
LINE
  8
1DIM
 10
39111.07107391537
 20
-5085.737894010413
 11
39622.24617163939
 21
-5085.737894010413
  0
LINE
  8
1DIM
 10
39572.24617163939
 20
-5389.82651730407
 11
39572.24617163939
 21
-5185.737894010413
  0
INSERT
  8
1DIM
  2
_OPEN30
 10
39572.24617163939
 20
-5489.82651730407
 30
0.0
 41
100.0
 42
100.0
 43
100.0
 50
270.0
  0
INSERT
  8
1DIM
  2
_OPEN30
 10
39572.24617163939
 20
-5085.737894010413
 30
0.0
 41
100.0
 42
100.0
 43
100.0
 50
90.0
  0
TEXT
  8
1DIM
  6
CONTINUOUS
 62
   201
 10
39537.24617163939
 20
-5381.115538990569
 40
175.0
  1
üÜ
 50
90.0
  0
POINT
  8
DEFPOINTS
 62
     0
 10
39111.07107297645
 20
-5489.82651730407
 30
0.0
  0
POINT
  8
DEFPOINTS
 62
     0
 10
39111.07107391537
 20
-5085.737894010413
 30
0.0
  0
POINT
  8
DEFPOINTS
 62
     0
 10
39572.24617163939
 20
-5085.737894010413
 30
0.0
  0
ENDBLK
  8
0
  0
BLOCK
  8
0
  2
*D275
 70
     1
 10
0.0
 20
0.0
  0
LINE
  8
1DIM
 10
23.425390470789
 20
615.913480140452
 11
23.425390470789
 21
0.0
  0
LINE
  8
1DIM
 10
423.425390470789
 20
624.092273955948
 11
423.425390470789
 21
0.0
  0
LINE
  8
1DIM
 10
37.425390470789
 20
7.0
 11
409.425390470789
 21
7.0
  0
INSERT
  8
1DIM
  2
_OPEN30
 10
23.425390470789
 20
7.0
 30
0.0
 41
14.0
 42
14.0
 43
14.0
 50
180.0
  0
INSERT
  8
1DIM
  2
_OPEN30
 10
423.425390470789
 20
7.0
 30
0.0
 41
14.0
 42
14.0
 43
14.0
  0
TEXT
  8
1DIM
  6
CONTINUOUS
 62
   201
 10
169.175390470789
 20
11.9
 40
24.5
  1
W:400
  0
POINT
  8
DEFPOINTS
 62
     0
 10
23.425390470789
 20
615.913480140452
 30
0.0
  0
POINT
  8
DEFPOINTS
 62
     0
 10
423.425390470789
 20
624.092273955948
 30
0.0
  0
POINT
  8
DEFPOINTS
 62
     0
 10
423.425390470789
 20
7.0
 30
0.0
  0
ENDBLK
  8
0
  0
BLOCK
  8
0
  2
*D276
 70
     1
 10
0.0
 20
0.0
  0
LINE
  8
1DIM
 10
359.197658405094
 20
78.913480140452
 11
544.358936595583
 21
78.913480140452
  0
LINE
  8
1DIM
 10
423.425390470789
 20
628.913480140452
 11
544.358936595583
 21
628.913480140452
  0
LINE
  8
1DIM
 10
537.358936595583
 20
92.913480140452
 11
537.358936595583
 21
614.913480140452
  0
INSERT
  8
1DIM
  2
_OPEN30
 10
537.358936595583
 20
78.913480140452
 30
0.0
 41
14.0
 42
14.0
 43
14.0
 50
270.0
  0
INSERT
  8
1DIM
  2
_OPEN30
 10
537.358936595583
 20
628.913480140452
 30
0.0
 41
14.0
 42
14.0
 43
14.0
 50
90.0
  0
TEXT
  8
1DIM
  6
CONTINUOUS
 62
   201
 10
532.458936595583
 20
299.663480140452
 40
24.5
  1
H:550
 50
90.0
  0
POINT
  8
DEFPOINTS
 62
     0
 10
359.197658405094
 20
78.913480140452
 30
0.0
  0
POINT
  8
DEFPOINTS
 62
     0
 10
423.425390470789
 20
628.913480140452
 30
0.0
  0
POINT
  8
DEFPOINTS
 62
     0
 10
537.358936595583
 20
628.913480140452
 30
0.0
  0
ENDBLK
  8
0
  0
BLOCK
  8
0
  2
*D277
 70
     1
 10
0.0
 20
0.0
  0
LINE
  8
1DIM
 10
405.112303269326
 20
1069.614542495053
 11
497.625468057242
 21
1127.191002835791
  0
LINE
  8
1DIM
 10
41.738477672253
 20
843.465337608219
 11
29.85241795646
 21
836.067933710051
  0
TEXT
  8
1DIM
  6
CONTINUOUS
 62
   201
 10
415.59787759234
 20
1081.911807683565
 40
24.5
  1
\U+2205400
 50
31.896467587823
  0
LINE
  8
1DIM
 10
53.624537388045
 20
850.862741506386
 11
393.226243553534
 21
1062.217138596886
  0
INSERT
  8
1DIM
  2
_OPEN30
 10
53.624537388045
 20
850.862741506386
 30
0.0
 41
14.0
 42
14.0
 43
14.0
 50
31.896467587823
  0
INSERT
  8
1DIM
  2
_OPEN30
 10
393.226243553534
 20
1062.217138596886
 30
0.0
 41
14.0
 42
14.0
 43
14.0
 50
211.896467587823
  0
POINT
  8
DEFPOINTS
 62
     0
 10
393.226243553534
 20
1062.217138596886
 30
0.0
  0
POINT
  8
DEFPOINTS
 62
     0
 10
53.624537388045
 20
850.862741506386
 30
0.0
  0
ENDBLK
  8
0
  0
BLOCK
  8
0
  2
*D278
 70
     1
 10
0.0
 20
0.0
  0
LINE
  8
1DIM
 10
38923.26190446367
 20
-6127.826523641706
 11
38923.26190446367
 21
-6743.740003782158
  0
LINE
  8
1DIM
 10
39323.26190446367
 20
-6119.64772982621
 11
39323.26190446367
 21
-6743.740003782158
  0
LINE
  8
1DIM
 10
38937.26190446367
 20
-6736.740003782158
 11
39309.26190446367
 21
-6736.740003782158
  0
INSERT
  8
1DIM
  2
_OPEN30
 10
38923.26190446367
 20
-6736.740003782158
 30
0.0
 41
14.0
 42
14.0
 43
14.0
 50
180.0
  0
INSERT
  8
1DIM
  2
_OPEN30
 10
39323.26190446367
 20
-6736.740003782158
 30
0.0
 41
14.0
 42
14.0
 43
14.0
  0
TEXT
  8
1DIM
  6
CONTINUOUS
 62
   201
 10
39069.01190446367
 20
-6731.840003782158
 40
24.5
  1
W:400
  0
POINT
  8
DEFPOINTS
 62
     0
 10
38923.26190446367
 20
-6127.826523641706
 30
0.0
  0
POINT
  8
DEFPOINTS
 62
     0
 10
39323.26190446367
 20
-6119.64772982621
 30
0.0
  0
POINT
  8
DEFPOINTS
 62
     0
 10
39323.26190446367
 20
-6736.740003782158
 30
0.0
  0
ENDBLK
  8
0
  0
BLOCK
  8
0
  2
*D279
 70
     1
 10
0.0
 20
0.0
  0
LINE
  8
1DIM
 10
39259.03417239797
 20
-6664.826523641706
 11
39444.19545058846
 21
-6664.826523641706
  0
LINE
  8
1DIM
 10
39323.26190446367
 20
-6114.826523641706
 11
39444.19545058846
 21
-6114.826523641706
  0
LINE
  8
1DIM
 10
39437.19545058846
 20
-6650.826523641706
 11
39437.19545058846
 21
-6128.826523641706
  0
INSERT
  8
1DIM
  2
_OPEN30
 10
39437.19545058846
 20
-6664.826523641706
 30
0.0
 41
14.0
 42
14.0
 43
14.0
 50
270.0
  0
INSERT
  8
1DIM
  2
_OPEN30
 10
39437.19545058846
 20
-6114.826523641706
 30
0.0
 41
14.0
 42
14.0
 43
14.0
 50
90.0
  0
TEXT
  8
1DIM
  6
CONTINUOUS
 62
   201
 10
39432.29545058846
 20
-6444.076523641706
 40
24.5
  1
H:550
 50
90.0
  0
POINT
  8
DEFPOINTS
 62
     0
 10
39259.03417239797
 20
-6664.826523641706
 30
0.0
  0
POINT
  8
DEFPOINTS
 62
     0
 10
39323.26190446367
 20
-6114.826523641706
 30
0.0
  0
POINT
  8
DEFPOINTS
 62
     0
 10
39437.19545058846
 20
-6114.826523641706
 30
0.0
  0
ENDBLK
  8
0
  0
BLOCK
  8
0
  2
*D280
 70
     1
 10
0.0
 20
0.0
  0
LINE
  8
1DIM
 10
39304.94881726221
 20
-5501.751921198289
 11
39397.46198205012
 21
-5444.175460857549
  0
LINE
  8
1DIM
 10
38941.57499166513
 20
-5727.901126085125
 11
38929.68893194934
 21
-5735.298529983293
  0
TEXT
  8
1DIM
  6
CONTINUOUS
 62
   201
 10
39315.43439158522
 20
-5489.454656009777
 40
24.5
  1
\U+2205400
 50
31.896467587822
  0
LINE
  8
1DIM
 10
38953.46105138092
 20
-5720.503722186957
 11
39293.06275754642
 21
-5509.149325096457
  0
INSERT
  8
1DIM
  2
_OPEN30
 10
38953.46105138092
 20
-5720.503722186957
 30
0.0
 41
14.0
 42
14.0
 43
14.0
 50
31.896467587822
  0
INSERT
  8
1DIM
  2
_OPEN30
 10
39293.06275754642
 20
-5509.149325096457
 30
0.0
 41
14.0
 42
14.0
 43
14.0
 50
211.896467587822
  0
POINT
  8
DEFPOINTS
 62
     0
 10
39293.06275754642
 20
-5509.149325096457
 30
0.0
  0
POINT
  8
DEFPOINTS
 62
     0
 10
38953.46105138092
 20
-5720.503722186957
 30
0.0
  0
ENDBLK
  8
0
  0
BLOCK
  8
0
  2
*D281
 70
     1
 10
0.0
 20
0.0
  0
LINE
  8
1DIM
 10
38923.26190446367
 20
-6714.826523641706
 11
38923.26190446367
 21
-6774.82651730407
  0
LINE
  8
1DIM
 10
39323.26190446367
 20
-6714.826523641706
 11
39323.26190446367
 21
-6774.82651730407
  0
LINE
  8
1DIM
 10
38943.26190446367
 20
-6764.82651730407
 11
39303.26190446367
 21
-6764.82651730407
  0
INSERT
  8
1DIM
  2
_OPEN30
 10
38923.26190446367
 20
-6764.82651730407
 30
0.0
 41
20.0
 42
20.0
 43
20.0
 50
180.0
  0
INSERT
  8
1DIM
  2
_OPEN30
 10
39323.26190446367
 20
-6764.82651730407
 30
0.0
 41
20.0
 42
20.0
 43
20.0
  0
TEXT
  8
1DIM
  6
CONTINUOUS
 62
   201
 10
39073.26190446367
 20
-6757.82651730407
 40
35.0
  1
400
  0
POINT
  8
DEFPOINTS
 62
     0
 10
38923.26190446367
 20
-6664.826523641706
 30
0.0
  0
POINT
  8
DEFPOINTS
 62
     0
 10
39323.26190446367
 20
-6664.826523641706
 30
0.0
  0
POINT
  8
DEFPOINTS
 62
     0
 10
39323.26190446367
 20
-6764.82651730407
 30
0.0
  0
ENDBLK
  8
0
  0
BLOCK
  8
0
  2
*D282
 70
     1
 10
0.0
 20
0.0
  0
LINE
  8
1DIM
 10
39823.26190446367
 20
-6714.82651730407
 11
39823.26190446367
 21
-6774.82651730407
  0
LINE
  8
1DIM
 10
40223.26190446367
 20
-6714.82651730407
 11
40223.26190446367
 21
-6774.82651730407
  0
LINE
  8
1DIM
 10
39843.26190446367
 20
-6764.82651730407
 11
40203.26190446367
 21
-6764.82651730407
  0
INSERT
  8
1DIM
  2
_OPEN30
 10
39823.26190446367
 20
-6764.82651730407
 30
0.0
 41
20.0
 42
20.0
 43
20.0
 50
180.0
  0
INSERT
  8
1DIM
  2
_OPEN30
 10
40223.26190446367
 20
-6764.82651730407
 30
0.0
 41
20.0
 42
20.0
 43
20.0
  0
TEXT
  8
1DIM
  6
CONTINUOUS
 62
   201
 10
39973.26190446367
 20
-6757.82651730407
 40
35.0
  1
400
  0
POINT
  8
DEFPOINTS
 62
     0
 10
39823.26190446367
 20
-6664.82651730407
 30
0.0
  0
POINT
  8
DEFPOINTS
 62
     0
 10
40223.26190446367
 20
-6664.82651730407
 30
0.0
  0
POINT
  8
DEFPOINTS
 62
     0
 10
40223.26190446367
 20
-6764.82651730407
 30
0.0
  0
ENDBLK
  8
0
  0
BLOCK
  8
0
  2
*D283
 70
     1
 10
0.0
 20
0.0
  0
LINE
  8
1DIM
 10
40273.26190446367
 20
-6664.82651730407
 11
40333.26190446367
 21
-6664.82651730407
  0
LINE
  8
1DIM
 10
40273.26190446367
 20
-6114.826523641706
 11
40333.26190446367
 21
-6114.826523641706
  0
LINE
  8
1DIM
 10
40323.26190446367
 20
-6644.82651730407
 11
40323.26190446367
 21
-6134.826523641706
  0
INSERT
  8
1DIM
  2
_OPEN30
 10
40323.26190446367
 20
-6664.82651730407
 30
0.0
 41
20.0
 42
20.0
 43
20.0
 50
270.0
  0
INSERT
  8
1DIM
  2
_OPEN30
 10
40323.26190446367
 20
-6114.826523641706
 30
0.0
 41
20.0
 42
20.0
 43
20.0
 50
90.0
  0
TEXT
  8
1DIM
  6
CONTINUOUS
 62
   201
 10
40316.26190446367
 20
-6439.826520472889
 40
35.0
  1
550
 50
90.0
  0
POINT
  8
DEFPOINTS
 62
     0
 10
40223.26190446367
 20
-6664.82651730407
 30
0.0
  0
POINT
  8
DEFPOINTS
 62
     0
 10
40223.26190446367
 20
-6114.826523641706
 30
0.0
  0
POINT
  8
DEFPOINTS
 62
     0
 10
40323.26190446367
 20
-6114.826523641706
 30
0.0
  0
ENDBLK
  8
0
  0
ENDSEC
  0
SECTION
  2
ENTITIES
  0
CIRCLE
  8
0
 10
39123.26190446367
 20
-5614.826523641706
 40
200.0000000000001
  0
LINE
  8
0
 10
39077.25452757375
 20
-6139.326523641706
 11
39052.25452757375
 21
-6643.326523641706
  0
LINE
  8
0
 10
39064.26928135358
 20
-6643.326523641706
 11
39089.26928135359
 21
-6139.326523641706
  0
LINE
  8
0
 10
38941.73137022465
 20
-6139.326523641706
 11
38993.23469029612
 21
-6643.326523641706
  0
LINE
  8
0
 10
39005.29718327848
 20
-6643.326523641706
 11
38953.793863207
 21
-6139.326523641706
  0
LINE
  8
0
 10
39292.72994572034
 20
-6139.326523641706
 11
39241.22662564887
 21
-6643.326523641706
  0
LINE
  8
0
 10
39253.28911863122
 20
-6643.326523641706
 11
39304.79243870269
 21
-6139.326523641706
  0
LINE
  8
0
 10
39157.25452757375
 20
-6139.326523641706
 11
39182.25452757375
 21
-6643.326523641706
  0
LINE
  8
0
 10
39194.26928135359
 20
-6643.326523641706
 11
39169.26928135358
 21
-6139.326523641706
  0
LINE
  8
0
 10
38987.96418648201
 20
-6657.826523641706
 11
38987.96418648201
 21
-6647.826523641706
  0
LINE
  8
0
 10
38978.55962244533
 20
-6657.826523641706
 11
38978.55962244533
 21
-6647.826523641706
  0
LINE
  8
0
 10
38990.87035659403
 20
-6657.826523641706
 11
38990.87035659403
 21
-6647.826523641706
  0
LINE
  8
0
 10
38975.65345233331
 20
-6657.826523641706
 11
38975.65345233331
 21
-6647.826523641706
  0
LINE
  8
0
 10
39127.96418648201
 20
-6657.826523641706
 11
39127.96418648201
 21
-6647.826523641706
  0
LINE
  8
0
 10
39118.55962244533
 20
-6657.826523641706
 11
39118.55962244533
 21
-6647.826523641706
  0
LINE
  8
0
 10
39130.87035659403
 20
-6657.826523641706
 11
39130.87035659403
 21
-6647.826523641706
  0
LINE
  8
0
 10
39115.65345233331
 20
-6657.826523641706
 11
39115.65345233331
 21
-6647.826523641706
  0
LINE
  8
0
 10
39028.96923711589
 20
-6657.826523641706
 11
39028.96923711589
 21
-6647.826523641706
  0
LINE
  8
0
 10
39019.56467307921
 20
-6657.826523641706
 11
39019.56467307921
 21
-6647.826523641706
  0
LINE
  8
0
 10
39031.87540722791
 20
-6657.826523641706
 11
39031.87540722791
 21
-6647.826523641706
  0
LINE
  8
0
 10
39016.65850296719
 20
-6657.826523641706
 11
39016.65850296719
 21
-6647.826523641706
  0
LINE
  8
0
 10
39258.55962244533
 20
-6657.826523641706
 11
39258.55962244533
 21
-6647.826523641706
  0
LINE
  8
0
 10
39267.96418648201
 20
-6657.826523641706
 11
39267.96418648201
 21
-6647.826523641706
  0
LINE
  8
0
 10
39255.65345233331
 20
-6657.826523641706
 11
39255.65345233331
 21
-6647.826523641706
  0
LINE
  8
0
 10
39270.87035659403
 20
-6657.826523641706
 11
39270.87035659403
 21
-6647.826523641706
  0
LINE
  8
0
 10
39217.55457181144
 20
-6657.826523641706
 11
39217.55457181144
 21
-6647.826523641706
  0
LINE
  8
0
 10
39226.95913584813
 20
-6657.826523641706
 11
39226.95913584813
 21
-6647.826523641706
  0
LINE
  8
0
 10
39214.64840169942
 20
-6657.826523641706
 11
39214.64840169942
 21
-6647.826523641706
  0
LINE
  8
0
 10
39229.86530596015
 20
-6657.826523641706
 11
39229.86530596015
 21
-6647.826523641706
  0
POLYLINE
  8
0
 66
     1
 70
     1
  0
VERTEX
  8
0
 10
39257.26190446367
 20
-6664.826523641706
 42
-0.414213562373
  0
VERTEX
  8
0
 10
39255.26190446367
 20
-6662.826523641706
  0
VERTEX
  8
0
 10
39255.26190446367
 20
-6657.826523641706
  0
VERTEX
  8
0
 10
39271.26190446367
 20
-6657.826523641706
  0
VERTEX
  8
0
 10
39271.26190446367
 20
-6662.826523641706
 42
-0.414213562373
  0
VERTEX
  8
0
 10
39269.26190446367
 20
-6664.826523641706
  0
SEQEND
  8
0
  0
POLYLINE
  8
0
 66
     1
 70
     1
  0
VERTEX
  8
0
 10
38975.26190446367
 20
-6647.826523641706
  0
VERTEX
  8
0
 10
39123.26190446367
 20
-6647.826523641706
  0
VERTEX
  8
0
 10
39271.26190446367
 20
-6647.826523641706
  0
VERTEX
  8
0
 10
39271.26190446367
 20
-6643.326523641706
  0
VERTEX
  8
0
 10
39123.26190446367
 20
-6643.326523641706
  0
VERTEX
  8
0
 10
38975.26190446367
 20
-6643.326523641706
  0
SEQEND
  8
0
  0
POLYLINE
  8
0
 66
     1
 70
     1
  0
VERTEX
  8
0
 10
38989.26190446367
 20
-6664.826523641706
 42
0.414213562373
  0
VERTEX
  8
0
 10
38991.26190446367
 20
-6662.826523641706
  0
VERTEX
  8
0
 10
38991.26190446367
 20
-6657.826523641706
  0
VERTEX
  8
0
 10
38975.26190446367
 20
-6657.826523641706
  0
VERTEX
  8
0
 10
38975.26190446367
 20
-6662.826523641706
 42
0.414213562373
  0
VERTEX
  8
0
 10
38977.26190446367
 20
-6664.826523641706
  0
SEQEND
  8
0
  0
POLYLINE
  8
0
 66
     1
 70
     1
  0
VERTEX
  8
0
 10
39018.26695509755
 20
-6664.826523641706
 42
-0.414213562373
  0
VERTEX
  8
0
 10
39016.26695509755
 20
-6662.826523641706
  0
VERTEX
  8
0
 10
39016.26695509755
 20
-6657.826523641706
  0
VERTEX
  8
0
 10
39032.26695509755
 20
-6657.826523641706
  0
VERTEX
  8
0
 10
39032.26695509755
 20
-6662.826523641706
 42
-0.414213562373
  0
VERTEX
  8
0
 10
39030.26695509755
 20
-6664.826523641706
  0
SEQEND
  8
0
  0
POLYLINE
  8
0
 66
     1
 70
     1
  0
VERTEX
  8
0
 10
39117.26190446367
 20
-6664.826523641706
 42
-0.414213562373
  0
VERTEX
  8
0
 10
39115.26190446367
 20
-6662.826523641706
  0
VERTEX
  8
0
 10
39115.26190446367
 20
-6657.826523641706
  0
VERTEX
  8
0
 10
39131.26190446367
 20
-6657.826523641706
  0
VERTEX
  8
0
 10
39131.26190446367
 20
-6662.826523641706
 42
-0.414213562373
  0
VERTEX
  8
0
 10
39129.26190446367
 20
-6664.826523641706
  0
SEQEND
  8
0
  0
POLYLINE
  8
0
 66
     1
 70
     1
  0
VERTEX
  8
0
 10
39216.25685382979
 20
-6664.826523641706
 42
-0.414213562373
  0
VERTEX
  8
0
 10
39214.25685382979
 20
-6662.826523641706
  0
VERTEX
  8
0
 10
39214.25685382979
 20
-6657.826523641706
  0
VERTEX
  8
0
 10
39230.25685382979
 20
-6657.826523641706
  0
VERTEX
  8
0
 10
39230.25685382979
 20
-6662.826523641706
 42
-0.414213562373
  0
VERTEX
  8
0
 10
39228.25685382979
 20
-6664.826523641706
  0
SEQEND
  8
0
  0
POLYLINE
  8
0
 66
     1
  0
VERTEX
  8
0
 10
38935.26190446367
 20
-6134.826523641706
  0
VERTEX
  8
0
 10
38935.26190446367
 20
-6139.326523641706
  0
VERTEX
  8
0
 10
39123.26190446367
 20
-6139.326523641706
  0
VERTEX
  8
0
 10
39311.26190446367
 20
-6139.326523641706
  0
VERTEX
  8
0
 10
39311.26190446367
 20
-6134.826523641706
  0
SEQEND
  8
0
  0
POLYLINE
  8
0
 66
     1
 70
     1
  0
VERTEX
  8
0
 10
39323.26190446367
 20
-6114.826523641706
  0
VERTEX
  8
0
 10
39123.26190446367
 20
-6114.826523641706
  0
VERTEX
  8
0
 10
38923.26190446367
 20
-6114.826523641706
  0
VERTEX
  8
0
 10
38923.26190446367
 20
-6134.826523641706
  0
VERTEX
  8
0
 10
39123.26190446367
 20
-6134.826523641706
  0
VERTEX
  8
0
 10
39323.26190446367
 20
-6134.826523641706
  0
SEQEND
  8
0
  0
LINE
  8
0
 10
39977.25452757375
 20
-6139.326523641706
 11
39952.25452757375
 21
-6643.326523641706
  0
LINE
  8
0
 10
39964.26928135358
 20
-6643.326523641706
 11
39989.26928135359
 21
-6139.326523641706
  0
LINE
  8
0
 10
39841.73137022465
 20
-6139.326523641706
 11
39893.23469029612
 21
-6643.326523641706
  0
LINE
  8
0
 10
39905.29718327848
 20
-6643.326523641706
 11
39853.793863207
 21
-6139.326523641706
  0
LINE
  8
0
 10
40192.72994572034
 20
-6139.326523641706
 11
40141.22662564887
 21
-6643.326523641706
  0
LINE
  8
0
 10
40153.28911863122
 20
-6643.326523641706
 11
40204.79243870269
 21
-6139.326523641706
  0
LINE
  8
0
 10
40057.25452757375
 20
-6139.326523641706
 11
40082.25452757375
 21
-6643.326523641706
  0
LINE
  8
0
 10
40094.26928135359
 20
-6643.326523641706
 11
40069.26928135358
 21
-6139.326523641706
  0
LINE
  8
0
 10
39887.96418648201
 20
-6657.826523641706
 11
39887.96418648201
 21
-6647.826523641706
  0
LINE
  8
0
 10
39878.55962244533
 20
-6657.826523641706
 11
39878.55962244533
 21
-6647.826523641706
  0
LINE
  8
0
 10
39890.87035659403
 20
-6657.826523641706
 11
39890.87035659403
 21
-6647.826523641706
  0
LINE
  8
0
 10
39875.65345233331
 20
-6657.826523641706
 11
39875.65345233331
 21
-6647.826523641706
  0
LINE
  8
0
 10
40027.96418648201
 20
-6657.826523641706
 11
40027.96418648201
 21
-6647.826523641706
  0
LINE
  8
0
 10
40018.55962244533
 20
-6657.826523641706
 11
40018.55962244533
 21
-6647.826523641706
  0
LINE
  8
0
 10
40030.87035659403
 20
-6657.826523641706
 11
40030.87035659403
 21
-6647.826523641706
  0
LINE
  8
0
 10
40015.65345233331
 20
-6657.826523641706
 11
40015.65345233331
 21
-6647.826523641706
  0
LINE
  8
0
 10
39928.96923711589
 20
-6657.826523641706
 11
39928.96923711589
 21
-6647.826523641706
  0
LINE
  8
0
 10
39919.56467307921
 20
-6657.826523641706
 11
39919.56467307921
 21
-6647.826523641706
  0
LINE
  8
0
 10
39931.87540722791
 20
-6657.826523641706
 11
39931.87540722791
 21
-6647.826523641706
  0
LINE
  8
0
 10
39916.65850296719
 20
-6657.826523641706
 11
39916.65850296719
 21
-6647.826523641706
  0
LINE
  8
0
 10
40158.55962244533
 20
-6657.826523641706
 11
40158.55962244533
 21
-6647.826523641706
  0
LINE
  8
0
 10
40167.96418648201
 20
-6657.826523641706
 11
40167.96418648201
 21
-6647.826523641706
  0
LINE
  8
0
 10
40155.65345233331
 20
-6657.826523641706
 11
40155.65345233331
 21
-6647.826523641706
  0
LINE
  8
0
 10
40170.87035659403
 20
-6657.826523641706
 11
40170.87035659403
 21
-6647.826523641706
  0
LINE
  8
0
 10
40117.55457181144
 20
-6657.826523641706
 11
40117.55457181144
 21
-6647.826523641706
  0
LINE
  8
0
 10
40126.95913584813
 20
-6657.826523641706
 11
40126.95913584813
 21
-6647.826523641706
  0
LINE
  8
0
 10
40114.64840169942
 20
-6657.826523641706
 11
40114.64840169942
 21
-6647.826523641706
  0
LINE
  8
0
 10
40129.86530596015
 20
-6657.826523641706
 11
40129.86530596015
 21
-6647.826523641706
  0
POLYLINE
  8
0
 66
     1
 70
     1
  0
VERTEX
  8
0
 10
40157.26190446367
 20
-6664.826523641706
 42
-0.414213562373
  0
VERTEX
  8
0
 10
40155.26190446367
 20
-6662.826523641706
  0
VERTEX
  8
0
 10
40155.26190446367
 20
-6657.826523641706
  0
VERTEX
  8
0
 10
40171.26190446367
 20
-6657.826523641706
  0
VERTEX
  8
0
 10
40171.26190446367
 20
-6662.826523641706
 42
-0.414213562373
  0
VERTEX
  8
0
 10
40169.26190446367
 20
-6664.826523641706
  0
SEQEND
  8
0
  0
POLYLINE
  8
0
 66
     1
 70
     1
  0
VERTEX
  8
0
 10
39875.26190446367
 20
-6647.826523641706
  0
VERTEX
  8
0
 10
40023.26190446367
 20
-6647.826523641706
  0
VERTEX
  8
0
 10
40171.26190446367
 20
-6647.826523641706
  0
VERTEX
  8
0
 10
40171.26190446367
 20
-6643.326523641706
  0
VERTEX
  8
0
 10
40023.26190446367
 20
-6643.326523641706
  0
VERTEX
  8
0
 10
39875.26190446367
 20
-6643.326523641706
  0
SEQEND
  8
0
  0
POLYLINE
  8
0
 66
     1
 70
     1
  0
VERTEX
  8
0
 10
39889.26190446367
 20
-6664.826523641706
 42
0.414213562373
  0
VERTEX
  8
0
 10
39891.26190446367
 20
-6662.826523641706
  0
VERTEX
  8
0
 10
39891.26190446367
 20
-6657.826523641706
  0
VERTEX
  8
0
 10
39875.26190446367
 20
-6657.826523641706
  0
VERTEX
  8
0
 10
39875.26190446367
 20
-6662.826523641706
 42
0.414213562373
  0
VERTEX
  8
0
 10
39877.26190446367
 20
-6664.826523641706
  0
SEQEND
  8
0
  0
POLYLINE
  8
0
 66
     1
 70
     1
  0
VERTEX
  8
0
 10
39918.26695509755
 20
-6664.826523641706
 42
-0.414213562373
  0
VERTEX
  8
0
 10
39916.26695509755
 20
-6662.826523641706
  0
VERTEX
  8
0
 10
39916.26695509755
 20
-6657.826523641706
  0
VERTEX
  8
0
 10
39932.26695509755
 20
-6657.826523641706
  0
VERTEX
  8
0
 10
39932.26695509755
 20
-6662.826523641706
 42
-0.414213562373
  0
VERTEX
  8
0
 10
39930.26695509755
 20
-6664.826523641706
  0
SEQEND
  8
0
  0
POLYLINE
  8
0
 66
     1
 70
     1
  0
VERTEX
  8
0
 10
40017.26190446367
 20
-6664.826523641706
 42
-0.414213562373
  0
VERTEX
  8
0
 10
40015.26190446367
 20
-6662.826523641706
  0
VERTEX
  8
0
 10
40015.26190446367
 20
-6657.826523641706
  0
VERTEX
  8
0
 10
40031.26190446367
 20
-6657.826523641706
  0
VERTEX
  8
0
 10
40031.26190446367
 20
-6662.826523641706
 42
-0.414213562373
  0
VERTEX
  8
0
 10
40029.26190446367
 20
-6664.826523641706
  0
SEQEND
  8
0
  0
POLYLINE
  8
0
 66
     1
 70
     1
  0
VERTEX
  8
0
 10
40116.25685382979
 20
-6664.826523641706
 42
-0.414213562373
  0
VERTEX
  8
0
 10
40114.25685382979
 20
-6662.826523641706
  0
VERTEX
  8
0
 10
40114.25685382979
 20
-6657.826523641706
  0
VERTEX
  8
0
 10
40130.25685382979
 20
-6657.826523641706
  0
VERTEX
  8
0
 10
40130.25685382979
 20
-6662.826523641706
 42
-0.414213562373
  0
VERTEX
  8
0
 10
40128.25685382979
 20
-6664.826523641706
  0
SEQEND
  8
0
  0
POLYLINE
  8
0
 66
     1
  0
VERTEX
  8
0
 10
39835.26190446367
 20
-6134.826523641706
  0
VERTEX
  8
0
 10
39835.26190446367
 20
-6139.326523641706
  0
VERTEX
  8
0
 10
40023.26190446367
 20
-6139.326523641706
  0
VERTEX
  8
0
 10
40211.26190446367
 20
-6139.326523641706
  0
VERTEX
  8
0
 10
40211.26190446367
 20
-6134.826523641706
  0
SEQEND
  8
0
  0
POLYLINE
  8
0
 66
     1
 70
     1
  0
VERTEX
  8
0
 10
40223.26190446367
 20
-6114.826523641706
  0
VERTEX
  8
0
 10
40023.26190446367
 20
-6114.826523641706
  0
VERTEX
  8
0
 10
39823.26190446367
 20
-6114.826523641706
  0
VERTEX
  8
0
 10
39823.26190446367
 20
-6134.826523641706
  0
VERTEX
  8
0
 10
40023.26190446367
 20
-6134.826523641706
  0
VERTEX
  8
0
 10
40223.26190446367
 20
-6134.826523641706
  0
SEQEND
  8
0
  0
DIMENSION
  8
1DIM
  2
*D281
 10
39323.26190446367
 20
-6764.82651730407
 11
39123.26190446367
 21
-6740.32651730407
 70
    32
 13
38923.26190446367
 23
-6664.826523641706
 33
0.0
 14
39323.26190446367
 24
-6664.826523641706
 34
0.0
  0
DIMENSION
  8
1DIM
  2
*D282
 10
40223.26190446367
 20
-6764.82651730407
 11
40023.26190446367
 21
-6740.32651730407
 70
    32
 13
39823.26190446367
 23
-6664.82651730407
 33
0.0
 14
40223.26190446367
 24
-6664.82651730407
 34
0.0
  0
DIMENSION
  8
1DIM
  2
*D283
 10
40323.26190446367
 20
-6114.826523641706
 11
40298.76190446367
 21
-6389.826520472889
 70
    32
 13
40223.26190446367
 23
-6664.82651730407
 33
0.0
 14
40223.26190446367
 24
-6114.826523641706
 34
0.0
 50
90.0
  0
ENDSEC
  0
EOF
