  0
SECTION
  2
HEADER
  9
$ACADVER
  1
AC1004
  9
$INSBASE
 10
0.0
 20
0.0
  9
$EXTMIN
 10
38723.26190446366
 20
-6774.82651730407
  9
$EXTMAX
 10
40533.26190446367
 20
-5354.826517304012
  9
$LIMMIN
 10
0.0
 20
0.0
  9
$LIMMAX
 10
12.0
 20
9.0
  9
$ORTHOMODE
 70
     0
  9
$REGENMODE
 70
     1
  9
$FILLMODE
 70
     1
  9
$QTEXTMODE
 70
     0
  9
$DRAGMODE
 70
     2
  9
$LTSCALE
 40
0.5
  9
$OSMODE
 70
  2175
  9
$ATTMODE
 70
     1
  9
$TEXTSIZE
 40
4.0
  9
$TRACEWID
 40
0.05
  9
$TEXTSTYLE
  7
STANDARD
  9
$CLAYER
  8
1DIM
  9
$CELTYPE
  6
BYLAYER
  9
$CECOLOR
 62
   256
  9
$DIMSCALE
 40
10.0
  9
$DIMASZ
 40
2.0
  9
$DIMEXO
 40
0.0
  9
$DIMDLI
 40
7.0
  9
$DIMRND
 40
0.0
  9
$DIMDLE
 40
0.0
  9
$DIMEXE
 40
1.0
  9
$DIMTP
 40
0.0
  9
$DIMTM
 40
0.0
  9
$DIMTXT
 40
3.5
  9
$DIMCEN
 40
0.0
  9
$DIMTSZ
 40
0.0
  9
$DIMTOL
 70
     0
  9
$DIMLIM
 70
     0
  9
$DIMTIH
 70
     0
  9
$DIMTOH
 70
     0
  9
$DIMSE1
 70
     0
  9
$DIMSE2
 70
     0
  9
$DIMTAD
 70
     1
  9
$DIMZIN
 70
     8
  9
$DIMBLK
  1

  9
$DIMASO
 70
     1
  9
$DIMSHO
 70
     1
  9
$DIMPOST
  1
 
  9
$DIMAPOST
  1

  9
$DIMALT
 70
     0
  9
$DIMALTD
 70
     2
  9
$DIMALTF
 40
25.4
  9
$DIMLFAC
 40
1.0
  9
$DIMTOFL
 70
     1
  9
$DIMTVP
 40
0.0
  9
$DIMTIX
 70
     0
  9
$DIMSOXD
 70
     0
  9
$DIMSAH
 70
     1
  9
$DIMBLK1
  1
OPEN30
  9
$DIMBLK2
  1
OPEN30
  9
$LUNITS
 70
     2
  9
$LUPREC
 70
     4
  9
$SKETCHINC
 40
0.1
  9
$FILLETRAD
 40
3.0
  9
$AUNITS
 70
     0
  9
$AUPREC
 70
     2
  9
$MENU
  1
acad
  9
$ELEVATION
 40
0.0
  9
$THICKNESS
 40
0.0
  9
$LIMCHECK
 70
     0
  9
$CHAMFERA
 40
0.0
  9
$CHAMFERB
 40
0.0
  9
$SKPOLY
 70
     0
  9
$TDCREATE
 40
2448750.487089225
  9
$TDUPDATE
 40
2459500.724533264
  9
$TDINDWG
 40
2.2856921644
  9
$TDUSRTIMER
 40
2.2856921644
  9
$USRTIMER
 70
     1
  9
$ANGBASE
 50
0.0
  9
$ANGDIR
 70
     0
  9
$PDMODE
 70
     0
  9
$PDSIZE
 40
0.0
  9
$PLINEWID
 40
1.0
  9
$COORDS
 70
     2
  9
$SPLFRAME
 70
     0
  9
$SPLINETYPE
 70
     6
  9
$SPLINESEGS
 70
     8
  9
$ATTDIA
 70
     0
  9
$ATTREQ
 70
     1
  9
$SURFTAB1
 70
     6
  9
$SURFTAB2
 70
     6
  9
$SURFTYPE
 70
     6
  9
$SURFU
 70
     6
  9
$SURFV
 70
     6
  9
$UCSNAME
  2

  9
$UCSORG
 10
0.0
 20
0.0
 30
0.0
  9
$UCSXDIR
 10
1.0
 20
0.0
 30
0.0
  9
$UCSYDIR
 10
0.0
 20
1.0
 30
0.0
  9
$USERI1
 70
     0
  9
$USERI2
 70
     0
  9
$USERI3
 70
     0
  9
$USERI4
 70
     0
  9
$USERI5
 70
     0
  9
$USERR1
 40
0.0
  9
$USERR2
 40
0.0
  9
$USERR3
 40
0.0
  9
$USERR4
 40
0.0
  9
$USERR5
 40
0.0
  9
$WORLDVIEW
 70
     1
  0
ENDSEC
  0
SECTION
  2
TABLES
  0
TABLE
  2
LTYPE
 70
    12
  0
LTYPE
  2
CONTINUOUS
 70
     0
  3
Solid line
 72
    65
 73
     0
 40
0.0
  0
LTYPE
  2
HIDDEN
 70
     0
  3
Hidden __ __ __ __ __ __ __ __ __ __ __ __ __ _
 72
    65
 73
     2
 40
9.525
 49
6.35
 49
-3.175
  0
LTYPE
  2
PHANTOM2
 70
     0
  3
Phantom (0.5x) ___ _ _ ___ _ _ ___ _ _ ___ _ _
 72
    65
 73
     6
 40
31.75
 49
15.875
 49
-3.175
 49
3.175
 49
-3.175
 49
3.175
 49
-3.175
  0
LTYPE
  2
CENTER2
 70
     0
  3
Center (.5x) ___ _ ___ _ ___ _ ___ _ ___ _ ___
 72
    65
 73
     4
 40
28.575
 49
19.05
 49
-3.175
 49
3.175
 49
-3.175
  0
LTYPE
  2
HADAN
 70
     0
  3
Hadansen
 72
    65
 73
     4
 40
58.0
 49
50.0
 49
-2.0
 49
-4.0
 49
-2.0
  0
LTYPE
  2
BATTING
 70
     0
  3
Batting SSSSSSSSSSSSSSSSSSSSSSSSSSSSSSSSSSSSSSS
 72
    65
 73
     4
 40
10.16254
 49
0.00254
 49
-2.54
 49
-5.08
 49
-2.54
  0
LTYPE
  2
DASHED2
 70
     0
  3
Dashed (0.5x) _ _ _ _ _ _ _ _ _ _ _ _ _ _ _ _ _
 72
    65
 73
     2
 40
9.525
 49
6.35
 49
-3.175
  0
LTYPE
  2
FENCELINE1
 70
     0
  3
Fenceline circle -0-----0----0-----0----0-----0
 72
    65
 73
     4
 40
36.83
 49
3.81
 49
-2.54
 49
-2.54
 49
27.94
  0
LTYPE
  2
FENCELINE2
 70
     0
  3
Fenceline square -[]-----[]----[]-----[]----[]-
 72
    65
 73
     4
 40
36.83
 49
3.81
 49
-2.54
 49
-2.54
 49
27.94
  0
LTYPE
  2
TRACKS
 70
     0
  3
Tracks -|-|-|-|-|-|-|-|-|-|-|-|-|-|-|-|-|-|-|-|
 72
    65
 73
     2
 40
7.62
 49
3.81
 49
3.81
  0
LTYPE
  2
ZIGZAG
 70
     0
  3
Zig zag /\/\/\/\/\/\/\/\/\/\/\/\/\/\/\/\/\/\/\/
 72
    65
 73
     4
 40
20.32254
 49
0.00254
 49
-5.08
 49
-10.16
 49
-5.08
  0
LTYPE
  2
BORDER2
 70
     0
  3
Border (0.5x) __.__.__.__.__.__.__.__.__.__.__.
 72
    65
 73
     6
 40
22.225
 49
6.35
 49
-3.175
 49
6.35
 49
-3.175
 49
0.0
 49
-3.175
  0
ENDTAB
  0
TABLE
  2
LAYER
 70
    36
  0
LAYER
  2
0
 70
     0
 62
     7
  6
CONTINUOUS
  0
LAYER
  2
1DIM
 70
     0
 62
     8
  6
CONTINUOUS
  0
LAYER
  2
2VIEWPORT
 70
     0
 62
    -1
  6
CONTINUOUS
  0
LAYER
  2
01
 70
     0
 62
     1
  6
CONTINUOUS
  0
LAYER
  2
DEFPOINTS
 70
     0
 62
     7
  6
CONTINUOUS
  0
LAYER
  2
1HIDDEN
 70
     0
 62
     8
  6
HIDDEN
  0
LAYER
  2
1PHANTOM
 70
     0
 62
   254
  6
PHANTOM2
  0
LAYER
  2
03
 70
     0
 62
     3
  6
CONTINUOUS
  0
LAYER
  2
02
 70
     0
 62
     2
  6
CONTINUOUS
  0
LAYER
  2
1TEXT
 70
     0
 62
   201
  6
CONTINUOUS
  0
LAYER
  2
04
 70
     0
 62
     4
  6
CONTINUOUS
  0
LAYER
  2
POINT
 70
     0
 62
     7
  6
CONTINUOUS
  0
LAYER
  2
1HATCH
 70
     0
 62
     8
  6
CONTINUOUS
  0
LAYER
  2
05
 70
     0
 62
     5
  6
CONTINUOUS
  0
LAYER
  2
06
 70
     0
 62
     6
  6
CONTINUOUS
  0
LAYER
  2
07
 70
     0
 62
   143
  6
CONTINUOUS
  0
LAYER
  2
08
 70
     0
 62
    95
  6
CONTINUOUS
  0
LAYER
  2
09
 70
     0
 62
    15
  6
CONTINUOUS
  0
LAYER
  2
10
 70
     0
 62
   213
  6
CONTINUOUS
  0
LAYER
  2
11
 70
     0
 62
     7
  6
CONTINUOUS
  0
LAYER
  2
1CENTER
 70
     0
 62
   221
  6
CONTINUOUS
  0
LAYER
  2
1DIM1
 70
     0
 62
   221
  6
CONTINUOUS
  0
LAYER
  2
1DIM2
 70
     0
 62
   254
  6
CONTINUOUS
  0
LAYER
  2
1DIM3
 70
     0
 62
     8
  6
CONTINUOUS
  0
LAYER
  2
2BATTING
 70
     0
 62
     7
  6
BATTING
  0
LAYER
  2
2FENCELINE1
 70
     0
 62
     7
  6
FENCELINE1
  0
LAYER
  2
2FENCELINE2
 70
     0
 62
     7
  6
FENCELINE2
  0
LAYER
  2
2TRACKS
 70
     0
 62
     7
  6
TRACKS
  0
LAYER
  2
2ZIGZAG
 70
     0
 62
     7
  6
ZIGZAG
  0
LAYER
  2
2HADAN
 70
     0
 62
     7
  6
HADAN
  0
LAYER
  2
1TEXT2
 70
     0
 62
   221
  6
CONTINUOUS
  0
LAYER
  2
99WAKU
 70
     0
 62
   253
  6
CONTINUOUS
  0
LAYER
  2
MIDFINE
 70
     0
 62
     9
  6
CONTINUOUS
  0
LAYER
  2
THICK
 70
     0
 62
   252
  6
CONTINUOUS
  0
LAYER
  2
ZZ
 70
     0
 62
    -8
  6
CONTINUOUS
  0
LAYER
  2
ZZXX
 70
     0
 62
   243
  6
CONTINUOUS
  0
ENDTAB
  0
TABLE
  2
STYLE
 70
     5
  0
STYLE
  2
STANDARD
 70
     0
 40
0.0
 41
1.0
 50
0.0
 71
     0
 42
4.0
  3
romans.shx
  4
extfont2.shx
  0
STYLE
  2
KAI
 70
     0
 40
0.0
 41
1.0
 50
0.0
 71
     0
 42
4.0
  3
HGRSKP_0.TTF
  4

  0
STYLE
  2

 70
     1
 40
0.2
 41
1.0
 50
0.0
 71
     0
 42
4.0
  3
ltypeshp.shx
  4

  0
STYLE
  2
GOT
 70
     0
 40
0.0
 41
1.0
 50
0.0
 71
     0
 42
4.0
  3
msgothic.ttc
  4

  0
STYLE
  2
SYMBOL
 70
     0
 40
0.0
 41
1.0
 50
0.0
 71
     0
 42
4.0
  3
swissbo.ttf
  4

  0
ENDTAB
  0
TABLE
  2
VIEW
 70
     0
  0
ENDTAB
  0
ENDSEC
  0
SECTION
  2
BLOCKS
  0
BLOCK
  8
0
  2
_OPEN30
 70
     0
 10
0.0
 20
0.0
  0
LINE
  8
0
  6
BYBLOCK
 62
     0
 10
-1.0
 20
0.26794919
 11
0.0
 21
0.0
  0
LINE
  8
0
  6
BYBLOCK
 62
     0
 10
0.0
 20
0.0
 11
-1.0
 21
-0.26794919
  0
LINE
  8
0
  6
BYBLOCK
 62
     0
 10
0.0
 20
0.0
 11
-1.0
 21
0.0
  0
ENDBLK
  8
0
  0
BLOCK
  8
0
  2
*D200
 70
     1
 10
0.0
 20
0.0
  0
LINE
  8
1DIM
 10
42005.6707798823
 20
-4001.944598209428
 11
42005.6707798823
 21
-4061.944598209428
  0
LINE
  8
1DIM
 10
42555.87409757655
 20
-4001.944598162407
 11
42555.87409757655
 21
-4061.944598209428
  0
LINE
  8
1DIM
 10
42025.6707798823
 20
-4051.944598209428
 11
42535.87409757655
 21
-4051.944598209428
  0
INSERT
  8
1DIM
  2
_OPEN30
 10
42005.6707798823
 20
-4051.944598209428
 30
0.0
 41
20.0
 42
20.0
 43
20.0
 50
180.0
  0
INSERT
  8
1DIM
  2
_OPEN30
 10
42555.87409757655
 20
-4051.944598209428
 30
0.0
 41
20.0
 42
20.0
 43
20.0
  0
TEXT
  8
1DIM
  6
CONTINUOUS
 62
   201
 10
42230.77243872943
 20
-4044.944598209428
 40
35.0
  1
550
  0
POINT
  8
DEFPOINTS
 62
     0
 10
42005.6707798823
 20
-3951.944598209428
 30
0.0
  0
POINT
  8
DEFPOINTS
 62
     0
 10
42555.87409757655
 20
-3951.944598162407
 30
0.0
  0
POINT
  8
DEFPOINTS
 62
     0
 10
42555.87409757655
 20
-4051.944598209428
 30
0.0
  0
ENDBLK
  8
0
  0
BLOCK
  8
0
  2
*D201
 70
     1
 10
0.0
 20
0.0
  0
LINE
  8
1DIM
 10
43666.23282492236
 20
-3156.669077685088
 11
43726.23282492236
 21
-3156.669077685088
  0
LINE
  8
1DIM
 10
43666.23282492236
 20
-3951.944598209428
 11
43726.23282492236
 21
-3951.944598209428
  0
LINE
  8
1DIM
 10
43716.23282492236
 20
-3176.669077685088
 11
43716.23282492236
 21
-3931.944598209428
  0
INSERT
  8
1DIM
  2
_OPEN30
 10
43716.23282492236
 20
-3156.669077685088
 30
0.0
 41
20.0
 42
20.0
 43
20.0
 50
90.0
  0
INSERT
  8
1DIM
  2
_OPEN30
 10
43716.23282492236
 20
-3951.944598209428
 30
0.0
 41
20.0
 42
20.0
 43
20.0
 50
270.0
  0
TEXT
  8
1DIM
  6
CONTINUOUS
 62
   201
 10
43709.23282492236
 20
-3604.306837947261
 40
35.0
  1
800
 50
90.0
  0
POINT
  8
DEFPOINTS
 62
     0
 10
43616.23282492236
 20
-3156.669077685088
 30
0.0
  0
POINT
  8
DEFPOINTS
 62
     0
 10
43616.23282492236
 20
-3951.944598209428
 30
0.0
  0
POINT
  8
DEFPOINTS
 62
     0
 10
43716.23282492236
 20
-3951.944598209428
 30
0.0
  0
ENDBLK
  8
0
  0
BLOCK
  8
0
  2
*D202
 70
     1
 10
0.0
 20
0.0
  0
LINE
  8
1DIM
 10
43055.87409757655
 20
-4001.944598209428
 11
43055.87409757655
 21
-4061.944598209428
  0
LINE
  8
1DIM
 10
43616.23282492236
 20
-4001.944598209428
 11
43616.23282492236
 21
-4061.944598209428
  0
LINE
  8
1DIM
 10
43075.87409757655
 20
-4051.944598209428
 11
43596.23282492236
 21
-4051.944598209428
  0
INSERT
  8
1DIM
  2
_OPEN30
 10
43055.87409757655
 20
-4051.944598209428
 30
0.0
 41
20.0
 42
20.0
 43
20.0
 50
180.0
  0
INSERT
  8
1DIM
  2
_OPEN30
 10
43616.23282492236
 20
-4051.944598209428
 30
0.0
 41
20.0
 42
20.0
 43
20.0
  0
TEXT
  8
1DIM
  6
CONTINUOUS
 62
   201
 10
43286.05346124945
 20
-4044.944598209428
 40
35.0
  1
560
  0
POINT
  8
DEFPOINTS
 62
     0
 10
43055.87409757655
 20
-3951.944598209428
 30
0.0
  0
POINT
  8
DEFPOINTS
 62
     0
 10
43616.23282492236
 20
-3951.944598209428
 30
0.0
  0
POINT
  8
DEFPOINTS
 62
     0
 10
43616.23282492236
 20
-4051.944598209428
 30
0.0
  0
ENDBLK
  8
0
  0
BLOCK
  8
0
  2
*D203
 70
     1
 10
0.0
 20
0.0
  0
LINE
  8
1DIM
 10
41955.6707798823
 20
-3519.260033357796
 11
41895.6707798823
 21
-3519.260033357796
  0
LINE
  8
1DIM
 10
41955.6707798823
 20
-3951.944598209428
 11
41895.6707798823
 21
-3951.944598209428
  0
LINE
  8
1DIM
 10
41905.6707798823
 20
-3539.260033357796
 11
41905.6707798823
 21
-3931.944598209428
  0
INSERT
  8
1DIM
  2
_OPEN30
 10
41905.6707798823
 20
-3519.260033357796
 30
0.0
 41
20.0
 42
20.0
 43
20.0
 50
90.0
  0
INSERT
  8
1DIM
  2
_OPEN30
 10
41905.6707798823
 20
-3951.944598209428
 30
0.0
 41
20.0
 42
20.0
 43
20.0
 50
270.0
  0
TEXT
  8
1DIM
  6
CONTINUOUS
 62
   201
 10
41898.6707798823
 20
-3785.60231578361
 40
35.0
  1
435
 50
90.0
  0
POINT
  8
DEFPOINTS
 62
     0
 10
42005.6707798823
 20
-3519.260033357796
 30
0.0
  0
POINT
  8
DEFPOINTS
 62
     0
 10
42005.6707798823
 20
-3951.944598209428
 30
0.0
  0
POINT
  8
DEFPOINTS
 62
     0
 10
41905.6707798823
 20
-3951.944598209428
 30
0.0
  0
ENDBLK
  8
0
  0
BLOCK
  8
0
  2
*D204
 70
     1
 10
0.0
 20
0.0
  0
LINE
  8
1DIM
 10
43005.87409757655
 20
-3451.452493056941
 11
42945.87409757655
 21
-3451.452493056941
  0
LINE
  8
1DIM
 10
43005.87409757655
 20
-3951.944598209428
 11
42945.87409757655
 21
-3951.944598209428
  0
LINE
  8
1DIM
 10
42955.87409757655
 20
-3471.452493056941
 11
42955.87409757655
 21
-3931.944598209428
  0
INSERT
  8
1DIM
  2
_OPEN30
 10
42955.87409757655
 20
-3451.452493056941
 30
0.0
 41
20.0
 42
20.0
 43
20.0
 50
90.0
  0
INSERT
  8
1DIM
  2
_OPEN30
 10
42955.87409757655
 20
-3951.944598209428
 30
0.0
 41
20.0
 42
20.0
 43
20.0
 50
270.0
  0
TEXT
  8
1DIM
  6
CONTINUOUS
 62
   201
 10
42948.87409757655
 20
-3751.698545633182
 40
35.0
  1
500
 50
90.0
  0
POINT
  8
DEFPOINTS
 62
     0
 10
43055.87409757655
 20
-3451.452493056941
 30
0.0
  0
POINT
  8
DEFPOINTS
 62
     0
 10
43055.87409757655
 20
-3951.944598209428
 30
0.0
  0
POINT
  8
DEFPOINTS
 62
     0
 10
42955.87409757655
 20
-3951.944598209428
 30
0.0
  0
ENDBLK
  8
0
  0
BLOCK
  8
0
  2
*D205
 70
     1
 10
0.0
 20
0.0
  0
LINE
  8
1DIM
 10
41955.6707798823
 20
-2856.669077685088
 11
41895.6707798823
 21
-2856.669077685088
  0
LINE
  8
1DIM
 10
41955.6707798823
 20
-2444.463013902858
 11
41895.6707798823
 21
-2444.463013902858
  0
LINE
  8
1DIM
 10
41905.6707798823
 20
-2836.669077685088
 11
41905.6707798823
 21
-2464.463013902858
  0
INSERT
  8
1DIM
  2
_OPEN30
 10
41905.6707798823
 20
-2856.669077685088
 30
0.0
 41
20.0
 42
20.0
 43
20.0
 50
270.0
  0
INSERT
  8
1DIM
  2
_OPEN30
 10
41905.6707798823
 20
-2444.463013902858
 30
0.0
 41
20.0
 42
20.0
 43
20.0
 50
90.0
  0
TEXT
  8
1DIM
  6
CONTINUOUS
 62
   201
 10
41898.6707798823
 20
-2700.566045793974
 40
35.0
  1
420
 50
90.0
  0
POINT
  8
DEFPOINTS
 62
     0
 10
42005.6707798823
 20
-2856.669077685088
 30
0.0
  0
POINT
  8
DEFPOINTS
 62
     0
 10
42005.6707798823
 20
-2444.463013902858
 30
0.0
  0
POINT
  8
DEFPOINTS
 62
     0
 10
41905.6707798823
 20
-2444.463013902858
 30
0.0
  0
ENDBLK
  8
0
  0
BLOCK
  8
0
  2
*D206
 70
     1
 10
0.0
 20
0.0
  0
LINE
  8
1DIM
 10
42071.31588734892
 20
-3106.669077685088
 11
42071.31588734892
 21
-3046.669077685088
  0
LINE
  8
1DIM
 10
42490.22898972603
 20
-3106.669077685088
 11
42490.22898972603
 21
-3046.669077685088
  0
LINE
  8
1DIM
 10
42091.31588734892
 20
-3056.669077685088
 11
42470.22898972603
 21
-3056.669077685088
  0
INSERT
  8
1DIM
  2
_OPEN30
 10
42071.31588734892
 20
-3056.669077685088
 30
0.0
 41
20.0
 42
20.0
 43
20.0
 50
180.0
  0
INSERT
  8
1DIM
  2
_OPEN30
 10
42490.22898972603
 20
-3056.669077685088
 30
0.0
 41
20.0
 42
20.0
 43
20.0
  0
TEXT
  8
1DIM
  6
CONTINUOUS
 62
   201
 10
42230.77243853747
 20
-3049.669077685088
 40
35.0
  1
420
  0
POINT
  8
DEFPOINTS
 62
     0
 10
42071.31588734892
 20
-3156.669077685088
 30
0.0
  0
POINT
  8
DEFPOINTS
 62
     0
 10
42490.22898972603
 20
-3156.669077685088
 30
0.0
  0
POINT
  8
DEFPOINTS
 62
     0
 10
42490.22898972603
 20
-3056.669077685088
 30
0.0
  0
ENDBLK
  8
0
  0
BLOCK
  8
0
  2
*D240
 70
     1
 10
0.0
 20
0.0
  0
LINE
  8
1DIM
 10
43467.01622796573
 20
-779.840746125876
 11
43407.01622796573
 21
-779.840746125876
  0
LINE
  8
1DIM
 10
43467.01622796573
 20
-1270.332851278365
 11
43407.01622796573
 21
-1270.332851278365
  0
LINE
  8
1DIM
 10
43417.01622796573
 20
-799.840746125876
 11
43417.01622796573
 21
-1250.332851278365
  0
INSERT
  8
1DIM
  2
_OPEN30
 10
43417.01622796573
 20
-779.840746125876
 30
0.0
 41
20.0
 42
20.0
 43
20.0
 50
90.0
  0
INSERT
  8
1DIM
  2
_OPEN30
 10
43417.01622796573
 20
-1270.332851278365
 30
0.0
 41
20.0
 42
20.0
 43
20.0
 50
270.0
  0
TEXT
  8
1DIM
  6
CONTINUOUS
 62
   201
 10
43410.01622796573
 20
-1075.086798702119
 40
35.0
  1
490
 50
90.0
  0
POINT
  8
DEFPOINTS
 62
     0
 10
43517.01622796573
 20
-779.840746125876
 30
0.0
  0
POINT
  8
DEFPOINTS
 62
     0
 10
43517.01622796573
 20
-1270.332851278365
 30
0.0
  0
POINT
  8
DEFPOINTS
 62
     0
 10
43417.01622796573
 20
-1270.332851278365
 30
0.0
  0
ENDBLK
  8
0
  0
BLOCK
  8
0
  2
*D241
 70
     1
 10
0.0
 20
0.0
  0
LINE
  8
1DIM
 10
43517.01622796573
 20
-1320.332851278365
 11
43517.01622796573
 21
-1380.332851278365
  0
LINE
  8
1DIM
 10
44077.37495531156
 20
-1320.332851278365
 11
44077.37495531156
 21
-1380.332851278365
  0
LINE
  8
1DIM
 10
43537.01622796573
 20
-1370.332851278365
 11
44057.37495531156
 21
-1370.332851278365
  0
INSERT
  8
1DIM
  2
_OPEN30
 10
43517.01622796573
 20
-1370.332851278365
 30
0.0
 41
20.0
 42
20.0
 43
20.0
 50
180.0
  0
INSERT
  8
1DIM
  2
_OPEN30
 10
44077.37495531156
 20
-1370.332851278365
 30
0.0
 41
20.0
 42
20.0
 43
20.0
  0
TEXT
  8
1DIM
  6
CONTINUOUS
 62
   201
 10
43747.19559163864
 20
-1363.332851278365
 40
35.0
  1
560
  0
POINT
  8
DEFPOINTS
 62
     0
 10
43517.01622796573
 20
-1270.332851278365
 30
0.0
  0
POINT
  8
DEFPOINTS
 62
     0
 10
44077.37495531156
 20
-1270.332851278365
 30
0.0
  0
POINT
  8
DEFPOINTS
 62
     0
 10
44077.37495531156
 20
-1370.332851278365
 30
0.0
  0
ENDBLK
  8
0
  0
BLOCK
  8
0
  2
*D242
 70
     1
 10
0.0
 20
0.0
  0
LINE
  8
1DIM
 10
42466.8129102715
 20
-1320.332851278365
 11
42466.8129102715
 21
-1380.332851278365
  0
LINE
  8
1DIM
 10
43017.01622796573
 20
-1320.332851278365
 11
43017.01622796573
 21
-1380.332851278365
  0
LINE
  8
1DIM
 10
42486.8129102715
 20
-1370.332851278365
 11
42997.01622796573
 21
-1370.332851278365
  0
INSERT
  8
1DIM
  2
_OPEN30
 10
42466.8129102715
 20
-1370.332851278365
 30
0.0
 41
20.0
 42
20.0
 43
20.0
 50
180.0
  0
INSERT
  8
1DIM
  2
_OPEN30
 10
43017.01622796573
 20
-1370.332851278365
 30
0.0
 41
20.0
 42
20.0
 43
20.0
  0
TEXT
  8
1DIM
  6
CONTINUOUS
 62
   201
 10
42691.91456911861
 20
-1363.332851278365
 40
35.0
  1
550
  0
POINT
  8
DEFPOINTS
 62
     0
 10
42466.8129102715
 20
-1270.332851278365
 30
0.0
  0
POINT
  8
DEFPOINTS
 62
     0
 10
43017.01622796573
 20
-1270.332851278365
 30
0.0
  0
POINT
  8
DEFPOINTS
 62
     0
 10
43017.01622796573
 20
-1370.332851278365
 30
0.0
  0
ENDBLK
  8
0
  0
BLOCK
  8
0
  2
*D243
 70
     1
 10
0.0
 20
0.0
  0
LINE
  8
1DIM
 10
44127.37495531156
 20
-482.074377443143
 11
44187.37495531156
 21
-482.074377443143
  0
LINE
  8
1DIM
 10
44127.37495531156
 20
-1270.332851278365
 11
44187.37495531156
 21
-1270.332851278365
  0
LINE
  8
1DIM
 10
44177.37495531156
 20
-502.074377443143
 11
44177.37495531156
 21
-1250.332851278365
  0
INSERT
  8
1DIM
  2
_OPEN30
 10
44177.37495531156
 20
-482.074377443143
 30
0.0
 41
20.0
 42
20.0
 43
20.0
 50
90.0
  0
INSERT
  8
1DIM
  2
_OPEN30
 10
44177.37495531156
 20
-1270.332851278365
 30
0.0
 41
20.0
 42
20.0
 43
20.0
 50
270.0
  0
TEXT
  8
1DIM
  6
CONTINUOUS
 62
   201
 10
44170.37495531156
 20
-926.203614360755
 40
35.0
  1
790
 50
90.0
  0
POINT
  8
DEFPOINTS
 62
     0
 10
44077.37495531156
 20
-482.074377443143
 30
0.0
  0
POINT
  8
DEFPOINTS
 62
     0
 10
44077.37495531156
 20
-1270.332851278365
 30
0.0
  0
POINT
  8
DEFPOINTS
 62
     0
 10
44177.37495531156
 20
-1270.332851278365
 30
0.0
  0
ENDBLK
  8
0
  0
BLOCK
  8
0
  2
*D244
 70
     1
 10
0.0
 20
0.0
  0
LINE
  8
1DIM
 10
42416.74843318335
 20
-847.648286426733
 11
42356.74843318335
 21
-847.648286426733
  0
LINE
  8
1DIM
 10
42416.74843318335
 20
-1270.332851278365
 11
42356.74843318335
 21
-1270.332851278365
  0
LINE
  8
1DIM
 10
42366.74843318335
 20
-867.648286426733
 11
42366.74843318335
 21
-1250.332851278365
  0
INSERT
  8
1DIM
  2
_OPEN30
 10
42366.74843318335
 20
-847.648286426733
 30
0.0
 41
20.0
 42
20.0
 43
20.0
 50
90.0
  0
INSERT
  8
1DIM
  2
_OPEN30
 10
42366.74843318335
 20
-1270.332851278365
 30
0.0
 41
20.0
 42
20.0
 43
20.0
 50
270.0
  0
TEXT
  8
1DIM
  6
CONTINUOUS
 62
   201
 10
42359.74843318335
 20
-1108.990568852547
 40
35.0
  1
425
 50
90.0
  0
POINT
  8
DEFPOINTS
 62
     0
 10
42466.74843318335
 20
-847.648286426733
 30
0.0
  0
POINT
  8
DEFPOINTS
 62
     0
 10
42466.74843318335
 20
-1270.332851278365
 30
0.0
  0
POINT
  8
DEFPOINTS
 62
     0
 10
42366.74843318335
 20
-1270.332851278365
 30
0.0
  0
ENDBLK
  8
0
  0
BLOCK
  8
0
  2
*D245
 70
     1
 10
0.0
 20
0.0
  0
LINE
  8
1DIM
 10
42532.39354064997
 20
-433.491907109456
 11
42532.39354064997
 21
-373.491907109456
  0
LINE
  8
1DIM
 10
42951.30664302708
 20
-433.491907109456
 11
42951.30664302708
 21
-373.491907109456
  0
LINE
  8
1DIM
 10
42552.39354064997
 20
-383.491907109456
 11
42931.30664302708
 21
-383.491907109456
  0
INSERT
  8
1DIM
  2
_OPEN30
 10
42532.39354064997
 20
-383.491907109456
 30
0.0
 41
20.0
 42
20.0
 43
20.0
 50
180.0
  0
INSERT
  8
1DIM
  2
_OPEN30
 10
42951.30664302708
 20
-383.491907109456
 30
0.0
 41
20.0
 42
20.0
 43
20.0
  0
TEXT
  8
1DIM
  6
CONTINUOUS
 62
   201
 10
42691.85009183853
 20
-376.491907109456
 40
35.0
  1
420
  0
POINT
  8
DEFPOINTS
 62
     0
 10
42532.39354064997
 20
-483.491907109456
 30
0.0
  0
POINT
  8
DEFPOINTS
 62
     0
 10
42951.30664302708
 20
-483.491907109456
 30
0.0
  0
POINT
  8
DEFPOINTS
 62
     0
 10
42951.30664302708
 20
-383.491907109456
 30
0.0
  0
ENDBLK
  8
0
  0
BLOCK
  8
0
  2
*D246
 70
     1
 10
0.0
 20
0.0
  0
LINE
  8
1DIM
 10
43519.61622796573
 20
-432.074377443143
 11
43519.61622796573
 21
-372.074377443143
  0
LINE
  8
1DIM
 10
43939.68600619607
 20
-432.074377443143
 11
43939.68600619607
 21
-372.074377443143
  0
LINE
  8
1DIM
 10
43539.61622796573
 20
-382.074377443143
 11
43919.68600619607
 21
-382.074377443143
  0
INSERT
  8
1DIM
  2
_OPEN30
 10
43519.61622796573
 20
-382.074377443143
 30
0.0
 41
20.0
 42
20.0
 43
20.0
 50
180.0
  0
INSERT
  8
1DIM
  2
_OPEN30
 10
43939.68600619607
 20
-382.074377443143
 30
0.0
 41
20.0
 42
20.0
 43
20.0
  0
TEXT
  8
1DIM
  6
CONTINUOUS
 62
   201
 10
43679.6511170809
 20
-375.074377443143
 40
35.0
  1
420
  0
POINT
  8
DEFPOINTS
 62
     0
 10
43519.61622796573
 20
-482.074377443143
 30
0.0
  0
POINT
  8
DEFPOINTS
 62
     0
 10
43939.68600619607
 20
-482.074377443143
 30
0.0
  0
POINT
  8
DEFPOINTS
 62
     0
 10
43939.68600619607
 20
-382.074377443143
 30
0.0
  0
ENDBLK
  8
0
  0
BLOCK
  8
0
  2
*D254
 70
     1
 10
0.0
 20
0.0
  0
LINE
  8
1DIM
 10
38900.82638174239
 20
-6714.82651730407
 11
38900.82638174239
 21
-6774.82651730407
  0
LINE
  8
1DIM
 10
39321.26190446367
 20
-6714.82651730407
 11
39321.26190446367
 21
-6774.82651730407
  0
LINE
  8
1DIM
 10
38920.82638174239
 20
-6764.82651730407
 11
39301.26190446367
 21
-6764.82651730407
  0
INSERT
  8
1DIM
  2
_OPEN30
 10
38900.82638174239
 20
-6764.82651730407
 30
0.0
 41
20.0
 42
20.0
 43
20.0
 50
180.0
  0
INSERT
  8
1DIM
  2
_OPEN30
 10
39321.26190446367
 20
-6764.82651730407
 30
0.0
 41
20.0
 42
20.0
 43
20.0
  0
TEXT
  8
1DIM
  6
CONTINUOUS
 62
   201
 10
39061.04414310303
 20
-6757.82651730407
 40
35.0
  1
420
  0
POINT
  8
DEFPOINTS
 62
     0
 10
38900.82638174239
 20
-6664.82651730407
 30
0.0
  0
POINT
  8
DEFPOINTS
 62
     0
 10
39321.26190446367
 20
-6664.82651730407
 30
0.0
  0
POINT
  8
DEFPOINTS
 62
     0
 10
39321.26190446367
 20
-6764.82651730407
 30
0.0
  0
ENDBLK
  8
0
  0
BLOCK
  8
0
  2
*D255
 70
     1
 10
0.0
 20
0.0
  0
LINE
  8
1DIM
 10
39823.26190446367
 20
-6714.82651730407
 11
39823.26190446367
 21
-6774.82651730407
  0
LINE
  8
1DIM
 10
40341.41905519964
 20
-6714.82651730407
 11
40341.41905519964
 21
-6774.82651730407
  0
LINE
  8
1DIM
 10
39843.26190446367
 20
-6764.82651730407
 11
40321.41905519964
 21
-6764.82651730407
  0
INSERT
  8
1DIM
  2
_OPEN30
 10
39823.26190446367
 20
-6764.82651730407
 30
0.0
 41
20.0
 42
20.0
 43
20.0
 50
180.0
  0
INSERT
  8
1DIM
  2
_OPEN30
 10
40341.41905519964
 20
-6764.82651730407
 30
0.0
 41
20.0
 42
20.0
 43
20.0
  0
TEXT
  8
1DIM
  6
CONTINUOUS
 62
   201
 10
40032.34047983166
 20
-6757.82651730407
 40
35.0
  1
518
  0
POINT
  8
DEFPOINTS
 62
     0
 10
39823.26190446367
 20
-6664.82651730407
 30
0.0
  0
POINT
  8
DEFPOINTS
 62
     0
 10
40341.41905519964
 20
-6664.82651730407
 30
0.0
  0
POINT
  8
DEFPOINTS
 62
     0
 10
40341.41905519964
 20
-6764.82651730407
 30
0.0
  0
ENDBLK
  8
0
  0
BLOCK
  8
0
  2
*D256
 70
     1
 10
0.0
 20
0.0
  0
LINE
  8
1DIM
 10
40391.41905519964
 20
-6664.82651730407
 11
40451.41905519964
 21
-6664.82651730407
  0
LINE
  8
1DIM
 10
40391.41905519964
 20
-5789.82651730407
 11
40451.41905519964
 21
-5789.82651730407
  0
LINE
  8
1DIM
 10
40441.41905519964
 20
-6644.82651730407
 11
40441.41905519964
 21
-5809.82651730407
  0
INSERT
  8
1DIM
  2
_OPEN30
 10
40441.41905519964
 20
-6664.82651730407
 30
0.0
 41
20.0
 42
20.0
 43
20.0
 50
270.0
  0
INSERT
  8
1DIM
  2
_OPEN30
 10
40441.41905519964
 20
-5789.82651730407
 30
0.0
 41
20.0
 42
20.0
 43
20.0
 50
90.0
  0
TEXT
  8
1DIM
  6
CONTINUOUS
 62
   201
 10
40434.41905519964
 20
-6277.326517304071
 40
35.0
  1
880
 50
90.0
  0
POINT
  8
DEFPOINTS
 62
     0
 10
40341.41905519964
 20
-6664.82651730407
 30
0.0
  0
POINT
  8
DEFPOINTS
 62
     0
 10
40341.41905519964
 20
-5789.82651730407
 30
0.0
  0
POINT
  8
DEFPOINTS
 62
     0
 10
40441.41905519964
 20
-5789.82651730407
 30
0.0
  0
ENDBLK
  8
0
  0
BLOCK
  8
0
  2
*D257
 70
     1
 10
0.0
 20
0.0
  0
LINE
  8
1DIM
 10
39823.26190446367
 20
-5739.82651730407
 11
39823.26190446367
 21
-5679.82651730407
  0
LINE
  8
1DIM
 10
40227.36637812293
 20
-5739.82651730407
 11
40227.36637812293
 21
-5679.82651730407
  0
LINE
  8
1DIM
 10
39843.26190446367
 20
-5689.82651730407
 11
40207.36637812293
 21
-5689.82651730407
  0
INSERT
  8
1DIM
  2
_OPEN30
 10
39823.26190446367
 20
-5689.82651730407
 30
0.0
 41
20.0
 42
20.0
 43
20.0
 50
180.0
  0
INSERT
  8
1DIM
  2
_OPEN30
 10
40227.36637812293
 20
-5689.82651730407
 30
0.0
 41
20.0
 42
20.0
 43
20.0
  0
TEXT
  8
1DIM
  6
CONTINUOUS
 62
   201
 10
39974.48080795996
 20
-5682.82651730407
 40
35.0
  1
404
  0
POINT
  8
DEFPOINTS
 62
     0
 10
39823.26190446367
 20
-5789.82651730407
 30
0.0
  0
POINT
  8
DEFPOINTS
 62
     0
 10
40227.36637812293
 20
-5789.82651730407
 30
0.0
  0
POINT
  8
DEFPOINTS
 62
     0
 10
40227.36637812293
 20
-5689.82651730407
 30
0.0
  0
ENDBLK
  8
0
  0
BLOCK
  8
0
  2
*D258
 70
     1
 10
0.0
 20
0.0
  0
LINE
  8
1DIM
 10
38846.82724623389
 20
-6222.474032201824
 11
38788.82724623389
 21
-6222.474032201824
  0
LINE
  8
1DIM
 10
38848.82724623389
 20
-6664.826523641706
 11
38788.82724623389
 21
-6664.826523641706
  0
LINE
  8
1DIM
 10
38798.82724623389
 20
-6242.474032201824
 11
38798.82724623389
 21
-6644.826523641706
  0
INSERT
  8
1DIM
  2
_OPEN30
 10
38798.82724623389
 20
-6222.474032201824
 30
0.0
 41
20.0
 42
20.0
 43
20.0
 50
90.0
  0
INSERT
  8
1DIM
  2
_OPEN30
 10
38798.82724623389
 20
-6664.826523641706
 30
0.0
 41
20.0
 42
20.0
 43
20.0
 50
270.0
  0
TEXT
  8
1DIM
  6
CONTINUOUS
 62
   201
 10
38791.82724623389
 20
-6493.650277921763
 40
35.0
  1
440
 50
90.0
  0
POINT
  8
DEFPOINTS
 62
     0
 10
38896.82724623389
 20
-6222.474032201824
 30
0.0
  0
POINT
  8
DEFPOINTS
 62
     0
 10
38898.82724623389
 20
-6664.826523641706
 30
0.0
  0
POINT
  8
DEFPOINTS
 62
     0
 10
38798.82724623389
 20
-6664.826523641706
 30
0.0
  0
ENDBLK
  8
0
  0
BLOCK
  8
0
  2
*D259
 70
     1
 10
0.0
 20
0.0
  0
LINE
  8
1DIM
 10
40823.26181744663
 20
-6664.826502045281
 11
40763.26181744663
 21
-6664.826502045281
  0
LINE
  8
1DIM
 10
40823.26181744663
 20
-5864.826502045283
 11
40763.26181744663
 21
-5864.826502045283
  0
LINE
  8
1DIM
 10
40773.26181744663
 20
-6644.826502045281
 11
40773.26181744663
 21
-5884.826502045283
  0
INSERT
  8
1DIM
  2
_OPEN30
 10
40773.26181744663
 20
-6664.826502045281
 30
0.0
 41
20.0
 42
20.0
 43
20.0
 50
270.0
  0
INSERT
  8
1DIM
  2
_OPEN30
 10
40773.26181744663
 20
-5864.826502045283
 30
0.0
 41
20.0
 42
20.0
 43
20.0
 50
90.0
  0
TEXT
  8
1DIM
  6
CONTINUOUS
 62
   201
 10
40766.26181744663
 20
-6314.826502045282
 40
35.0
  1
800
 50
90.0
  0
POINT
  8
DEFPOINTS
 62
     0
 10
40873.26181744663
 20
-6664.826502045281
 30
0.0
  0
POINT
  8
DEFPOINTS
 62
     0
 10
40873.26181744663
 20
-5864.826502045283
 30
0.0
  0
POINT
  8
DEFPOINTS
 62
     0
 10
40773.26181744663
 20
-5864.826502045283
 30
0.0
  0
ENDBLK
  8
0
  0
BLOCK
  8
0
  2
*D260
 70
     1
 10
0.0
 20
0.0
  0
LINE
  8
1DIM
 10
45523.25123621211
 20
-1320.332927572316
 11
45523.25123621211
 21
-1380.332927572316
  0
LINE
  8
1DIM
 10
45943.68675893338
 20
-1320.332927572316
 11
45943.68675893338
 21
-1380.332927572316
  0
LINE
  8
1DIM
 10
45543.25123621211
 20
-1370.332927572316
 11
45923.68675893338
 21
-1370.332927572316
  0
INSERT
  8
1DIM
  2
_OPEN30
 10
45523.25123621211
 20
-1370.332927572316
 30
0.0
 41
20.0
 42
20.0
 43
20.0
 50
180.0
  0
INSERT
  8
1DIM
  2
_OPEN30
 10
45943.68675893338
 20
-1370.332927572316
 30
0.0
 41
20.0
 42
20.0
 43
20.0
  0
TEXT
  8
1DIM
  6
CONTINUOUS
 62
   201
 10
45683.46899757274
 20
-1363.332927572316
 40
35.0
  1
420
  0
POINT
  8
DEFPOINTS
 62
     0
 10
45523.25123621211
 20
-1270.332927572316
 30
0.0
  0
POINT
  8
DEFPOINTS
 62
     0
 10
45943.68675893338
 20
-1270.332927572316
 30
0.0
  0
POINT
  8
DEFPOINTS
 62
     0
 10
45943.68675893338
 20
-1370.332927572316
 30
0.0
  0
ENDBLK
  8
0
  0
BLOCK
  8
0
  2
*D261
 70
     1
 10
0.0
 20
0.0
  0
LINE
  8
1DIM
 10
46445.68675893338
 20
-1320.332927572316
 11
46445.68675893338
 21
-1380.332927572316
  0
LINE
  8
1DIM
 10
46963.84390966935
 20
-1320.332927572316
 11
46963.84390966935
 21
-1380.332927572316
  0
LINE
  8
1DIM
 10
46465.68675893338
 20
-1370.332927572316
 11
46943.84390966935
 21
-1370.332927572316
  0
INSERT
  8
1DIM
  2
_OPEN30
 10
46445.68675893338
 20
-1370.332927572316
 30
0.0
 41
20.0
 42
20.0
 43
20.0
 50
180.0
  0
INSERT
  8
1DIM
  2
_OPEN30
 10
46963.84390966935
 20
-1370.332927572316
 30
0.0
 41
20.0
 42
20.0
 43
20.0
  0
TEXT
  8
1DIM
  6
CONTINUOUS
 62
   201
 10
46654.76533430137
 20
-1363.332927572316
 40
35.0
  1
518
  0
POINT
  8
DEFPOINTS
 62
     0
 10
46445.68675893338
 20
-1270.332927572316
 30
0.0
  0
POINT
  8
DEFPOINTS
 62
     0
 10
46963.84390966935
 20
-1270.332927572316
 30
0.0
  0
POINT
  8
DEFPOINTS
 62
     0
 10
46963.84390966935
 20
-1370.332927572316
 30
0.0
  0
ENDBLK
  8
0
  0
BLOCK
  8
0
  2
*D262
 70
     1
 10
0.0
 20
0.0
  0
LINE
  8
1DIM
 10
47013.84390966935
 20
-1270.332927572316
 11
47073.84390966935
 21
-1270.332927572316
  0
LINE
  8
1DIM
 10
47013.84390966935
 20
-395.332927572316
 11
47073.84390966935
 21
-395.332927572316
  0
LINE
  8
1DIM
 10
47063.84390966935
 20
-1250.332927572316
 11
47063.84390966935
 21
-415.332927572316
  0
INSERT
  8
1DIM
  2
_OPEN30
 10
47063.84390966935
 20
-1270.332927572316
 30
0.0
 41
20.0
 42
20.0
 43
20.0
 50
270.0
  0
INSERT
  8
1DIM
  2
_OPEN30
 10
47063.84390966935
 20
-395.332927572316
 30
0.0
 41
20.0
 42
20.0
 43
20.0
 50
90.0
  0
TEXT
  8
1DIM
  6
CONTINUOUS
 62
   201
 10
47056.84390966935
 20
-882.832927572315
 40
35.0
  1
880
 50
90.0
  0
POINT
  8
DEFPOINTS
 62
     0
 10
46963.84390966935
 20
-1270.332927572316
 30
0.0
  0
POINT
  8
DEFPOINTS
 62
     0
 10
46963.84390966935
 20
-395.332927572316
 30
0.0
  0
POINT
  8
DEFPOINTS
 62
     0
 10
47063.84390966935
 20
-395.332927572316
 30
0.0
  0
ENDBLK
  8
0
  0
BLOCK
  8
0
  2
*D263
 70
     1
 10
0.0
 20
0.0
  0
LINE
  8
1DIM
 10
46445.68675893338
 20
-345.332927572316
 11
46445.68675893338
 21
-285.332927572316
  0
LINE
  8
1DIM
 10
46849.79123259264
 20
-345.332927572316
 11
46849.79123259264
 21
-285.332927572316
  0
LINE
  8
1DIM
 10
46465.68675893338
 20
-295.332927572316
 11
46829.79123259264
 21
-295.332927572316
  0
INSERT
  8
1DIM
  2
_OPEN30
 10
46445.68675893338
 20
-295.332927572316
 30
0.0
 41
20.0
 42
20.0
 43
20.0
 50
180.0
  0
INSERT
  8
1DIM
  2
_OPEN30
 10
46849.79123259264
 20
-295.332927572316
 30
0.0
 41
20.0
 42
20.0
 43
20.0
  0
TEXT
  8
1DIM
  6
CONTINUOUS
 62
   201
 10
46596.90566242967
 20
-288.332927572316
 40
35.0
  1
404
  0
POINT
  8
DEFPOINTS
 62
     0
 10
46445.68675893338
 20
-395.332927572316
 30
0.0
  0
POINT
  8
DEFPOINTS
 62
     0
 10
46849.79123259264
 20
-395.332927572316
 30
0.0
  0
POINT
  8
DEFPOINTS
 62
     0
 10
46849.79123259264
 20
-295.332927572316
 30
0.0
  0
ENDBLK
  8
0
  0
BLOCK
  8
0
  2
*D264
 70
     1
 10
0.0
 20
0.0
  0
LINE
  8
1DIM
 10
45469.2521007036
 20
-827.980442470069
 11
45411.2521007036
 21
-827.980442470069
  0
LINE
  8
1DIM
 10
45471.2521007036
 20
-1270.332933909951
 11
45411.2521007036
 21
-1270.332933909951
  0
LINE
  8
1DIM
 10
45421.2521007036
 20
-847.980442470069
 11
45421.2521007036
 21
-1250.332933909951
  0
INSERT
  8
1DIM
  2
_OPEN30
 10
45421.2521007036
 20
-827.980442470069
 30
0.0
 41
20.0
 42
20.0
 43
20.0
 50
90.0
  0
INSERT
  8
1DIM
  2
_OPEN30
 10
45421.2521007036
 20
-1270.332933909951
 30
0.0
 41
20.0
 42
20.0
 43
20.0
 50
270.0
  0
TEXT
  8
1DIM
  6
CONTINUOUS
 62
   201
 10
45414.2521007036
 20
-1099.156688190007
 40
35.0
  1
440
 50
90.0
  0
POINT
  8
DEFPOINTS
 62
     0
 10
45519.2521007036
 20
-827.980442470069
 30
0.0
  0
POINT
  8
DEFPOINTS
 62
     0
 10
45521.2521007036
 20
-1270.332933909951
 30
0.0
  0
POINT
  8
DEFPOINTS
 62
     0
 10
45421.2521007036
 20
-1270.332933909951
 30
0.0
  0
ENDBLK
  8
0
  0
BLOCK
  8
0
  2
*D265
 70
     1
 10
0.0
 20
0.0
  0
LINE
  8
1DIM
 10
47445.68667191634
 20
-1270.332912313527
 11
47385.68667191634
 21
-1270.332912313527
  0
LINE
  8
1DIM
 10
47445.68667191634
 20
-470.332912313529
 11
47385.68667191634
 21
-470.332912313529
  0
LINE
  8
1DIM
 10
47395.68667191634
 20
-1250.332912313527
 11
47395.68667191634
 21
-490.332912313529
  0
INSERT
  8
1DIM
  2
_OPEN30
 10
47395.68667191634
 20
-1270.332912313527
 30
0.0
 41
20.0
 42
20.0
 43
20.0
 50
270.0
  0
INSERT
  8
1DIM
  2
_OPEN30
 10
47395.68667191634
 20
-470.332912313529
 30
0.0
 41
20.0
 42
20.0
 43
20.0
 50
90.0
  0
TEXT
  8
1DIM
  6
CONTINUOUS
 62
   201
 10
47388.68667191634
 20
-920.332912313526
 40
35.0
  1
800
 50
90.0
  0
POINT
  8
DEFPOINTS
 62
     0
 10
47495.68667191634
 20
-1270.332912313527
 30
0.0
  0
POINT
  8
DEFPOINTS
 62
     0
 10
47495.68667191634
 20
-470.332912313529
 30
0.0
  0
POINT
  8
DEFPOINTS
 62
     0
 10
47395.68667191634
 20
-470.332912313529
 30
0.0
  0
ENDBLK
  8
0
  0
BLOCK
  8
0
  2
NOCIRCLE
 70
     2
 10
0.0
 20
0.0
  0
CIRCLE
  8
0
  6
BYBLOCK
 62
     0
 10
0.0
 20
0.0
 40
4.2
  0
ATTDEF
  8
1TEXT
 10
-1.904761904762
 20
-2.0
 40
4.0
  1
0
 72
     4
 11
0.0
 21
0.0
  3
NO.
  2
NO
 70
     0
  0
ENDBLK
  8
0
  0
BLOCK
  8
0
  2
_OPEN
 70
     0
 10
0.0
 20
0.0
  0
LINE
  8
0
  6
BYBLOCK
 62
     0
 10
-1.0
 20
0.166667
 11
0.0
 21
0.0
  0
LINE
  8
0
  6
BYBLOCK
 62
     0
 10
-1.0
 20
-0.166667
 11
0.0
 21
0.0
  0
LINE
  8
0
  6
BYBLOCK
 62
     0
 10
0.0
 20
0.0
 11
-1.0
 21
0.0
  0
ENDBLK
  8
0
  0
BLOCK
  8
0
  2
YA__
 70
     0
 10
0.0
 20
0.0
  0
INSERT
  8
0
  2
YA_
 10
0.0
 20
0.0
 30
0.0
 50
180.0
  0
ENDBLK
  8
0
  0
BLOCK
  8
0
  2
YA_
 70
     0
 10
0.0
 20
0.0
  0
LINE
  8
0
 10
-5.598760219962
 20
0.622116757674
 11
-2.488360049962
 21
0.622116757674
  0
LINE
  8
0
 10
-5.598760219962
 20
-0.622043242326
 11
-2.488359989962
 21
-0.622043242326
  0
LINE
  8
0
 10
-5.598760219962
 20
0.622116757674
 11
-5.598760219962
 21
-0.622043242326
  0
LINE
  8
0
 10
-2.488360079962
 20
1.346879757674
 11
-2.488360049962
 21
0.622116757674
  0
LINE
  8
0
 10
0.155480482306
 20
-1.993947296099
 11
0.155480380551
 21
1.993947304034
  0
LINE
  8
0
 10
-0.000039515118
 20
-1.99999999961
 11
-0.000039719246
 21
1.999999999606
  0
LINE
  8
0
 10
-0.155559515297
 20
-1.993941131829
 11
-0.155559619962
 21
0.000036757674
  0
LINE
  8
0
 10
-0.155559619962
 20
0.000036757674
 11
-0.155559718965
 21
1.99394111594
  0
LINE
  8
0
 10
-2.488359989962
 20
-0.622043242326
 11
-2.488359959962
 21
-1.346806242326
  0
LINE
  8
0
 10
-0.155559619962
 20
0.000036757674
 11
-2.488360199962
 21
-1.346806242326
  0
LINE
  8
0
 10
-0.155559619962
 20
0.000036757674
 11
-2.488360079962
 21
1.346879757674
  0
POINT
  8
POINT
 10
0.0
 20
0.0
 30
0.0
  0
ENDBLK
  8
0
  0
BLOCK
  8
0
  2
*D273
 70
     1
 10
0.0
 20
0.0
  0
LINE
  8
1DIM
 10
39111.07107297645
 20
-5489.82651730407
 11
39622.24617163939
 21
-5489.82651730407
  0
LINE
  8
1DIM
 10
39111.07107391537
 20
-5085.737894010413
 11
39622.24617163939
 21
-5085.737894010413
  0
LINE
  8
1DIM
 10
39572.24617163939
 20
-5389.82651730407
 11
39572.24617163939
 21
-5185.737894010413
  0
INSERT
  8
1DIM
  2
_OPEN30
 10
39572.24617163939
 20
-5489.82651730407
 30
0.0
 41
100.0
 42
100.0
 43
100.0
 50
270.0
  0
INSERT
  8
1DIM
  2
_OPEN30
 10
39572.24617163939
 20
-5085.737894010413
 30
0.0
 41
100.0
 42
100.0
 43
100.0
 50
90.0
  0
TEXT
  8
1DIM
  6
CONTINUOUS
 62
   201
 10
39537.24617163939
 20
-5381.115538990569
 40
175.0
  1
üÜ
 50
90.0
  0
POINT
  8
DEFPOINTS
 62
     0
 10
39111.07107297645
 20
-5489.82651730407
 30
0.0
  0
POINT
  8
DEFPOINTS
 62
     0
 10
39111.07107391537
 20
-5085.737894010413
 30
0.0
  0
POINT
  8
DEFPOINTS
 62
     0
 10
39572.24617163939
 20
-5085.737894010413
 30
0.0
  0
ENDBLK
  8
0
  0
BLOCK
  8
0
  2
*D275
 70
     1
 10
0.0
 20
0.0
  0
LINE
  8
1DIM
 10
0.0
 20
1010.000000000044
 11
0.0
 21
601.175471459879
  0
LINE
  8
1DIM
 10
600.000000000007
 20
1010.000000000044
 11
600.000000000007
 21
601.175471459879
  0
LINE
  8
1DIM
 10
20.0
 20
611.175471459879
 11
580.000000000007
 21
611.175471459879
  0
INSERT
  8
1DIM
  2
_OPEN30
 10
0.0
 20
611.175471459879
 30
0.0
 41
20.0
 42
20.0
 43
20.0
 50
180.0
  0
INSERT
  8
1DIM
  2
_OPEN30
 10
600.000000000007
 20
611.175471459879
 30
0.0
 41
20.0
 42
20.0
 43
20.0
  0
TEXT
  8
1DIM
  6
CONTINUOUS
 62
   201
 10
226.833333333337
 20
618.175471459879
 40
35.0
  1
âË600
  0
POINT
  8
DEFPOINTS
 62
     0
 10
0.0
 20
1010.000000000044
 30
0.0
  0
POINT
  8
DEFPOINTS
 62
     0
 10
600.000000000007
 20
1010.000000000044
 30
0.0
  0
POINT
  8
DEFPOINTS
 62
     0
 10
600.000000000007
 20
611.175471459879
 30
0.0
  0
ENDBLK
  8
0
  0
BLOCK
  8
0
  2
*D276
 70
     1
 10
0.0
 20
0.0
  0
LINE
  8
1DIM
 10
600.000000000007
 20
410.000000000044
 11
689.778880730977
 21
410.000000000044
  0
LINE
  8
1DIM
 10
592.320508075689
 20
0.000000000029
 11
689.778880730977
 21
0.000000000029
  0
LINE
  8
1DIM
 10
679.778880730977
 20
390.000000000044
 11
679.778880730977
 21
20.000000000029
  0
INSERT
  8
1DIM
  2
_OPEN30
 10
679.778880730977
 20
410.000000000044
 30
0.0
 41
20.0
 42
20.0
 43
20.0
 50
90.0
  0
INSERT
  8
1DIM
  2
_OPEN30
 10
679.778880730977
 20
0.000000000029
 30
0.0
 41
20.0
 42
20.0
 43
20.0
 50
270.0
  0
TEXT
  8
1DIM
  6
CONTINUOUS
 62
   201
 10
672.778880730977
 20
155.000000000036
 40
35.0
  1
410
 50
90.0
  0
POINT
  8
DEFPOINTS
 62
     0
 10
600.000000000007
 20
410.000000000044
 30
0.0
  0
POINT
  8
DEFPOINTS
 62
     0
 10
592.320508075689
 20
0.000000000029
 30
0.0
  0
POINT
  8
DEFPOINTS
 62
     0
 10
679.778880730977
 20
0.000000000029
 30
0.0
  0
ENDBLK
  8
0
  0
BLOCK
  8
0
  2
*D277
 70
     1
 10
0.0
 20
0.0
  0
LINE
  8
1DIM
 10
38723.26190446367
 20
-5654.826517304037
 11
38723.26190446367
 21
-6063.651045844202
  0
LINE
  8
1DIM
 10
39323.26190446367
 20
-5654.826517304037
 11
39323.26190446367
 21
-6063.651045844202
  0
LINE
  8
1DIM
 10
38743.26190446367
 20
-6053.651045844202
 11
39303.26190446367
 21
-6053.651045844202
  0
INSERT
  8
1DIM
  2
_OPEN30
 10
38723.26190446367
 20
-6053.651045844202
 30
0.0
 41
20.0
 42
20.0
 43
20.0
 50
180.0
  0
INSERT
  8
1DIM
  2
_OPEN30
 10
39323.26190446367
 20
-6053.651045844202
 30
0.0
 41
20.0
 42
20.0
 43
20.0
  0
TEXT
  8
1DIM
  6
CONTINUOUS
 62
   201
 10
38950.095237797
 20
-6046.651045844202
 40
35.0
  1
âË600
  0
POINT
  8
DEFPOINTS
 62
     0
 10
38723.26190446367
 20
-5654.826517304037
 30
0.0
  0
POINT
  8
DEFPOINTS
 62
     0
 10
39323.26190446367
 20
-5654.826517304037
 30
0.0
  0
POINT
  8
DEFPOINTS
 62
     0
 10
39323.26190446367
 20
-6053.651045844202
 30
0.0
  0
ENDBLK
  8
0
  0
BLOCK
  8
0
  2
*D278
 70
     1
 10
0.0
 20
0.0
  0
LINE
  8
1DIM
 10
39323.26190446367
 20
-6254.826517304041
 11
39413.04078519464
 21
-6254.826517304041
  0
LINE
  8
1DIM
 10
39315.58241253935
 20
-6664.826517304055
 11
39413.04078519464
 21
-6664.826517304055
  0
LINE
  8
1DIM
 10
39403.04078519464
 20
-6274.826517304041
 11
39403.04078519464
 21
-6644.826517304055
  0
INSERT
  8
1DIM
  2
_OPEN30
 10
39403.04078519464
 20
-6254.826517304041
 30
0.0
 41
20.0
 42
20.0
 43
20.0
 50
90.0
  0
INSERT
  8
1DIM
  2
_OPEN30
 10
39403.04078519464
 20
-6664.826517304055
 30
0.0
 41
20.0
 42
20.0
 43
20.0
 50
270.0
  0
TEXT
  8
1DIM
  6
CONTINUOUS
 62
   201
 10
39396.04078519464
 20
-6509.826517304049
 40
35.0
  1
410
 50
90.0
  0
POINT
  8
DEFPOINTS
 62
     0
 10
39323.26190446367
 20
-6254.826517304041
 30
0.0
  0
POINT
  8
DEFPOINTS
 62
     0
 10
39315.58241253935
 20
-6664.826517304055
 30
0.0
  0
POINT
  8
DEFPOINTS
 62
     0
 10
39403.04078519464
 20
-6664.826517304055
 30
0.0
  0
ENDBLK
  8
0
  0
BLOCK
  8
0
  2
*D280
 70
     1
 10
0.0
 20
0.0
  0
LINE
  8
1DIM
 10
570.771579031712
 20
1890.524497910461
 11
570.771579031712
 21
1481.699969370296
  0
LINE
  8
1DIM
 10
1170.77157903172
 20
1890.524497910461
 11
1170.77157903172
 21
1481.699969370296
  0
LINE
  8
1DIM
 10
590.771579031712
 20
1491.699969370296
 11
1150.77157903172
 21
1491.699969370296
  0
INSERT
  8
1DIM
  2
_OPEN30
 10
570.771579031712
 20
1491.699969370296
 30
0.0
 41
20.0
 42
20.0
 43
20.0
 50
180.0
  0
INSERT
  8
1DIM
  2
_OPEN30
 10
1170.77157903172
 20
1491.699969370296
 30
0.0
 41
20.0
 42
20.0
 43
20.0
  0
TEXT
  8
1DIM
  6
CONTINUOUS
 62
   201
 10
797.604912365049
 20
1498.699969370296
 40
35.0
  1
âË600
  0
POINT
  8
DEFPOINTS
 62
     0
 10
570.771579031712
 20
1890.524497910461
 30
0.0
  0
POINT
  8
DEFPOINTS
 62
     0
 10
1170.77157903172
 20
1890.524497910461
 30
0.0
  0
POINT
  8
DEFPOINTS
 62
     0
 10
1170.77157903172
 20
1491.699969370296
 30
0.0
  0
ENDBLK
  8
0
  0
BLOCK
  8
0
  2
*D281
 70
     1
 10
0.0
 20
0.0
  0
LINE
  8
1DIM
 10
1170.7715790316
 20
1290.524497910461
 11
1260.55045976257
 21
1290.524497910461
  0
LINE
  8
1DIM
 10
1153.092087107456
 20
880.524497910417
 11
1260.55045976257
 21
880.524497910417
  0
LINE
  8
1DIM
 10
1250.55045976257
 20
1270.524497910461
 11
1250.55045976257
 21
900.524497910417
  0
INSERT
  8
1DIM
  2
_OPEN30
 10
1250.55045976257
 20
1290.524497910461
 30
0.0
 41
20.0
 42
20.0
 43
20.0
 50
90.0
  0
INSERT
  8
1DIM
  2
_OPEN30
 10
1250.55045976257
 20
880.524497910417
 30
0.0
 41
20.0
 42
20.0
 43
20.0
 50
270.0
  0
TEXT
  8
1DIM
  6
CONTINUOUS
 62
   201
 10
1243.55045976257
 20
1035.524497910439
 40
35.0
  1
410
 50
90.0
  0
POINT
  8
DEFPOINTS
 62
     0
 10
1170.7715790316
 20
1290.524497910461
 30
0.0
  0
POINT
  8
DEFPOINTS
 62
     0
 10
1153.092087107456
 20
880.524497910417
 30
0.0
  0
POINT
  8
DEFPOINTS
 62
     0
 10
1250.55045976257
 20
880.524497910417
 30
0.0
  0
ENDBLK
  8
0
  0
BLOCK
  8
0
  2
*D282
 70
     1
 10
0.0
 20
0.0
  0
LINE
  8
1DIM
 10
1424.568401654993
 20
1250.524497910461
 11
1350.555188364051
 21
1250.524497910461
  0
LINE
  8
1DIM
 10
1424.568401654993
 20
1290.524497910461
 11
1350.555188364051
 21
1290.524497910461
  0
LINE
  8
1DIM
 10
1360.555188364051
 20
1310.524497910461
 11
1360.555188364051
 21
1466.191164577127
  0
LINE
  8
1DIM
 10
1360.555188364051
 20
1250.524497910461
 11
1360.555188364051
 21
1290.524497910461
  0
LINE
  8
1DIM
 10
1360.555188364051
 20
1230.524497910461
 11
1360.555188364051
 21
1210.524497910461
  0
INSERT
  8
1DIM
  2
_OPEN30
 10
1360.555188364051
 20
1250.524497910461
 30
0.0
 41
20.0
 42
20.0
 43
20.0
 50
90.0
  0
INSERT
  8
1DIM
  2
_OPEN30
 10
1360.555188364051
 20
1290.524497910461
 30
0.0
 41
20.0
 42
20.0
 43
20.0
 50
270.0
  0
TEXT
  8
1DIM
  6
CONTINUOUS
 62
   201
 10
1353.555188364051
 20
1334.191164577128
 40
35.0
  1
t=40
 50
90.0
  0
POINT
  8
DEFPOINTS
 62
     0
 10
1424.568401654993
 20
1250.524497910461
 30
0.0
  0
POINT
  8
DEFPOINTS
 62
     0
 10
1424.568401654993
 20
1290.524497910461
 30
0.0
  0
POINT
  8
DEFPOINTS
 62
     0
 10
1360.555188364051
 20
1290.524497910461
 30
0.0
  0
ENDBLK
  8
0
  0
BLOCK
  8
0
  2
ìÅê¾1MM
 70
     0
 10
0.0
 20
0.0
  0
LINE
  8
0
 10
-0.03822222222
 20
-0.210522222223
 11
0.275111111113
 21
-0.210522222223
  0
LINE
  8
0
 10
-0.328999999997
 20
-0.473688888889
 11
0.118444444447
 21
0.52631111111
  0
LINE
  8
0
 10
0.026555555558
 20
-0.065788888889
 11
0.118444444447
 21
0.139666666666
  0
LINE
  8
0
 10
0.026555555558
 20
-0.065788888889
 11
0.210333333336
 21
-0.065788888889
  0
LINE
  8
0
 10
-1.748111111107
 20
-0.473688888889
 11
-1.630333333329
 21
-0.210522222223
  0
LINE
  8
0
 10
-1.871333333329
 20
-0.362566666667
 11
-1.473666666663
 21
0.526322222221
  0
LINE
  8
0
 10
-2.499999999995
 20
0.499999999999
 11
-2.499999999995
 21
-0.473677777778
  0
LINE
  8
0
 10
-2.342111111106
 20
0.499999999999
 11
-2.342111111106
 21
-0.473677777778
  0
LINE
  8
0
 10
-1.986888888884
 20
-0.473688888889
 11
-2.342111111106
 21
0.052633333333
  0
LINE
  8
0
 10
-1.871333333329
 20
-0.362566666667
 11
-2.14644444444
 21
0.045055555555
  0
LINE
  8
0
 10
-2.499999999995
 20
-0.473677777778
 11
-2.342111111106
 21
-0.473677777778
  0
LINE
  8
0
 10
-1.986888888884
 20
-0.473677777778
 11
-1.748111111107
 21
-0.473677777778
  0
LINE
  8
0
 10
-1.986888888884
 20
0.499999999999
 11
-2.342111111106
 21
0.052633333333
  0
LINE
  8
0
 10
-1.785222222218
 20
0.499999999999
 11
-2.14644444444
 21
0.045055555555
  0
LINE
  8
0
 10
-2.499999999995
 20
0.499999999999
 11
-2.342111111106
 21
0.499999999999
  0
LINE
  8
0
 10
-1.986888888884
 20
0.499999999999
 11
-1.785222222218
 21
0.499999999999
  0
LINE
  8
0
 10
-0.433555555553
 20
-0.105255555556
 11
-0.670999999997
 21
0.52631111111
  0
LINE
  8
0
 10
-0.433555555553
 20
-0.105255555556
 11
-0.178777777775
 21
0.499999999999
  0
LINE
  8
0
 10
-1.565555555551
 20
-0.065788888889
 11
-1.473666666663
 21
0.139666666666
  0
LINE
  8
0
 10
-1.381777777774
 20
-0.065788888889
 11
-1.473666666663
 21
0.139666666666
  0
LINE
  8
0
 10
-0.908444444441
 20
-0.105255555556
 11
-1.16333333333
 21
0.499999999999
  0
LINE
  8
0
 10
-0.908444444441
 20
-0.105255555556
 11
-0.670999999997
 21
0.52631111111
  0
LINE
  8
0
 10
-0.907888888885
 20
-0.5
 11
-1.328999999996
 21
0.499999999999
  0
LINE
  8
0
 10
-0.907888888885
 20
-0.5
 11
-0.670999999997
 21
0.129977777777
  0
LINE
  8
0
 10
-0.434222222219
 20
-0.5
 11
-0.013111111109
 21
0.499999999999
  0
LINE
  8
0
 10
-0.434222222219
 20
-0.5
 11
-0.670999999997
 21
0.129977777777
  0
LINE
  8
0
 10
-1.02633333333
 20
-0.473688888889
 11
-1.473666666663
 21
0.52631111111
  0
LINE
  8
0
 10
-1.19933333333
 20
-0.473688888889
 11
-1.316999999996
 21
-0.210522222223
  0
LINE
  8
0
 10
-1.19933333333
 20
-0.473677777778
 11
-1.02633333333
 21
-0.473677777778
  0
LINE
  8
0
 10
-1.565555555551
 20
-0.065788888889
 11
-1.381777777774
 21
-0.065788888889
  0
LINE
  8
0
 10
-1.630333333329
 20
-0.210522222223
 11
-1.316999999996
 21
-0.210522222223
  0
LINE
  8
0
 10
-0.155999999997
 20
-0.473688888889
 11
-0.03822222222
 21
-0.210522222223
  0
LINE
  8
0
 10
-0.328999999997
 20
-0.473677777778
 11
-0.155999999997
 21
-0.473677777778
  0
LINE
  8
0
 10
-1.328999999996
 20
0.499999999999
 11
-1.16333333333
 21
0.499999999999
  0
LINE
  8
0
 10
-0.178777777775
 20
0.499999999999
 11
-0.013111111109
 21
0.499999999999
  0
POINT
  8
1CENTER
 10
0.0
 20
0.0
 30
0.0
  0
ARC
  8
0
 10
1.395777777779
 20
-0.197942286342
 40
0.29
 50
299.999999999977
 51
0.0
  0
LINE
  8
0
 10
0.755777777779
 20
0.499999999999
 11
0.755777777779
 21
-0.220000000001
  0
LINE
  8
0
 10
0.915777777779
 20
0.499999999999
 11
0.915777777779
 21
-0.210000000001
  0
LINE
  8
0
 10
1.175777777779
 20
0.499999999999
 11
1.175777777779
 21
-0.197942286342
  0
LINE
  8
0
 10
1.525777777779
 20
0.499999999999
 11
1.525777777779
 21
-0.197942286342
  0
LINE
  8
0
 10
1.685777777779
 20
0.499999999999
 11
1.685777777779
 21
-0.197942286342
  0
LINE
  8
0
 10
1.015777777779
 20
0.499999999999
 11
1.015777777779
 21
-0.197942286342
  0
LINE
  8
0
 10
0.210333333336
 20
-0.065788888889
 11
0.118444444447
 21
0.139666666666
  0
LINE
  8
0
 10
0.497065436477
 20
-0.320000000001
 11
0.118444444447
 21
0.52631111111
  0
ARC
  8
0
 10
0.655777777779
 20
-0.210000000001
 40
0.26
 50
270.0
 51
0.0
  0
LINE
  8
0
 10
0.391128407574
 20
-0.470000000001
 11
0.275111111113
 21
-0.210522222223
  0
LINE
  8
0
 10
0.391128407574
 20
-0.470000000001
 11
0.655777777779
 21
-0.470000000001
  0
ARC
  8
0
 10
0.655777777779
 20
-0.220000000001
 40
0.1
 50
270.0
 51
0.0
  0
LINE
  8
0
 10
0.497065436477
 20
-0.320000000001
 11
0.655777777779
 21
-0.320000000001
  0
ARC
  8
0
 10
1.305777777779
 20
-0.197942286342
 40
0.29
 50
180.0
 51
240.000000000025
  0
ARC
  8
0
 10
1.350777777779
 20
-0.120000000001
 40
0.3800000000000008
 50
240.000000000025
 51
299.999999999977
  0
ARC
  8
0
 10
1.350777777779
 20
-0.120000000001
 40
0.2199999999999989
 50
240.000000000023
 51
299.999999999969
  0
ARC
  8
0
 10
1.305777777779
 20
-0.197942286342
 40
0.13
 50
180.0
 51
240.000000000023
  0
ARC
  8
0
 10
1.395777777779
 20
-0.197942286342
 40
0.13
 50
299.999999999969
 51
0.0
  0
LINE
  8
0
 10
0.755777777779
 20
0.499999999999
 11
0.915777777779
 21
0.499999999999
  0
LINE
  8
0
 10
1.175777777779
 20
0.499999999999
 11
1.015777777779
 21
0.499999999999
  0
LINE
  8
0
 10
1.685777777779
 20
0.499999999999
 11
1.525777777779
 21
0.499999999999
  0
LINE
  8
0
 10
2.342111111111
 20
0.499999999999
 11
2.342111111111
 21
-0.093544444445
  0
LINE
  8
0
 10
2.342111111111
 20
-0.093544444445
 11
1.789444444445
 21
0.52631111111
  0
LINE
  8
0
 10
1.789444444445
 20
0.526322222221
 11
1.789444444445
 21
-0.473677777778
  0
LINE
  8
0
 10
1.947333333334
 20
0.119855555555
 11
1.947333333334
 21
-0.473677777778
  0
LINE
  8
0
 10
1.789444444445
 20
-0.473677777778
 11
1.947333333334
 21
-0.473677777778
  0
LINE
  8
0
 10
2.5
 20
0.499999999999
 11
2.5
 21
-0.5
  0
LINE
  8
0
 10
2.5
 20
-0.5
 11
1.947333333334
 21
0.119855555555
  0
LINE
  8
0
 10
2.342111111111
 20
0.499999999999
 11
2.5
 21
0.499999999999
  0
ENDBLK
  8
0
  0
BLOCK
  8
0
  2
*D284
 70
     1
 10
0.0
 20
0.0
  0
LINE
  8
1DIM
 10
1424.568401654993
 20
1250.524497910461
 11
1350.555188364051
 21
1250.524497910461
  0
LINE
  8
1DIM
 10
1437.568401654924
 20
890.524497910432
 11
1350.555188364051
 21
890.524497910432
  0
LINE
  8
1DIM
 10
1360.555188364051
 20
1230.524497910461
 11
1360.555188364051
 21
910.524497910432
  0
INSERT
  8
1DIM
  2
_OPEN30
 10
1360.555188364051
 20
1250.524497910461
 30
0.0
 41
20.0
 42
20.0
 43
20.0
 50
90.0
  0
INSERT
  8
1DIM
  2
_OPEN30
 10
1360.555188364051
 20
890.524497910432
 30
0.0
 41
20.0
 42
20.0
 43
20.0
 50
270.0
  0
TEXT
  8
1DIM
  6
CONTINUOUS
 62
   201
 10
1353.555188364051
 20
1020.524497910446
 40
35.0
  1
360
 50
90.0
  0
POINT
  8
DEFPOINTS
 62
     0
 10
1424.568401654993
 20
1250.524497910461
 30
0.0
  0
POINT
  8
DEFPOINTS
 62
     0
 10
1437.568401654924
 20
890.524497910432
 30
0.0
  0
POINT
  8
DEFPOINTS
 62
     0
 10
1360.555188364051
 20
890.524497910432
 30
0.0
  0
ENDBLK
  8
0
  0
BLOCK
  8
0
  2
*D285
 70
     1
 10
0.0
 20
0.0
  0
LINE
  8
1DIM
 10
1436.568401654953
 20
891.524497910403
 11
1436.568401654953
 21
800.616055264647
  0
LINE
  8
1DIM
 10
1466.568401654938
 20
891.524497910417
 11
1466.568401654938
 21
800.616055264647
  0
LINE
  8
1DIM
 10
1486.568401654938
 20
810.616055264647
 11
1614.901734988272
 21
810.616055264647
  0
LINE
  8
1DIM
 10
1436.568401654953
 20
810.616055264647
 11
1466.568401654938
 21
810.616055264647
  0
LINE
  8
1DIM
 10
1416.568401654953
 20
810.616055264647
 11
1396.568401654953
 21
810.616055264647
  0
INSERT
  8
1DIM
  2
_OPEN30
 10
1436.568401654953
 20
810.616055264647
 30
0.0
 41
20.0
 42
20.0
 43
20.0
  0
INSERT
  8
1DIM
  2
_OPEN30
 10
1466.568401654938
 20
810.616055264647
 30
0.0
 41
20.0
 42
20.0
 43
20.0
 50
180.0
  0
TEXT
  8
1DIM
  6
CONTINUOUS
 62
   201
 10
1504.235068321605
 20
817.616055264647
 40
35.0
  1
âË30
  0
POINT
  8
DEFPOINTS
 62
     0
 10
1436.568401654953
 20
891.524497910403
 30
0.0
  0
POINT
  8
DEFPOINTS
 62
     0
 10
1466.568401654938
 20
891.524497910417
 30
0.0
  0
POINT
  8
DEFPOINTS
 62
     0
 10
1466.568401654938
 20
810.616055264647
 30
0.0
  0
ENDBLK
  8
0
  0
BLOCK
  8
0
  2
*D286
 70
     1
 10
0.0
 20
0.0
  0
LINE
  8
1DIM
 10
1476.568401654997
 20
1245.524497910432
 11
1476.568401654997
 21
1374.80199866365
  0
LINE
  8
1DIM
 10
1426.568401654964
 20
1245.524497910432
 11
1426.568401654964
 21
1374.80199866365
  0
LINE
  8
1DIM
 10
1476.568401654997
 20
1364.80199866365
 11
1426.568401654964
 21
1364.80199866365
  0
LINE
  8
1DIM
 10
1496.568401654997
 20
1364.80199866365
 11
1516.568401654997
 21
1364.80199866365
  0
LINE
  8
1DIM
 10
1406.568401654964
 20
1364.80199866365
 11
1386.568401654964
 21
1364.80199866365
  0
INSERT
  8
1DIM
  2
_OPEN30
 10
1476.568401654997
 20
1364.80199866365
 30
0.0
 41
20.0
 42
20.0
 43
20.0
 50
180.0
  0
INSERT
  8
1DIM
  2
_OPEN30
 10
1426.568401654964
 20
1364.80199866365
 30
0.0
 41
20.0
 42
20.0
 43
20.0
  0
TEXT
  8
1DIM
  6
CONTINUOUS
 62
   201
 10
1395.068401654982
 20
1371.80199866365
 40
35.0
  1
âË50
  0
POINT
  8
DEFPOINTS
 62
     0
 10
1476.568401654997
 20
1245.524497910432
 30
0.0
  0
POINT
  8
DEFPOINTS
 62
     0
 10
1426.568401654964
 20
1245.524497910432
 30
0.0
  0
POINT
  8
DEFPOINTS
 62
     0
 10
1426.568401654964
 20
1364.80199866365
 30
0.0
  0
ENDBLK
  8
0
  0
BLOCK
  8
0
  2
*D287
 70
     1
 10
0.0
 20
0.0
  0
LINE
  8
1DIM1
 10
1123.771579031716
 20
1250.524497910446
 11
1123.771579031716
 21
1259.496708316205
  0
LINE
  8
1DIM1
 10
1163.771579031716
 20
1250.524497910446
 11
1163.771579031716
 21
1259.496708316205
  0
LINE
  8
1DIM1
 10
1125.771579031716
 20
1258.496708316205
 11
1161.771579031716
 21
1258.496708316205
  0
INSERT
  8
1DIM1
  2
_OPEN30
 10
1123.771579031716
 20
1258.496708316205
 30
0.0
 41
2.0
 42
2.0
 43
2.0
 50
180.0
  0
INSERT
  8
1DIM1
  2
_OPEN30
 10
1163.771579031716
 20
1258.496708316205
 30
0.0
 41
2.0
 42
2.0
 43
2.0
  0
TEXT
  8
1DIM1
  6
CONTINUOUS
 62
   201
 10
1149.194843278606
 20
1259.196708316205
 40
3.5
  1
âË40
  0
POINT
  8
DEFPOINTS
 62
     0
 10
1123.771579031716
 20
1250.524497910446
 30
0.0
  0
POINT
  8
DEFPOINTS
 62
     0
 10
1163.771579031716
 20
1250.524497910446
 30
0.0
  0
POINT
  8
DEFPOINTS
 62
     0
 10
1163.771579031716
 20
1258.496708316205
 30
0.0
  0
ENDBLK
  8
0
  0
BLOCK
  8
0
  2
*D288
 70
     1
 10
0.0
 20
0.0
  0
LINE
  8
1DIM1
 10
1118.771579031716
 20
1245.524497910446
 11
1118.771579031716
 21
1266.886379202973
  0
LINE
  8
1DIM1
 10
1168.771579031716
 20
1245.524497910446
 11
1168.771579031716
 21
1266.886379202973
  0
LINE
  8
1DIM1
 10
1120.771579031716
 20
1265.886379202973
 11
1166.771579031716
 21
1265.886379202973
  0
INSERT
  8
1DIM1
  2
_OPEN30
 10
1118.771579031716
 20
1265.886379202973
 30
0.0
 41
2.0
 42
2.0
 43
2.0
 50
180.0
  0
INSERT
  8
1DIM1
  2
_OPEN30
 10
1168.771579031716
 20
1265.886379202973
 30
0.0
 41
2.0
 42
2.0
 43
2.0
  0
TEXT
  8
1DIM1
  6
CONTINUOUS
 62
   201
 10
1148.618312982163
 20
1266.586379202973
 40
3.5
  1
âË50
  0
POINT
  8
DEFPOINTS
 62
     0
 10
1118.771579031716
 20
1245.524497910446
 30
0.0
  0
POINT
  8
DEFPOINTS
 62
     0
 10
1168.771579031716
 20
1245.524497910446
 30
0.0
  0
POINT
  8
DEFPOINTS
 62
     0
 10
1168.771579031716
 20
1265.886379202973
 30
0.0
  0
ENDBLK
  8
0
  0
BLOCK
  8
0
  2
*D289
 70
     1
 10
0.0
 20
0.0
  0
LINE
  8
1DIM1
 10
1164.360256662711
 20
1245.089404998955
 11
1154.364495708317
 21
1232.773848582372
  0
TEXT
  8
1DIM1
  6
CONTINUOUS
 62
   201
 10
1154.188596614593
 20
1233.667905228567
 40
3.5
  1
Ä³R5
 50
50.935938661202
  0
LINE
  8
1DIM1
 10
1168.771579031676
 20
1250.524497910301
 11
1165.620634482442
 21
1246.642288687945
  0
INSERT
  8
1DIM1
  2
_OPEN30
 10
1165.620634482442
 20
1246.642288687945
 30
0.0
 41
2.0
 42
2.0
 43
2.0
 50
50.935938661202
  0
POINT
  8
DEFPOINTS
 62
     0
 10
1165.620634482442
 20
1246.642288687945
 30
0.0
  0
POINT
  8
DEFPOINTS
 62
     0
 10
1168.771579031676
 20
1250.524497910301
 30
0.0
  0
ENDBLK
  8
0
  0
BLOCK
  8
0
  2
*D290
 70
     1
 10
0.0
 20
0.0
  0
LINE
  8
1DIM
 10
1437.568401654953
 20
890.524497910403
 11
1350.555188364051
 21
890.524497910403
  0
LINE
  8
1DIM
 10
1442.247893579301
 20
880.524497910388
 11
1350.555188364051
 21
880.524497910388
  0
LINE
  8
1DIM
 10
1360.555188364051
 20
860.524497910388
 11
1360.555188364051
 21
774.857831243722
  0
LINE
  8
1DIM
 10
1360.555188364051
 20
890.524497910403
 11
1360.555188364051
 21
880.524497910388
  0
LINE
  8
1DIM
 10
1360.555188364051
 20
910.524497910403
 11
1360.555188364051
 21
930.524497910403
  0
INSERT
  8
1DIM
  2
_OPEN30
 10
1360.555188364051
 20
890.524497910403
 30
0.0
 41
20.0
 42
20.0
 43
20.0
 50
270.0
  0
INSERT
  8
1DIM
  2
_OPEN30
 10
1360.555188364051
 20
880.524497910388
 30
0.0
 41
20.0
 42
20.0
 43
20.0
 50
90.0
  0
TEXT
  8
1DIM
  6
CONTINUOUS
 62
   201
 10
1353.555188364051
 20
771.857831243722
 40
35.0
  1
10
 50
90.0
  0
POINT
  8
DEFPOINTS
 62
     0
 10
1437.568401654953
 20
890.524497910403
 30
0.0
  0
POINT
  8
DEFPOINTS
 62
     0
 10
1442.247893579301
 20
880.524497910388
 30
0.0
  0
POINT
  8
DEFPOINTS
 62
     0
 10
1360.555188364051
 20
880.524497910388
 30
0.0
  0
ENDBLK
  8
0
  0
BLOCK
  8
0
  2
*D291
 70
     1
 10
0.0
 20
0.0
  0
LINE
  8
1DIM
 10
44509.60722571635
 20
-7653.180181456171
 11
44509.60722571635
 21
-8062.004709996336
  0
LINE
  8
1DIM
 10
45109.60722571635
 20
-7653.180181456171
 11
45109.60722571635
 21
-8062.004709996336
  0
LINE
  8
1DIM
 10
44529.60722571635
 20
-8052.004709996336
 11
45089.60722571635
 21
-8052.004709996336
  0
INSERT
  8
1DIM
  2
_OPEN30
 10
44509.60722571635
 20
-8052.004709996336
 30
0.0
 41
20.0
 42
20.0
 43
20.0
 50
180.0
  0
INSERT
  8
1DIM
  2
_OPEN30
 10
45109.60722571635
 20
-8052.004709996336
 30
0.0
 41
20.0
 42
20.0
 43
20.0
  0
TEXT
  8
1DIM
  6
CONTINUOUS
 62
   201
 10
44736.44055904968
 20
-8045.004709996336
 40
35.0
  1
âË600
  0
POINT
  8
DEFPOINTS
 62
     0
 10
44509.60722571635
 20
-7653.180181456171
 30
0.0
  0
POINT
  8
DEFPOINTS
 62
     0
 10
45109.60722571635
 20
-7653.180181456171
 30
0.0
  0
POINT
  8
DEFPOINTS
 62
     0
 10
45109.60722571635
 20
-8052.004709996336
 30
0.0
  0
ENDBLK
  8
0
  0
BLOCK
  8
0
  2
*D292
 70
     1
 10
0.0
 20
0.0
  0
LINE
  8
1DIM
 10
45109.60722571623
 20
-8253.180181456171
 11
45199.3861064472
 21
-8253.180181456171
  0
LINE
  8
1DIM
 10
45091.92773379209
 20
-8663.180181456215
 11
45199.3861064472
 21
-8663.180181456215
  0
LINE
  8
1DIM
 10
45189.3861064472
 20
-8273.180181456171
 11
45189.3861064472
 21
-8643.180181456215
  0
INSERT
  8
1DIM
  2
_OPEN30
 10
45189.3861064472
 20
-8253.180181456171
 30
0.0
 41
20.0
 42
20.0
 43
20.0
 50
90.0
  0
INSERT
  8
1DIM
  2
_OPEN30
 10
45189.3861064472
 20
-8663.180181456215
 30
0.0
 41
20.0
 42
20.0
 43
20.0
 50
270.0
  0
TEXT
  8
1DIM
  6
CONTINUOUS
 62
   201
 10
45182.3861064472
 20
-8508.180181456191
 40
35.0
  1
410
 50
90.0
  0
POINT
  8
DEFPOINTS
 62
     0
 10
45109.60722571623
 20
-8253.180181456171
 30
0.0
  0
POINT
  8
DEFPOINTS
 62
     0
 10
45091.92773379209
 20
-8663.180181456215
 30
0.0
  0
POINT
  8
DEFPOINTS
 62
     0
 10
45189.3861064472
 20
-8663.180181456215
 30
0.0
  0
ENDBLK
  8
0
  0
BLOCK
  8
0
  2
*D293
 70
     1
 10
0.0
 20
0.0
  0
LINE
  8
1DIM
 10
45363.40404833962
 20
-8293.180181456171
 11
45289.39083504868
 21
-8293.180181456171
  0
LINE
  8
1DIM
 10
45363.40404833962
 20
-8253.180181456171
 11
45289.39083504868
 21
-8253.180181456171
  0
LINE
  8
1DIM
 10
45299.39083504868
 20
-8233.180181456171
 11
45299.39083504868
 21
-8077.5135147895
  0
LINE
  8
1DIM
 10
45299.39083504868
 20
-8293.180181456171
 11
45299.39083504868
 21
-8253.180181456171
  0
LINE
  8
1DIM
 10
45299.39083504868
 20
-8313.180181456171
 11
45299.39083504868
 21
-8333.180181456171
  0
INSERT
  8
1DIM
  2
_OPEN30
 10
45299.39083504868
 20
-8293.180181456171
 30
0.0
 41
20.0
 42
20.0
 43
20.0
 50
90.0
  0
INSERT
  8
1DIM
  2
_OPEN30
 10
45299.39083504868
 20
-8253.180181456171
 30
0.0
 41
20.0
 42
20.0
 43
20.0
 50
270.0
  0
TEXT
  8
1DIM
  6
CONTINUOUS
 62
   201
 10
45292.39083504868
 20
-8209.513514789505
 40
35.0
  1
t=40
 50
90.0
  0
POINT
  8
DEFPOINTS
 62
     0
 10
45363.40404833962
 20
-8293.180181456171
 30
0.0
  0
POINT
  8
DEFPOINTS
 62
     0
 10
45363.40404833962
 20
-8253.180181456171
 30
0.0
  0
POINT
  8
DEFPOINTS
 62
     0
 10
45299.39083504868
 20
-8253.180181456171
 30
0.0
  0
ENDBLK
  8
0
  0
BLOCK
  8
0
  2
*D294
 70
     1
 10
0.0
 20
0.0
  0
LINE
  8
1DIM
 10
45363.40404833962
 20
-8293.180181456171
 11
45289.39083504868
 21
-8293.180181456171
  0
LINE
  8
1DIM
 10
45376.40404833955
 20
-8653.1801814562
 11
45289.39083504868
 21
-8653.1801814562
  0
LINE
  8
1DIM
 10
45299.39083504868
 20
-8313.180181456171
 11
45299.39083504868
 21
-8633.1801814562
  0
INSERT
  8
1DIM
  2
_OPEN30
 10
45299.39083504868
 20
-8293.180181456171
 30
0.0
 41
20.0
 42
20.0
 43
20.0
 50
90.0
  0
INSERT
  8
1DIM
  2
_OPEN30
 10
45299.39083504868
 20
-8653.1801814562
 30
0.0
 41
20.0
 42
20.0
 43
20.0
 50
270.0
  0
TEXT
  8
1DIM
  6
CONTINUOUS
 62
   201
 10
45292.39083504868
 20
-8523.180181456184
 40
35.0
  1
360
 50
90.0
  0
POINT
  8
DEFPOINTS
 62
     0
 10
45363.40404833962
 20
-8293.180181456171
 30
0.0
  0
POINT
  8
DEFPOINTS
 62
     0
 10
45376.40404833955
 20
-8653.1801814562
 30
0.0
  0
POINT
  8
DEFPOINTS
 62
     0
 10
45299.39083504868
 20
-8653.1801814562
 30
0.0
  0
ENDBLK
  8
0
  0
BLOCK
  8
0
  2
*D295
 70
     1
 10
0.0
 20
0.0
  0
LINE
  8
1DIM
 10
45375.40404833958
 20
-8652.18018145623
 11
45375.40404833958
 21
-8743.088624101985
  0
LINE
  8
1DIM
 10
45405.40404833957
 20
-8652.180181456215
 11
45405.40404833957
 21
-8743.088624101985
  0
LINE
  8
1DIM
 10
45425.40404833957
 20
-8733.088624101985
 11
45553.73738167289
 21
-8733.088624101985
  0
LINE
  8
1DIM
 10
45375.40404833958
 20
-8733.088624101985
 11
45405.40404833957
 21
-8733.088624101985
  0
LINE
  8
1DIM
 10
45355.40404833958
 20
-8733.088624101985
 11
45335.40404833958
 21
-8733.088624101985
  0
INSERT
  8
1DIM
  2
_OPEN30
 10
45375.40404833958
 20
-8733.088624101985
 30
0.0
 41
20.0
 42
20.0
 43
20.0
  0
INSERT
  8
1DIM
  2
_OPEN30
 10
45405.40404833957
 20
-8733.088624101985
 30
0.0
 41
20.0
 42
20.0
 43
20.0
 50
180.0
  0
TEXT
  8
1DIM
  6
CONTINUOUS
 62
   201
 10
45443.07071500623
 20
-8726.088624101985
 40
35.0
  1
âË30
  0
POINT
  8
DEFPOINTS
 62
     0
 10
45375.40404833958
 20
-8652.18018145623
 30
0.0
  0
POINT
  8
DEFPOINTS
 62
     0
 10
45405.40404833957
 20
-8652.180181456215
 30
0.0
  0
POINT
  8
DEFPOINTS
 62
     0
 10
45405.40404833957
 20
-8733.088624101985
 30
0.0
  0
ENDBLK
  8
0
  0
BLOCK
  8
0
  2
*D296
 70
     1
 10
0.0
 20
0.0
  0
LINE
  8
1DIM
 10
45415.40404833962
 20
-8298.1801814562
 11
45415.40404833962
 21
-8168.902680702982
  0
LINE
  8
1DIM
 10
45365.40404833959
 20
-8298.1801814562
 11
45365.40404833959
 21
-8168.902680702982
  0
LINE
  8
1DIM
 10
45415.40404833962
 20
-8178.902680702982
 11
45365.40404833959
 21
-8178.902680702982
  0
LINE
  8
1DIM
 10
45435.40404833962
 20
-8178.902680702982
 11
45455.40404833962
 21
-8178.902680702982
  0
LINE
  8
1DIM
 10
45345.40404833959
 20
-8178.902680702982
 11
45325.40404833959
 21
-8178.902680702982
  0
INSERT
  8
1DIM
  2
_OPEN30
 10
45415.40404833962
 20
-8178.902680702982
 30
0.0
 41
20.0
 42
20.0
 43
20.0
 50
180.0
  0
INSERT
  8
1DIM
  2
_OPEN30
 10
45365.40404833959
 20
-8178.902680702982
 30
0.0
 41
20.0
 42
20.0
 43
20.0
  0
TEXT
  8
1DIM
  6
CONTINUOUS
 62
   201
 10
45333.90404833961
 20
-8171.902680702982
 40
35.0
  1
âË50
  0
POINT
  8
DEFPOINTS
 62
     0
 10
45415.40404833962
 20
-8298.1801814562
 30
0.0
  0
POINT
  8
DEFPOINTS
 62
     0
 10
45365.40404833959
 20
-8298.1801814562
 30
0.0
  0
POINT
  8
DEFPOINTS
 62
     0
 10
45365.40404833959
 20
-8178.902680702982
 30
0.0
  0
ENDBLK
  8
0
  0
BLOCK
  8
0
  2
*D297
 70
     1
 10
0.0
 20
0.0
  0
LINE
  8
1DIM1
 10
45062.60722571635
 20
-8293.180181456186
 11
45062.60722571635
 21
-8284.207971050428
  0
LINE
  8
1DIM1
 10
45102.60722571635
 20
-8293.180181456186
 11
45102.60722571635
 21
-8284.207971050428
  0
LINE
  8
1DIM1
 10
45064.60722571635
 20
-8285.207971050428
 11
45100.60722571635
 21
-8285.207971050428
  0
INSERT
  8
1DIM1
  2
_OPEN30
 10
45062.60722571635
 20
-8285.207971050428
 30
0.0
 41
2.0
 42
2.0
 43
2.0
 50
180.0
  0
INSERT
  8
1DIM1
  2
_OPEN30
 10
45102.60722571635
 20
-8285.207971050428
 30
0.0
 41
2.0
 42
2.0
 43
2.0
  0
TEXT
  8
1DIM1
  6
CONTINUOUS
 62
   201
 10
45088.03048996324
 20
-8284.507971050427
 40
3.5
  1
âË40
  0
POINT
  8
DEFPOINTS
 62
     0
 10
45062.60722571635
 20
-8293.180181456186
 30
0.0
  0
POINT
  8
DEFPOINTS
 62
     0
 10
45102.60722571635
 20
-8293.180181456186
 30
0.0
  0
POINT
  8
DEFPOINTS
 62
     0
 10
45102.60722571635
 20
-8285.207971050428
 30
0.0
  0
ENDBLK
  8
0
  0
BLOCK
  8
0
  2
*D298
 70
     1
 10
0.0
 20
0.0
  0
LINE
  8
1DIM1
 10
45057.60722571635
 20
-8298.180181456186
 11
45057.60722571635
 21
-8276.818300163659
  0
LINE
  8
1DIM1
 10
45107.60722571635
 20
-8298.180181456186
 11
45107.60722571635
 21
-8276.818300163659
  0
LINE
  8
1DIM1
 10
45059.60722571635
 20
-8277.818300163659
 11
45105.60722571635
 21
-8277.818300163659
  0
INSERT
  8
1DIM1
  2
_OPEN30
 10
45057.60722571635
 20
-8277.818300163659
 30
0.0
 41
2.0
 42
2.0
 43
2.0
 50
180.0
  0
INSERT
  8
1DIM1
  2
_OPEN30
 10
45107.60722571635
 20
-8277.818300163659
 30
0.0
 41
2.0
 42
2.0
 43
2.0
  0
TEXT
  8
1DIM1
  6
CONTINUOUS
 62
   201
 10
45087.4539596668
 20
-8277.118300163658
 40
3.5
  1
âË50
  0
POINT
  8
DEFPOINTS
 62
     0
 10
45057.60722571635
 20
-8298.180181456186
 30
0.0
  0
POINT
  8
DEFPOINTS
 62
     0
 10
45107.60722571635
 20
-8298.180181456186
 30
0.0
  0
POINT
  8
DEFPOINTS
 62
     0
 10
45107.60722571635
 20
-8277.818300163659
 30
0.0
  0
ENDBLK
  8
0
  0
BLOCK
  8
0
  2
*D299
 70
     1
 10
0.0
 20
0.0
  0
LINE
  8
1DIM1
 10
45103.19590334735
 20
-8298.615274367678
 11
45093.20014239296
 21
-8310.930830784277
  0
TEXT
  8
1DIM1
  6
CONTINUOUS
 62
   201
 10
45093.02424329924
 20
-8310.03677413809
 40
3.5
  1
Ä³R5
 50
50.935938661267
  0
LINE
  8
1DIM1
 10
45107.6072257163
 20
-8293.180181456331
 11
45104.45628116708
 21
-8297.062390678688
  0
INSERT
  8
1DIM1
  2
_OPEN30
 10
45104.45628116708
 20
-8297.062390678688
 30
0.0
 41
2.0
 42
2.0
 43
2.0
 50
50.935938661267
  0
POINT
  8
DEFPOINTS
 62
     0
 10
45104.45628116708
 20
-8297.062390678688
 30
0.0
  0
POINT
  8
DEFPOINTS
 62
     0
 10
45107.6072257163
 20
-8293.180181456331
 30
0.0
  0
ENDBLK
  8
0
  0
BLOCK
  8
0
  2
*D300
 70
     1
 10
0.0
 20
0.0
  0
LINE
  8
1DIM
 10
45376.40404833958
 20
-8653.18018145623
 11
45289.39083504868
 21
-8653.18018145623
  0
LINE
  8
1DIM
 10
45381.08354026393
 20
-8663.180181456244
 11
45289.39083504868
 21
-8663.180181456244
  0
LINE
  8
1DIM
 10
45299.39083504868
 20
-8683.180181456244
 11
45299.39083504868
 21
-8768.846848122916
  0
LINE
  8
1DIM
 10
45299.39083504868
 20
-8653.18018145623
 11
45299.39083504868
 21
-8663.180181456244
  0
LINE
  8
1DIM
 10
45299.39083504868
 20
-8633.18018145623
 11
45299.39083504868
 21
-8613.18018145623
  0
INSERT
  8
1DIM
  2
_OPEN30
 10
45299.39083504868
 20
-8653.18018145623
 30
0.0
 41
20.0
 42
20.0
 43
20.0
 50
270.0
  0
INSERT
  8
1DIM
  2
_OPEN30
 10
45299.39083504868
 20
-8663.180181456244
 30
0.0
 41
20.0
 42
20.0
 43
20.0
 50
90.0
  0
TEXT
  8
1DIM
  6
CONTINUOUS
 62
   201
 10
45292.39083504868
 20
-8771.846848122914
 40
35.0
  1
10
 50
90.0
  0
POINT
  8
DEFPOINTS
 62
     0
 10
45376.40404833958
 20
-8653.18018145623
 30
0.0
  0
POINT
  8
DEFPOINTS
 62
     0
 10
45381.08354026393
 20
-8663.180181456244
 30
0.0
  0
POINT
  8
DEFPOINTS
 62
     0
 10
45299.39083504868
 20
-8663.180181456244
 30
0.0
  0
ENDBLK
  8
0
  0
BLOCK
  8
0
  2
*D301
 70
     1
 10
0.0
 20
0.0
  0
LINE
  8
1DIM
 10
38723.26190446366
 20
-6714.82651730407
 11
38723.26190446366
 21
-6774.82651730407
  0
LINE
  8
1DIM
 10
39323.26190446367
 20
-6714.82651730407
 11
39323.26190446367
 21
-6774.82651730407
  0
LINE
  8
1DIM
 10
38743.26190446366
 20
-6764.82651730407
 11
39303.26190446367
 21
-6764.82651730407
  0
INSERT
  8
1DIM
  2
_OPEN30
 10
38723.26190446366
 20
-6764.82651730407
 30
0.0
 41
20.0
 42
20.0
 43
20.0
 50
180.0
  0
INSERT
  8
1DIM
  2
_OPEN30
 10
39323.26190446367
 20
-6764.82651730407
 30
0.0
 41
20.0
 42
20.0
 43
20.0
  0
TEXT
  8
1DIM
  6
CONTINUOUS
 62
   201
 10
38972.42857113034
 20
-6757.82651730407
 40
35.0
  1
600
  0
POINT
  8
DEFPOINTS
 62
     0
 10
38723.26190446366
 20
-6664.82651730407
 30
0.0
  0
POINT
  8
DEFPOINTS
 62
     0
 10
39323.26190446367
 20
-6664.82651730407
 30
0.0
  0
POINT
  8
DEFPOINTS
 62
     0
 10
39323.26190446367
 20
-6764.82651730407
 30
0.0
  0
ENDBLK
  8
0
  0
BLOCK
  8
0
  2
*D302
 70
     1
 10
0.0
 20
0.0
  0
LINE
  8
1DIM
 10
39823.26190446367
 20
-6714.82651730407
 11
39823.26190446367
 21
-6774.82651730407
  0
LINE
  8
1DIM
 10
40423.26190446367
 20
-6714.82651730407
 11
40423.26190446367
 21
-6774.82651730407
  0
LINE
  8
1DIM
 10
39843.26190446367
 20
-6764.82651730407
 11
40403.26190446367
 21
-6764.82651730407
  0
INSERT
  8
1DIM
  2
_OPEN30
 10
39823.26190446367
 20
-6764.82651730407
 30
0.0
 41
20.0
 42
20.0
 43
20.0
 50
180.0
  0
INSERT
  8
1DIM
  2
_OPEN30
 10
40423.26190446367
 20
-6764.82651730407
 30
0.0
 41
20.0
 42
20.0
 43
20.0
  0
TEXT
  8
1DIM
  6
CONTINUOUS
 62
   201
 10
40072.42857113034
 20
-6757.82651730407
 40
35.0
  1
600
  0
POINT
  8
DEFPOINTS
 62
     0
 10
39823.26190446367
 20
-6664.82651730407
 30
0.0
  0
POINT
  8
DEFPOINTS
 62
     0
 10
40423.26190446367
 20
-6664.82651730407
 30
0.0
  0
POINT
  8
DEFPOINTS
 62
     0
 10
40423.26190446367
 20
-6764.82651730407
 30
0.0
  0
ENDBLK
  8
0
  0
BLOCK
  8
0
  2
*D303
 70
     1
 10
0.0
 20
0.0
  0
LINE
  8
1DIM
 10
40473.26190446367
 20
-6254.826517304041
 11
40533.26190446367
 21
-6254.826517304041
  0
LINE
  8
1DIM
 10
40473.26190446367
 20
-6664.82651730407
 11
40533.26190446367
 21
-6664.82651730407
  0
LINE
  8
1DIM
 10
40523.26190446367
 20
-6274.826517304041
 11
40523.26190446367
 21
-6644.82651730407
  0
INSERT
  8
1DIM
  2
_OPEN30
 10
40523.26190446367
 20
-6254.826517304041
 30
0.0
 41
20.0
 42
20.0
 43
20.0
 50
90.0
  0
INSERT
  8
1DIM
  2
_OPEN30
 10
40523.26190446367
 20
-6664.82651730407
 30
0.0
 41
20.0
 42
20.0
 43
20.0
 50
270.0
  0
TEXT
  8
1DIM
  6
CONTINUOUS
 62
   201
 10
40516.26190446367
 20
-6509.826517304056
 40
35.0
  1
410
 50
90.0
  0
POINT
  8
DEFPOINTS
 62
     0
 10
40423.26190446367
 20
-6254.826517304041
 30
0.0
  0
POINT
  8
DEFPOINTS
 62
     0
 10
40423.26190446367
 20
-6664.82651730407
 30
0.0
  0
POINT
  8
DEFPOINTS
 62
     0
 10
40523.26190446367
 20
-6664.82651730407
 30
0.0
  0
ENDBLK
  8
0
  0
BLOCK
  8
0
  2
*D305
 70
     1
 10
0.0
 20
0.0
  0
LINE
  8
1DIM
 10
570.771579031716
 20
1584.524497910461
 11
570.771579031716
 21
1435.397968433972
  0
LINE
  8
1DIM
 10
1170.771579031716
 20
1584.524497910461
 11
1170.771579031716
 21
1435.397968433972
  0
LINE
  8
1DIM
 10
590.771579031716
 20
1445.397968433972
 11
1150.771579031716
 21
1445.397968433972
  0
INSERT
  8
1DIM
  2
_OPEN30
 10
570.771579031716
 20
1445.397968433972
 30
0.0
 41
20.0
 42
20.0
 43
20.0
 50
180.0
  0
INSERT
  8
1DIM
  2
_OPEN30
 10
1170.771579031716
 20
1445.397968433972
 30
0.0
 41
20.0
 42
20.0
 43
20.0
  0
TEXT
  8
1DIM
  6
CONTINUOUS
 62
   201
 10
819.938245698383
 20
1452.397968433972
 40
35.0
  1
600
  0
POINT
  8
DEFPOINTS
 62
     0
 10
570.771579031716
 20
1584.524497910461
 30
0.0
  0
POINT
  8
DEFPOINTS
 62
     0
 10
1170.771579031716
 20
1584.524497910461
 30
0.0
  0
POINT
  8
DEFPOINTS
 62
     0
 10
1170.771579031716
 20
1445.397968433972
 30
0.0
  0
ENDBLK
  8
0
  0
BLOCK
  8
0
  2
*D306
 70
     1
 10
0.0
 20
0.0
  0
LINE
  8
1DIM
 10
1170.771579031716
 20
1260.524497910461
 11
1260.550459762686
 21
1260.524497910461
  0
LINE
  8
1DIM
 10
1153.092087107456
 20
850.524497910432
 11
1260.550459762686
 21
850.524497910432
  0
LINE
  8
1DIM
 10
1250.550459762686
 20
1240.524497910461
 11
1250.550459762686
 21
870.524497910432
  0
INSERT
  8
1DIM
  2
_OPEN30
 10
1250.550459762686
 20
1260.524497910461
 30
0.0
 41
20.0
 42
20.0
 43
20.0
 50
90.0
  0
INSERT
  8
1DIM
  2
_OPEN30
 10
1250.550459762686
 20
850.524497910432
 30
0.0
 41
20.0
 42
20.0
 43
20.0
 50
270.0
  0
TEXT
  8
1DIM
  6
CONTINUOUS
 62
   201
 10
1243.550459762686
 20
1005.524497910446
 40
35.0
  1
410
 50
90.0
  0
POINT
  8
DEFPOINTS
 62
     0
 10
1170.771579031716
 20
1260.524497910461
 30
0.0
  0
POINT
  8
DEFPOINTS
 62
     0
 10
1153.092087107456
 20
850.524497910432
 30
0.0
  0
POINT
  8
DEFPOINTS
 62
     0
 10
1250.550459762686
 20
850.524497910432
 30
0.0
  0
ENDBLK
  8
0
  0
BLOCK
  8
0
  2
*D307
 70
     1
 10
0.0
 20
0.0
  0
LINE
  8
1DIM
 10
1143.771579031716
 20
2160.524497910461
 11
1260.550459762686
 21
2160.524497910461
  0
LINE
  8
1DIM
 10
1146.771579031716
 20
1560.524497910461
 11
1260.550459762686
 21
1560.524497910461
  0
LINE
  8
1DIM
 10
1250.550459762686
 20
2140.524497910461
 11
1250.550459762686
 21
1580.524497910461
  0
INSERT
  8
1DIM
  2
_OPEN30
 10
1250.550459762686
 20
2160.524497910461
 30
0.0
 41
20.0
 42
20.0
 43
20.0
 50
90.0
  0
INSERT
  8
1DIM
  2
_OPEN30
 10
1250.550459762686
 20
1560.524497910461
 30
0.0
 41
20.0
 42
20.0
 43
20.0
 50
270.0
  0
TEXT
  8
1DIM
  6
CONTINUOUS
 62
   201
 10
1243.550459762686
 20
1809.691164577127
 40
35.0
  1
600
 50
90.0
  0
POINT
  8
DEFPOINTS
 62
     0
 10
1143.771579031716
 20
2160.524497910461
 30
0.0
  0
POINT
  8
DEFPOINTS
 62
     0
 10
1146.771579031716
 20
1560.524497910461
 30
0.0
  0
POINT
  8
DEFPOINTS
 62
     0
 10
1250.550459762686
 20
1560.524497910461
 30
0.0
  0
ENDBLK
  8
0
  0
BLOCK
  8
0
  2
*D308
 70
     1
 10
0.0
 20
0.0
  0
LINE
  8
1DIM
 10
1170.771579031716
 20
623.719229589624
 11
1170.771579031716
 21
553.49959546329
  0
LINE
  8
1DIM
 10
1168.771579031716
 20
623.719229589624
 11
1168.771579031716
 21
553.49959546329
  0
LINE
  8
1DIM
 10
1170.771579031716
 20
563.49959546329
 11
1262.792092230799
 21
563.49959546329
  0
LINE
  8
1DIM
 10
1170.771579031716
 20
563.49959546329
 11
1168.771579031716
 21
563.49959546329
  0
LINE
  8
1DIM
 10
1190.771579031716
 20
563.49959546329
 11
1210.771579031716
 21
563.49959546329
  0
LINE
  8
1DIM
 10
1148.771579031716
 20
563.49959546329
 11
1128.771579031716
 21
563.49959546329
  0
INSERT
  8
1DIM
  2
_OPEN30
 10
1170.771579031716
 20
563.49959546329
 30
0.0
 41
20.0
 42
20.0
 43
20.0
 50
180.0
  0
INSERT
  8
1DIM
  2
_OPEN30
 10
1168.771579031716
 20
563.49959546329
 30
0.0
 41
20.0
 42
20.0
 43
20.0
  0
TEXT
  8
1DIM
  6
CONTINUOUS
 62
   201
 10
1227.458758897466
 20
570.49959546329
 40
35.0
  1
2
  0
POINT
  8
DEFPOINTS
 62
     0
 10
1170.771579031716
 20
623.719229589624
 30
0.0
  0
POINT
  8
DEFPOINTS
 62
     0
 10
1168.771579031716
 20
623.719229589624
 30
0.0
  0
POINT
  8
DEFPOINTS
 62
     0
 10
1168.771579031716
 20
563.49959546329
 30
0.0
  0
ENDBLK
  8
0
  0
BLOCK
  8
0
  2
*D309
 70
     1
 10
0.0
 20
0.0
  0
LINE
  8
1DIM
 10
1143.771579031716
 20
648.719229589595
 11
1051.027017427226
 21
648.719229589595
  0
LINE
  8
1DIM
 10
1143.771579031716
 20
650.719229589595
 11
1051.027017427226
 21
650.719229589595
  0
LINE
  8
1DIM
 10
1061.027017427226
 20
670.719229589595
 11
1061.027017427226
 21
728.052562922928
  0
LINE
  8
1DIM
 10
1061.027017427226
 20
648.719229589595
 11
1061.027017427226
 21
650.719229589595
  0
LINE
  8
1DIM
 10
1061.027017427226
 20
628.719229589595
 11
1061.027017427226
 21
608.719229589595
  0
INSERT
  8
1DIM
  2
_OPEN30
 10
1061.027017427226
 20
648.719229589595
 30
0.0
 41
20.0
 42
20.0
 43
20.0
 50
90.0
  0
INSERT
  8
1DIM
  2
_OPEN30
 10
1061.027017427226
 20
650.719229589595
 30
0.0
 41
20.0
 42
20.0
 43
20.0
 50
270.0
  0
TEXT
  8
1DIM
  6
CONTINUOUS
 62
   201
 10
1054.027017427226
 20
692.719229589595
 40
35.0
  1
2
 50
90.0
  0
POINT
  8
DEFPOINTS
 62
     0
 10
1143.771579031716
 20
648.719229589595
 30
0.0
  0
POINT
  8
DEFPOINTS
 62
     0
 10
1143.771579031716
 20
650.719229589595
 30
0.0
  0
POINT
  8
DEFPOINTS
 62
     0
 10
1061.027017427226
 20
650.719229589595
 30
0.0
  0
ENDBLK
  8
0
  0
BLOCK
  8
0
  2
*D310
 70
     1
 10
0.0
 20
0.0
  0
LINE
  8
1DIM
 10
1424.568401654993
 20
1220.524497910461
 11
1350.555188364051
 21
1220.524497910461
  0
LINE
  8
1DIM
 10
1424.568401654993
 20
1260.524497910461
 11
1350.555188364051
 21
1260.524497910461
  0
LINE
  8
1DIM
 10
1360.555188364051
 20
1280.524497910461
 11
1360.555188364051
 21
1436.191164577127
  0
LINE
  8
1DIM
 10
1360.555188364051
 20
1220.524497910461
 11
1360.555188364051
 21
1260.524497910461
  0
LINE
  8
1DIM
 10
1360.555188364051
 20
1200.524497910461
 11
1360.555188364051
 21
1180.524497910461
  0
INSERT
  8
1DIM
  2
_OPEN30
 10
1360.555188364051
 20
1220.524497910461
 30
0.0
 41
20.0
 42
20.0
 43
20.0
 50
90.0
  0
INSERT
  8
1DIM
  2
_OPEN30
 10
1360.555188364051
 20
1260.524497910461
 30
0.0
 41
20.0
 42
20.0
 43
20.0
 50
270.0
  0
TEXT
  8
1DIM
  6
CONTINUOUS
 62
   201
 10
1353.555188364051
 20
1304.191164577128
 40
35.0
  1
t=40
 50
90.0
  0
POINT
  8
DEFPOINTS
 62
     0
 10
1424.568401654993
 20
1220.524497910461
 30
0.0
  0
POINT
  8
DEFPOINTS
 62
     0
 10
1424.568401654993
 20
1260.524497910461
 30
0.0
  0
POINT
  8
DEFPOINTS
 62
     0
 10
1360.555188364051
 20
1260.524497910461
 30
0.0
  0
ENDBLK
  8
0
  0
BLOCK
  8
0
  2
*D311
 70
     1
 10
0.0
 20
0.0
  0
LINE
  8
1DIM
 10
1436.568401654949
 20
861.524497910432
 11
1436.568401654949
 21
770.616055264662
  0
LINE
  8
1DIM
 10
1466.568401654946
 20
861.524497910417
 11
1466.568401654946
 21
770.616055264662
  0
LINE
  8
1DIM
 10
1486.568401654946
 20
780.616055264662
 11
1614.901734988279
 21
780.616055264662
  0
LINE
  8
1DIM
 10
1436.568401654949
 20
780.616055264662
 11
1466.568401654946
 21
780.616055264662
  0
LINE
  8
1DIM
 10
1416.568401654949
 20
780.616055264662
 11
1396.568401654949
 21
780.616055264662
  0
INSERT
  8
1DIM
  2
_OPEN30
 10
1436.568401654949
 20
780.616055264662
 30
0.0
 41
20.0
 42
20.0
 43
20.0
  0
INSERT
  8
1DIM
  2
_OPEN30
 10
1466.568401654946
 20
780.616055264662
 30
0.0
 41
20.0
 42
20.0
 43
20.0
 50
180.0
  0
TEXT
  8
1DIM
  6
CONTINUOUS
 62
   201
 10
1504.235068321613
 20
787.616055264662
 40
35.0
  1
âË30
  0
POINT
  8
DEFPOINTS
 62
     0
 10
1436.568401654949
 20
861.524497910432
 30
0.0
  0
POINT
  8
DEFPOINTS
 62
     0
 10
1466.568401654946
 20
861.524497910417
 30
0.0
  0
POINT
  8
DEFPOINTS
 62
     0
 10
1466.568401654946
 20
780.616055264662
 30
0.0
  0
ENDBLK
  8
0
  0
BLOCK
  8
0
  2
*D312
 70
     1
 10
0.0
 20
0.0
  0
LINE
  8
1DIM
 10
1424.568401654993
 20
1220.524497910461
 11
1350.555188364051
 21
1220.524497910461
  0
LINE
  8
1DIM
 10
1437.568401654964
 20
860.524497910417
 11
1350.555188364051
 21
860.524497910417
  0
LINE
  8
1DIM
 10
1360.555188364051
 20
1200.524497910461
 11
1360.555188364051
 21
880.524497910417
  0
INSERT
  8
1DIM
  2
_OPEN30
 10
1360.555188364051
 20
1220.524497910461
 30
0.0
 41
20.0
 42
20.0
 43
20.0
 50
90.0
  0
INSERT
  8
1DIM
  2
_OPEN30
 10
1360.555188364051
 20
860.524497910417
 30
0.0
 41
20.0
 42
20.0
 43
20.0
 50
270.0
  0
TEXT
  8
1DIM
  6
CONTINUOUS
 62
   201
 10
1353.555188364051
 20
990.524497910439
 40
35.0
  1
360
 50
90.0
  0
POINT
  8
DEFPOINTS
 62
     0
 10
1424.568401654993
 20
1220.524497910461
 30
0.0
  0
POINT
  8
DEFPOINTS
 62
     0
 10
1437.568401654964
 20
860.524497910417
 30
0.0
  0
POINT
  8
DEFPOINTS
 62
     0
 10
1360.555188364051
 20
860.524497910417
 30
0.0
  0
ENDBLK
  8
0
  0
BLOCK
  8
0
  2
*D313
 70
     1
 10
0.0
 20
0.0
  0
LINE
  8
1DIM1
 10
1977.568401654993
 20
1220.524497910461
 11
1977.568401654993
 21
1229.496708316219
  0
LINE
  8
1DIM1
 10
2017.568401654993
 20
1220.524497910461
 11
2017.568401654993
 21
1229.496708316219
  0
LINE
  8
1DIM1
 10
1979.568401654993
 20
1228.496708316219
 11
2015.568401654993
 21
1228.496708316219
  0
INSERT
  8
1DIM1
  2
_OPEN30
 10
1977.568401654993
 20
1228.496708316219
 30
0.0
 41
2.0
 42
2.0
 43
2.0
 50
180.0
  0
INSERT
  8
1DIM1
  2
_OPEN30
 10
2017.568401654993
 20
1228.496708316219
 30
0.0
 41
2.0
 42
2.0
 43
2.0
  0
TEXT
  8
1DIM1
  6
CONTINUOUS
 62
   201
 10
2004.343887663499
 20
1229.196708316219
 40
3.5
  1
âË40
  0
POINT
  8
DEFPOINTS
 62
     0
 10
1977.568401654993
 20
1220.524497910461
 30
0.0
  0
POINT
  8
DEFPOINTS
 62
     0
 10
2017.568401654993
 20
1220.524497910461
 30
0.0
  0
POINT
  8
DEFPOINTS
 62
     0
 10
2017.568401654993
 20
1228.496708316219
 30
0.0
  0
ENDBLK
  8
0
  0
BLOCK
  8
0
  2
*D314
 70
     1
 10
0.0
 20
0.0
  0
LINE
  8
1DIM1
 10
1972.568401654993
 20
1215.524497910461
 11
1972.568401654993
 21
1236.886379202988
  0
LINE
  8
1DIM1
 10
2022.568401654993
 20
1215.524497910461
 11
2022.568401654993
 21
1236.886379202988
  0
LINE
  8
1DIM1
 10
1974.568401654993
 20
1235.886379202988
 11
2020.568401654993
 21
1235.886379202988
  0
INSERT
  8
1DIM1
  2
_OPEN30
 10
1972.568401654993
 20
1235.886379202988
 30
0.0
 41
2.0
 42
2.0
 43
2.0
 50
180.0
  0
INSERT
  8
1DIM1
  2
_OPEN30
 10
2022.568401654993
 20
1235.886379202988
 30
0.0
 41
2.0
 42
2.0
 43
2.0
  0
TEXT
  8
1DIM1
  6
CONTINUOUS
 62
   201
 10
2003.709212672687
 20
1236.586379202988
 40
3.5
  1
âË50
  0
POINT
  8
DEFPOINTS
 62
     0
 10
1972.568401654993
 20
1215.524497910461
 30
0.0
  0
POINT
  8
DEFPOINTS
 62
     0
 10
2022.568401654993
 20
1215.524497910461
 30
0.0
  0
POINT
  8
DEFPOINTS
 62
     0
 10
2022.568401654993
 20
1235.886379202988
 30
0.0
  0
ENDBLK
  8
0
  0
BLOCK
  8
0
  2
*D315
 70
     1
 10
0.0
 20
0.0
  0
LINE
  8
1DIM
 10
1476.568401654993
 20
1215.524497910461
 11
1476.568401654993
 21
1344.801998663665
  0
LINE
  8
1DIM
 10
1426.568401654979
 20
1215.52449791097
 11
1426.568401654979
 21
1344.801998663665
  0
LINE
  8
1DIM
 10
1476.568401654993
 20
1334.801998663665
 11
1426.568401654979
 21
1334.801998663665
  0
LINE
  8
1DIM
 10
1496.568401654993
 20
1334.801998663665
 11
1516.568401654993
 21
1334.801998663665
  0
LINE
  8
1DIM
 10
1406.568401654979
 20
1334.801998663665
 11
1386.568401654979
 21
1334.801998663665
  0
INSERT
  8
1DIM
  2
_OPEN30
 10
1476.568401654993
 20
1334.801998663665
 30
0.0
 41
20.0
 42
20.0
 43
20.0
 50
180.0
  0
INSERT
  8
1DIM
  2
_OPEN30
 10
1426.568401654979
 20
1334.801998663665
 30
0.0
 41
20.0
 42
20.0
 43
20.0
  0
TEXT
  8
1DIM
  6
CONTINUOUS
 62
   201
 10
1395.068401654986
 20
1341.801998663665
 40
35.0
  1
âË50
  0
POINT
  8
DEFPOINTS
 62
     0
 10
1476.568401654993
 20
1215.524497910461
 30
0.0
  0
POINT
  8
DEFPOINTS
 62
     0
 10
1426.568401654979
 20
1215.52449791097
 30
0.0
  0
POINT
  8
DEFPOINTS
 62
     0
 10
1426.568401654979
 20
1334.801998663665
 30
0.0
  0
ENDBLK
  8
0
  0
BLOCK
  8
0
  2
*D316
 70
     1
 10
0.0
 20
0.0
  0
LINE
  8
1DIM
 10
433.742730108802
 20
1399.743647363489
 11
566.851702429883
 21
1552.127305494548
  0
TEXT
  8
1DIM
  6
CONTINUOUS
 62
   201
 10
429.786547263949
 20
1405.854998875069
 40
35.0
  1
4-R27
 50
48.862393197168
  0
LINE
  8
1DIM
 10
597.77157903176
 20
1587.524497910621
 11
580.009096728507
 21
1567.189940565164
  0
INSERT
  8
1DIM
  2
_OPEN30
 10
580.009096728507
 20
1567.189940565164
 30
0.0
 41
20.0
 42
20.0
 43
20.0
 50
48.862393197168
  0
POINT
  8
DEFPOINTS
 62
     0
 10
580.009096728507
 20
1567.189940565164
 30
0.0
  0
POINT
  8
DEFPOINTS
 62
     0
 10
597.77157903176
 20
1587.524497910621
 30
0.0
  0
ENDBLK
  8
0
  0
BLOCK
  8
0
  2
*D317
 70
     1
 10
0.0
 20
0.0
  0
LINE
  8
1DIM1
 10
2018.157079285985
 20
1215.089404998954
 11
2008.161318331601
 21
1202.773848582364
  0
TEXT
  8
1DIM1
  6
CONTINUOUS
 62
   201
 10
2007.985419237876
 20
1203.667905228559
 40
3.5
  1
Ä³R5
 50
50.935938661242
  0
LINE
  8
1DIM1
 10
2022.568401654957
 20
1220.524497910315
 11
2019.417457105716
 21
1216.642288687945
  0
INSERT
  8
1DIM1
  2
_OPEN30
 10
2019.417457105716
 20
1216.642288687945
 30
0.0
 41
2.0
 42
2.0
 43
2.0
 50
50.935938661242
  0
POINT
  8
DEFPOINTS
 62
     0
 10
2019.417457105716
 20
1216.642288687945
 30
0.0
  0
POINT
  8
DEFPOINTS
 62
     0
 10
2022.568401654957
 20
1220.524497910315
 30
0.0
  0
ENDBLK
  8
0
  0
BLOCK
  8
0
  2
*D318
 70
     1
 10
0.0
 20
0.0
  0
LINE
  8
1DIM
 10
1437.568401654964
 20
860.524497910417
 11
1350.555188364051
 21
860.524497910417
  0
LINE
  8
1DIM
 10
1442.247893579253
 20
850.524497910403
 11
1350.555188364051
 21
850.524497910403
  0
LINE
  8
1DIM
 10
1360.555188364051
 20
830.524497910403
 11
1360.555188364051
 21
744.857831243736
  0
LINE
  8
1DIM
 10
1360.555188364051
 20
860.524497910417
 11
1360.555188364051
 21
850.524497910403
  0
LINE
  8
1DIM
 10
1360.555188364051
 20
880.524497910417
 11
1360.555188364051
 21
900.524497910417
  0
INSERT
  8
1DIM
  2
_OPEN30
 10
1360.555188364051
 20
860.524497910417
 30
0.0
 41
20.0
 42
20.0
 43
20.0
 50
270.0
  0
INSERT
  8
1DIM
  2
_OPEN30
 10
1360.555188364051
 20
850.524497910403
 30
0.0
 41
20.0
 42
20.0
 43
20.0
 50
90.0
  0
TEXT
  8
1DIM
  6
CONTINUOUS
 62
   201
 10
1353.555188364051
 20
741.857831243736
 40
35.0
  1
10
 50
90.0
  0
POINT
  8
DEFPOINTS
 62
     0
 10
1437.568401654964
 20
860.524497910417
 30
0.0
  0
POINT
  8
DEFPOINTS
 62
     0
 10
1442.247893579253
 20
850.524497910403
 30
0.0
  0
POINT
  8
DEFPOINTS
 62
     0
 10
1360.555188364051
 20
850.524497910403
 30
0.0
  0
ENDBLK
  8
0
  0
BLOCK
  8
0
  2
*D319
 70
     1
 10
0.0
 20
0.0
  0
LINE
  8
1DIM
 10
43020.03184352552
 20
-7945.299860905567
 11
43020.03184352552
 21
-8094.426390382056
  0
LINE
  8
1DIM
 10
43620.03184352552
 20
-7945.299860905567
 11
43620.03184352552
 21
-8094.426390382056
  0
LINE
  8
1DIM
 10
43040.03184352552
 20
-8084.426390382056
 11
43600.03184352552
 21
-8084.426390382056
  0
INSERT
  8
1DIM
  2
_OPEN30
 10
43020.03184352552
 20
-8084.426390382056
 30
0.0
 41
20.0
 42
20.0
 43
20.0
 50
180.0
  0
INSERT
  8
1DIM
  2
_OPEN30
 10
43620.03184352552
 20
-8084.426390382056
 30
0.0
 41
20.0
 42
20.0
 43
20.0
  0
TEXT
  8
1DIM
  6
CONTINUOUS
 62
   201
 10
43269.19851019219
 20
-8077.426390382056
 40
35.0
  1
600
  0
POINT
  8
DEFPOINTS
 62
     0
 10
43020.03184352552
 20
-7945.299860905567
 30
0.0
  0
POINT
  8
DEFPOINTS
 62
     0
 10
43620.03184352552
 20
-7945.299860905567
 30
0.0
  0
POINT
  8
DEFPOINTS
 62
     0
 10
43620.03184352552
 20
-8084.426390382056
 30
0.0
  0
ENDBLK
  8
0
  0
BLOCK
  8
0
  2
*D320
 70
     1
 10
0.0
 20
0.0
  0
LINE
  8
1DIM
 10
43620.03184352552
 20
-8269.299860905567
 11
43709.81072425649
 21
-8269.299860905567
  0
LINE
  8
1DIM
 10
43602.35235160126
 20
-8679.299860905596
 11
43709.81072425649
 21
-8679.299860905596
  0
LINE
  8
1DIM
 10
43699.81072425649
 20
-8289.299860905567
 11
43699.81072425649
 21
-8659.299860905596
  0
INSERT
  8
1DIM
  2
_OPEN30
 10
43699.81072425649
 20
-8269.299860905567
 30
0.0
 41
20.0
 42
20.0
 43
20.0
 50
90.0
  0
INSERT
  8
1DIM
  2
_OPEN30
 10
43699.81072425649
 20
-8679.299860905596
 30
0.0
 41
20.0
 42
20.0
 43
20.0
 50
270.0
  0
TEXT
  8
1DIM
  6
CONTINUOUS
 62
   201
 10
43692.81072425649
 20
-8524.29986090558
 40
35.0
  1
410
 50
90.0
  0
POINT
  8
DEFPOINTS
 62
     0
 10
43620.03184352552
 20
-8269.299860905567
 30
0.0
  0
POINT
  8
DEFPOINTS
 62
     0
 10
43602.35235160126
 20
-8679.299860905596
 30
0.0
  0
POINT
  8
DEFPOINTS
 62
     0
 10
43699.81072425649
 20
-8679.299860905596
 30
0.0
  0
ENDBLK
  8
0
  0
BLOCK
  8
0
  2
*D321
 70
     1
 10
0.0
 20
0.0
  0
LINE
  8
1DIM
 10
43593.03184352552
 20
-7369.299860905567
 11
43709.81072425649
 21
-7369.299860905567
  0
LINE
  8
1DIM
 10
43596.03184352552
 20
-7969.299860905567
 11
43709.81072425649
 21
-7969.299860905567
  0
LINE
  8
1DIM
 10
43699.81072425649
 20
-7389.299860905567
 11
43699.81072425649
 21
-7949.299860905567
  0
INSERT
  8
1DIM
  2
_OPEN30
 10
43699.81072425649
 20
-7369.299860905567
 30
0.0
 41
20.0
 42
20.0
 43
20.0
 50
90.0
  0
INSERT
  8
1DIM
  2
_OPEN30
 10
43699.81072425649
 20
-7969.299860905567
 30
0.0
 41
20.0
 42
20.0
 43
20.0
 50
270.0
  0
TEXT
  8
1DIM
  6
CONTINUOUS
 62
   201
 10
43692.81072425649
 20
-7720.133194238893
 40
35.0
  1
600
 50
90.0
  0
POINT
  8
DEFPOINTS
 62
     0
 10
43593.03184352552
 20
-7369.299860905567
 30
0.0
  0
POINT
  8
DEFPOINTS
 62
     0
 10
43596.03184352552
 20
-7969.299860905567
 30
0.0
  0
POINT
  8
DEFPOINTS
 62
     0
 10
43699.81072425649
 20
-7969.299860905567
 30
0.0
  0
ENDBLK
  8
0
  0
BLOCK
  8
0
  2
*D322
 70
     1
 10
0.0
 20
0.0
  0
LINE
  8
1DIM
 10
43620.03184352552
 20
-8906.105129226404
 11
43620.03184352552
 21
-8976.324763352737
  0
LINE
  8
1DIM
 10
43618.03184352552
 20
-8906.105129226404
 11
43618.03184352552
 21
-8976.324763352737
  0
LINE
  8
1DIM
 10
43620.03184352552
 20
-8966.324763352737
 11
43712.0523567246
 21
-8966.324763352737
  0
LINE
  8
1DIM
 10
43620.03184352552
 20
-8966.324763352737
 11
43618.03184352552
 21
-8966.324763352737
  0
LINE
  8
1DIM
 10
43640.03184352552
 20
-8966.324763352737
 11
43660.03184352552
 21
-8966.324763352737
  0
LINE
  8
1DIM
 10
43598.03184352552
 20
-8966.324763352737
 11
43578.03184352552
 21
-8966.324763352737
  0
INSERT
  8
1DIM
  2
_OPEN30
 10
43620.03184352552
 20
-8966.324763352737
 30
0.0
 41
20.0
 42
20.0
 43
20.0
 50
180.0
  0
INSERT
  8
1DIM
  2
_OPEN30
 10
43618.03184352552
 20
-8966.324763352737
 30
0.0
 41
20.0
 42
20.0
 43
20.0
  0
TEXT
  8
1DIM
  6
CONTINUOUS
 62
   201
 10
43676.71902339127
 20
-8959.324763352737
 40
35.0
  1
2
  0
POINT
  8
DEFPOINTS
 62
     0
 10
43620.03184352552
 20
-8906.105129226404
 30
0.0
  0
POINT
  8
DEFPOINTS
 62
     0
 10
43618.03184352552
 20
-8906.105129226404
 30
0.0
  0
POINT
  8
DEFPOINTS
 62
     0
 10
43618.03184352552
 20
-8966.324763352737
 30
0.0
  0
ENDBLK
  8
0
  0
BLOCK
  8
0
  2
*D323
 70
     1
 10
0.0
 20
0.0
  0
LINE
  8
1DIM
 10
43593.03184352552
 20
-8881.105129226433
 11
43500.28728192103
 21
-8881.105129226433
  0
LINE
  8
1DIM
 10
43593.03184352552
 20
-8879.105129226433
 11
43500.28728192103
 21
-8879.105129226433
  0
LINE
  8
1DIM
 10
43510.28728192103
 20
-8859.105129226433
 11
43510.28728192103
 21
-8801.771795893104
  0
LINE
  8
1DIM
 10
43510.28728192103
 20
-8881.105129226433
 11
43510.28728192103
 21
-8879.105129226433
  0
LINE
  8
1DIM
 10
43510.28728192103
 20
-8901.105129226433
 11
43510.28728192103
 21
-8921.105129226433
  0
INSERT
  8
1DIM
  2
_OPEN30
 10
43510.28728192103
 20
-8881.105129226433
 30
0.0
 41
20.0
 42
20.0
 43
20.0
 50
90.0
  0
INSERT
  8
1DIM
  2
_OPEN30
 10
43510.28728192103
 20
-8879.105129226433
 30
0.0
 41
20.0
 42
20.0
 43
20.0
 50
270.0
  0
TEXT
  8
1DIM
  6
CONTINUOUS
 62
   201
 10
43503.28728192103
 20
-8837.105129226431
 40
35.0
  1
2
 50
90.0
  0
POINT
  8
DEFPOINTS
 62
     0
 10
43593.03184352552
 20
-8881.105129226433
 30
0.0
  0
POINT
  8
DEFPOINTS
 62
     0
 10
43593.03184352552
 20
-8879.105129226433
 30
0.0
  0
POINT
  8
DEFPOINTS
 62
     0
 10
43510.28728192103
 20
-8879.105129226433
 30
0.0
  0
ENDBLK
  8
0
  0
BLOCK
  8
0
  2
*D324
 70
     1
 10
0.0
 20
0.0
  0
LINE
  8
1DIM
 10
43873.82866614879
 20
-8309.299860905567
 11
43799.81545285785
 21
-8309.299860905567
  0
LINE
  8
1DIM
 10
43873.82866614879
 20
-8269.299860905567
 11
43799.81545285785
 21
-8269.299860905567
  0
LINE
  8
1DIM
 10
43809.81545285785
 20
-8249.299860905567
 11
43809.81545285785
 21
-8093.633194238895
  0
LINE
  8
1DIM
 10
43809.81545285785
 20
-8309.299860905567
 11
43809.81545285785
 21
-8269.299860905567
  0
LINE
  8
1DIM
 10
43809.81545285785
 20
-8329.299860905567
 11
43809.81545285785
 21
-8349.299860905567
  0
INSERT
  8
1DIM
  2
_OPEN30
 10
43809.81545285785
 20
-8309.299860905567
 30
0.0
 41
20.0
 42
20.0
 43
20.0
 50
90.0
  0
INSERT
  8
1DIM
  2
_OPEN30
 10
43809.81545285785
 20
-8269.299860905567
 30
0.0
 41
20.0
 42
20.0
 43
20.0
 50
270.0
  0
TEXT
  8
1DIM
  6
CONTINUOUS
 62
   201
 10
43802.81545285785
 20
-8225.6331942389
 40
35.0
  1
t=40
 50
90.0
  0
POINT
  8
DEFPOINTS
 62
     0
 10
43873.82866614879
 20
-8309.299860905567
 30
0.0
  0
POINT
  8
DEFPOINTS
 62
     0
 10
43873.82866614879
 20
-8269.299860905567
 30
0.0
  0
POINT
  8
DEFPOINTS
 62
     0
 10
43809.81545285785
 20
-8269.299860905567
 30
0.0
  0
ENDBLK
  8
0
  0
BLOCK
  8
0
  2
*D325
 70
     1
 10
0.0
 20
0.0
  0
LINE
  8
1DIM
 10
43885.82866614875
 20
-8668.299860905596
 11
43885.82866614875
 21
-8759.208303551366
  0
LINE
  8
1DIM
 10
43915.82866614875
 20
-8668.29986090561
 11
43915.82866614875
 21
-8759.208303551366
  0
LINE
  8
1DIM
 10
43935.82866614875
 20
-8749.208303551366
 11
44064.16199948208
 21
-8749.208303551366
  0
LINE
  8
1DIM
 10
43885.82866614875
 20
-8749.208303551366
 11
43915.82866614875
 21
-8749.208303551366
  0
LINE
  8
1DIM
 10
43865.82866614875
 20
-8749.208303551366
 11
43845.82866614875
 21
-8749.208303551366
  0
INSERT
  8
1DIM
  2
_OPEN30
 10
43885.82866614875
 20
-8749.208303551366
 30
0.0
 41
20.0
 42
20.0
 43
20.0
  0
INSERT
  8
1DIM
  2
_OPEN30
 10
43915.82866614875
 20
-8749.208303551366
 30
0.0
 41
20.0
 42
20.0
 43
20.0
 50
180.0
  0
TEXT
  8
1DIM
  6
CONTINUOUS
 62
   201
 10
43953.49533281542
 20
-8742.208303551366
 40
35.0
  1
âË30
  0
POINT
  8
DEFPOINTS
 62
     0
 10
43885.82866614875
 20
-8668.299860905596
 30
0.0
  0
POINT
  8
DEFPOINTS
 62
     0
 10
43915.82866614875
 20
-8668.29986090561
 30
0.0
  0
POINT
  8
DEFPOINTS
 62
     0
 10
43915.82866614875
 20
-8749.208303551366
 30
0.0
  0
ENDBLK
  8
0
  0
BLOCK
  8
0
  2
*D326
 70
     1
 10
0.0
 20
0.0
  0
LINE
  8
1DIM
 10
43873.82866614879
 20
-8309.299860905567
 11
43799.81545285785
 21
-8309.299860905567
  0
LINE
  8
1DIM
 10
43886.82866614877
 20
-8669.29986090561
 11
43799.81545285785
 21
-8669.29986090561
  0
LINE
  8
1DIM
 10
43809.81545285785
 20
-8329.299860905567
 11
43809.81545285785
 21
-8649.29986090561
  0
INSERT
  8
1DIM
  2
_OPEN30
 10
43809.81545285785
 20
-8309.299860905567
 30
0.0
 41
20.0
 42
20.0
 43
20.0
 50
90.0
  0
INSERT
  8
1DIM
  2
_OPEN30
 10
43809.81545285785
 20
-8669.29986090561
 30
0.0
 41
20.0
 42
20.0
 43
20.0
 50
270.0
  0
TEXT
  8
1DIM
  6
CONTINUOUS
 62
   201
 10
43802.81545285785
 20
-8539.299860905587
 40
35.0
  1
360
 50
90.0
  0
POINT
  8
DEFPOINTS
 62
     0
 10
43873.82866614879
 20
-8309.299860905567
 30
0.0
  0
POINT
  8
DEFPOINTS
 62
     0
 10
43886.82866614877
 20
-8669.29986090561
 30
0.0
  0
POINT
  8
DEFPOINTS
 62
     0
 10
43809.81545285785
 20
-8669.29986090561
 30
0.0
  0
ENDBLK
  8
0
  0
BLOCK
  8
0
  2
*D327
 70
     1
 10
0.0
 20
0.0
  0
LINE
  8
1DIM1
 10
44426.82866614879
 20
-8309.299860905567
 11
44426.82866614879
 21
-8300.327650499808
  0
LINE
  8
1DIM1
 10
44466.82866614879
 20
-8309.299860905567
 11
44466.82866614879
 21
-8300.327650499808
  0
LINE
  8
1DIM1
 10
44428.82866614879
 20
-8301.327650499808
 11
44464.82866614879
 21
-8301.327650499808
  0
INSERT
  8
1DIM1
  2
_OPEN30
 10
44426.82866614879
 20
-8301.327650499808
 30
0.0
 41
2.0
 42
2.0
 43
2.0
 50
180.0
  0
INSERT
  8
1DIM1
  2
_OPEN30
 10
44466.82866614879
 20
-8301.327650499808
 30
0.0
 41
2.0
 42
2.0
 43
2.0
  0
TEXT
  8
1DIM1
  6
CONTINUOUS
 62
   201
 10
44453.6041521573
 20
-8300.627650499808
 40
3.5
  1
âË40
  0
POINT
  8
DEFPOINTS
 62
     0
 10
44426.82866614879
 20
-8309.299860905567
 30
0.0
  0
POINT
  8
DEFPOINTS
 62
     0
 10
44466.82866614879
 20
-8309.299860905567
 30
0.0
  0
POINT
  8
DEFPOINTS
 62
     0
 10
44466.82866614879
 20
-8301.327650499808
 30
0.0
  0
ENDBLK
  8
0
  0
BLOCK
  8
0
  2
*D328
 70
     1
 10
0.0
 20
0.0
  0
LINE
  8
1DIM1
 10
44421.82866614879
 20
-8314.299860905567
 11
44421.82866614879
 21
-8292.93797961304
  0
LINE
  8
1DIM1
 10
44471.82866614879
 20
-8314.299860905567
 11
44471.82866614879
 21
-8292.93797961304
  0
LINE
  8
1DIM1
 10
44423.82866614879
 20
-8293.93797961304
 11
44469.82866614879
 21
-8293.93797961304
  0
INSERT
  8
1DIM1
  2
_OPEN30
 10
44421.82866614879
 20
-8293.93797961304
 30
0.0
 41
2.0
 42
2.0
 43
2.0
 50
180.0
  0
INSERT
  8
1DIM1
  2
_OPEN30
 10
44471.82866614879
 20
-8293.93797961304
 30
0.0
 41
2.0
 42
2.0
 43
2.0
  0
TEXT
  8
1DIM1
  6
CONTINUOUS
 62
   201
 10
44452.96947716649
 20
-8293.237979613039
 40
3.5
  1
âË50
  0
POINT
  8
DEFPOINTS
 62
     0
 10
44421.82866614879
 20
-8314.299860905567
 30
0.0
  0
POINT
  8
DEFPOINTS
 62
     0
 10
44471.82866614879
 20
-8314.299860905567
 30
0.0
  0
POINT
  8
DEFPOINTS
 62
     0
 10
44471.82866614879
 20
-8293.93797961304
 30
0.0
  0
ENDBLK
  8
0
  0
BLOCK
  8
0
  2
*D329
 70
     1
 10
0.0
 20
0.0
  0
LINE
  8
1DIM
 10
43925.82866614879
 20
-8314.299860905567
 11
43925.82866614879
 21
-8185.022360152363
  0
LINE
  8
1DIM
 10
43875.82866614878
 20
-8314.299860905057
 11
43875.82866614878
 21
-8185.022360152363
  0
LINE
  8
1DIM
 10
43925.82866614879
 20
-8195.022360152363
 11
43875.82866614878
 21
-8195.022360152363
  0
LINE
  8
1DIM
 10
43945.82866614879
 20
-8195.022360152363
 11
43965.82866614879
 21
-8195.022360152363
  0
LINE
  8
1DIM
 10
43855.82866614878
 20
-8195.022360152363
 11
43835.82866614878
 21
-8195.022360152363
  0
INSERT
  8
1DIM
  2
_OPEN30
 10
43925.82866614879
 20
-8195.022360152363
 30
0.0
 41
20.0
 42
20.0
 43
20.0
 50
180.0
  0
INSERT
  8
1DIM
  2
_OPEN30
 10
43875.82866614878
 20
-8195.022360152363
 30
0.0
 41
20.0
 42
20.0
 43
20.0
  0
TEXT
  8
1DIM
  6
CONTINUOUS
 62
   201
 10
43844.32866614879
 20
-8188.022360152363
 40
35.0
  1
âË50
  0
POINT
  8
DEFPOINTS
 62
     0
 10
43925.82866614879
 20
-8314.299860905567
 30
0.0
  0
POINT
  8
DEFPOINTS
 62
     0
 10
43875.82866614878
 20
-8314.299860905057
 30
0.0
  0
POINT
  8
DEFPOINTS
 62
     0
 10
43875.82866614878
 20
-8195.022360152363
 30
0.0
  0
ENDBLK
  8
0
  0
BLOCK
  8
0
  2
*D330
 70
     1
 10
0.0
 20
0.0
  0
LINE
  8
1DIM
 10
42883.00299460261
 20
-8130.080711452534
 11
43016.11196692369
 21
-7977.697053321479
  0
TEXT
  8
1DIM
  6
CONTINUOUS
 62
   201
 10
42879.04681175775
 20
-8123.969359940955
 40
35.0
  1
4-R27
 50
48.862393197168
  0
LINE
  8
1DIM
 10
43047.03184352556
 20
-7942.299860905407
 11
43029.26936122231
 21
-7962.634418250864
  0
INSERT
  8
1DIM
  2
_OPEN30
 10
43029.26936122231
 20
-7962.634418250864
 30
0.0
 41
20.0
 42
20.0
 43
20.0
 50
48.862393197168
  0
POINT
  8
DEFPOINTS
 62
     0
 10
43029.26936122231
 20
-7962.634418250864
 30
0.0
  0
POINT
  8
DEFPOINTS
 62
     0
 10
43047.03184352556
 20
-7942.299860905407
 30
0.0
  0
ENDBLK
  8
0
  0
BLOCK
  8
0
  2
*D331
 70
     1
 10
0.0
 20
0.0
  0
LINE
  8
1DIM1
 10
44467.41734377979
 20
-8314.734953817073
 11
44457.4215828254
 21
-8327.050510233663
  0
TEXT
  8
1DIM1
  6
CONTINUOUS
 62
   201
 10
44457.24568373168
 20
-8326.156453587471
 40
3.5
  1
Ä³R5
 50
50.935938661242
  0
LINE
  8
1DIM1
 10
44471.82866614876
 20
-8309.299860905712
 11
44468.67772159952
 21
-8313.182070128083
  0
INSERT
  8
1DIM1
  2
_OPEN30
 10
44468.67772159952
 20
-8313.182070128083
 30
0.0
 41
2.0
 42
2.0
 43
2.0
 50
50.935938661242
  0
POINT
  8
DEFPOINTS
 62
     0
 10
44468.67772159952
 20
-8313.182070128083
 30
0.0
  0
POINT
  8
DEFPOINTS
 62
     0
 10
44471.82866614876
 20
-8309.299860905712
 30
0.0
  0
ENDBLK
  8
0
  0
BLOCK
  8
0
  2
*D332
 70
     1
 10
0.0
 20
0.0
  0
LINE
  8
1DIM
 10
43886.82866614877
 20
-8669.29986090561
 11
43799.81545285785
 21
-8669.29986090561
  0
LINE
  8
1DIM
 10
43891.50815807305
 20
-8679.299860905625
 11
43799.81545285785
 21
-8679.299860905625
  0
LINE
  8
1DIM
 10
43809.81545285785
 20
-8699.299860905625
 11
43809.81545285785
 21
-8784.966527572296
  0
LINE
  8
1DIM
 10
43809.81545285785
 20
-8669.29986090561
 11
43809.81545285785
 21
-8679.299860905625
  0
LINE
  8
1DIM
 10
43809.81545285785
 20
-8649.29986090561
 11
43809.81545285785
 21
-8629.29986090561
  0
INSERT
  8
1DIM
  2
_OPEN30
 10
43809.81545285785
 20
-8669.29986090561
 30
0.0
 41
20.0
 42
20.0
 43
20.0
 50
270.0
  0
INSERT
  8
1DIM
  2
_OPEN30
 10
43809.81545285785
 20
-8679.299860905625
 30
0.0
 41
20.0
 42
20.0
 43
20.0
 50
90.0
  0
TEXT
  8
1DIM
  6
CONTINUOUS
 62
   201
 10
43802.81545285785
 20
-8787.966527572295
 40
35.0
  1
10
 50
90.0
  0
POINT
  8
DEFPOINTS
 62
     0
 10
43886.82866614877
 20
-8669.29986090561
 30
0.0
  0
POINT
  8
DEFPOINTS
 62
     0
 10
43891.50815807305
 20
-8679.299860905625
 30
0.0
  0
POINT
  8
DEFPOINTS
 62
     0
 10
43809.81545285785
 20
-8679.299860905625
 30
0.0
  0
ENDBLK
  8
0
  0
BLOCK
  8
0
  2
*D334
 70
     1
 10
0.0
 20
0.0
  0
LINE
  8
1DIM
 10
0.0
 20
710.000000000015
 11
0.0
 21
637.436735261785
  0
LINE
  8
1DIM
 10
599.999999999999
 20
710.000000000015
 11
599.999999999999
 21
637.436735261785
  0
LINE
  8
1DIM
 10
20.0
 20
647.436735261785
 11
579.999999999999
 21
647.436735261785
  0
INSERT
  8
1DIM
  2
_OPEN30
 10
0.0
 20
647.436735261785
 30
0.0
 41
20.0
 42
20.0
 43
20.0
 50
180.0
  0
INSERT
  8
1DIM
  2
_OPEN30
 10
599.999999999999
 20
647.436735261785
 30
0.0
 41
20.0
 42
20.0
 43
20.0
  0
TEXT
  8
1DIM
  6
CONTINUOUS
 62
   201
 10
249.166666666666
 20
654.436735261785
 40
35.0
  1
600
  0
POINT
  8
DEFPOINTS
 62
     0
 10
0.0
 20
710.000000000015
 30
0.0
  0
POINT
  8
DEFPOINTS
 62
     0
 10
599.999999999999
 20
710.000000000015
 30
0.0
  0
POINT
  8
DEFPOINTS
 62
     0
 10
599.999999999999
 20
647.436735261785
 30
0.0
  0
ENDBLK
  8
0
  0
BLOCK
  8
0
  2
*D335
 70
     1
 10
0.0
 20
0.0
  0
LINE
  8
1DIM
 10
599.999999999999
 20
1310.000000000044
 11
689.778880730969
 21
1310.000000000044
  0
LINE
  8
1DIM
 10
599.999999999999
 20
710.000000000044
 11
689.778880730969
 21
710.000000000044
  0
LINE
  8
1DIM
 10
679.778880730969
 20
1290.000000000044
 11
679.778880730969
 21
730.000000000044
  0
INSERT
  8
1DIM
  2
_OPEN30
 10
679.778880730969
 20
1310.000000000044
 30
0.0
 41
20.0
 42
20.0
 43
20.0
 50
90.0
  0
INSERT
  8
1DIM
  2
_OPEN30
 10
679.778880730969
 20
710.000000000044
 30
0.0
 41
20.0
 42
20.0
 43
20.0
 50
270.0
  0
TEXT
  8
1DIM
  6
CONTINUOUS
 62
   201
 10
672.778880730969
 20
959.16666666671
 40
35.0
  1
600
 50
90.0
  0
POINT
  8
DEFPOINTS
 62
     0
 10
599.999999999999
 20
1310.000000000044
 30
0.0
  0
POINT
  8
DEFPOINTS
 62
     0
 10
599.999999999999
 20
710.000000000044
 30
0.0
  0
POINT
  8
DEFPOINTS
 62
     0
 10
679.778880730969
 20
710.000000000044
 30
0.0
  0
ENDBLK
  8
0
  0
BLOCK
  8
0
  2
*D336
 70
     1
 10
0.0
 20
0.0
  0
LINE
  8
1DIM
 10
599.999999999999
 20
410.000000000044
 11
689.778880730969
 21
410.000000000044
  0
LINE
  8
1DIM
 10
592.320508075681
 20
0.000000000029
 11
689.778880730969
 21
0.000000000029
  0
LINE
  8
1DIM
 10
679.778880730969
 20
390.000000000044
 11
679.778880730969
 21
20.000000000029
  0
INSERT
  8
1DIM
  2
_OPEN30
 10
679.778880730969
 20
410.000000000044
 30
0.0
 41
20.0
 42
20.0
 43
20.0
 50
90.0
  0
INSERT
  8
1DIM
  2
_OPEN30
 10
679.778880730969
 20
0.000000000029
 30
0.0
 41
20.0
 42
20.0
 43
20.0
 50
270.0
  0
TEXT
  8
1DIM
  6
CONTINUOUS
 62
   201
 10
672.778880730969
 20
155.000000000036
 40
35.0
  1
410
 50
90.0
  0
POINT
  8
DEFPOINTS
 62
     0
 10
599.999999999999
 20
410.000000000044
 30
0.0
  0
POINT
  8
DEFPOINTS
 62
     0
 10
592.320508075681
 20
0.000000000029
 30
0.0
  0
POINT
  8
DEFPOINTS
 62
     0
 10
679.778880730969
 20
0.000000000029
 30
0.0
  0
ENDBLK
  8
0
  0
BLOCK
  8
0
  2
*D337
 70
     1
 10
0.0
 20
0.0
  0
LINE
  8
1DIM
 10
38723.26190446367
 20
-5954.826517304041
 11
38723.26190446367
 21
-6027.389782042271
  0
LINE
  8
1DIM
 10
39323.26190446367
 20
-5954.826517304041
 11
39323.26190446367
 21
-6027.389782042271
  0
LINE
  8
1DIM
 10
38743.26190446367
 20
-6017.389782042271
 11
39303.26190446367
 21
-6017.389782042271
  0
INSERT
  8
1DIM
  2
_OPEN30
 10
38723.26190446367
 20
-6017.389782042271
 30
0.0
 41
20.0
 42
20.0
 43
20.0
 50
180.0
  0
INSERT
  8
1DIM
  2
_OPEN30
 10
39323.26190446367
 20
-6017.389782042271
 30
0.0
 41
20.0
 42
20.0
 43
20.0
  0
TEXT
  8
1DIM
  6
CONTINUOUS
 62
   201
 10
38972.42857113034
 20
-6010.389782042271
 40
35.0
  1
600
  0
POINT
  8
DEFPOINTS
 62
     0
 10
38723.26190446367
 20
-5954.826517304041
 30
0.0
  0
POINT
  8
DEFPOINTS
 62
     0
 10
39323.26190446367
 20
-5954.826517304041
 30
0.0
  0
POINT
  8
DEFPOINTS
 62
     0
 10
39323.26190446367
 20
-6017.389782042271
 30
0.0
  0
ENDBLK
  8
0
  0
BLOCK
  8
0
  2
*D338
 70
     1
 10
0.0
 20
0.0
  0
LINE
  8
1DIM
 10
39323.26190446367
 20
-5354.826517304012
 11
39413.04078519464
 21
-5354.826517304012
  0
LINE
  8
1DIM
 10
39323.26190446367
 20
-5954.826517304012
 11
39413.04078519464
 21
-5954.826517304012
  0
LINE
  8
1DIM
 10
39403.04078519464
 20
-5374.826517304012
 11
39403.04078519464
 21
-5934.826517304012
  0
INSERT
  8
1DIM
  2
_OPEN30
 10
39403.04078519464
 20
-5354.826517304012
 30
0.0
 41
20.0
 42
20.0
 43
20.0
 50
90.0
  0
INSERT
  8
1DIM
  2
_OPEN30
 10
39403.04078519464
 20
-5954.826517304012
 30
0.0
 41
20.0
 42
20.0
 43
20.0
 50
270.0
  0
TEXT
  8
1DIM
  6
CONTINUOUS
 62
   201
 10
39396.04078519464
 20
-5705.659850637341
 40
35.0
  1
600
 50
90.0
  0
POINT
  8
DEFPOINTS
 62
     0
 10
39323.26190446367
 20
-5354.826517304012
 30
0.0
  0
POINT
  8
DEFPOINTS
 62
     0
 10
39323.26190446367
 20
-5954.826517304012
 30
0.0
  0
POINT
  8
DEFPOINTS
 62
     0
 10
39403.04078519464
 20
-5954.826517304012
 30
0.0
  0
ENDBLK
  8
0
  0
BLOCK
  8
0
  2
*D339
 70
     1
 10
0.0
 20
0.0
  0
LINE
  8
1DIM
 10
39323.26190446367
 20
-6254.826517304012
 11
39413.04078519464
 21
-6254.826517304012
  0
LINE
  8
1DIM
 10
39315.58241253935
 20
-6664.826517304026
 11
39413.04078519464
 21
-6664.826517304026
  0
LINE
  8
1DIM
 10
39403.04078519464
 20
-6274.826517304012
 11
39403.04078519464
 21
-6644.826517304026
  0
INSERT
  8
1DIM
  2
_OPEN30
 10
39403.04078519464
 20
-6254.826517304012
 30
0.0
 41
20.0
 42
20.0
 43
20.0
 50
90.0
  0
INSERT
  8
1DIM
  2
_OPEN30
 10
39403.04078519464
 20
-6664.826517304026
 30
0.0
 41
20.0
 42
20.0
 43
20.0
 50
270.0
  0
TEXT
  8
1DIM
  6
CONTINUOUS
 62
   201
 10
39396.04078519464
 20
-6509.82651730402
 40
35.0
  1
410
 50
90.0
  0
POINT
  8
DEFPOINTS
 62
     0
 10
39323.26190446367
 20
-6254.826517304012
 30
0.0
  0
POINT
  8
DEFPOINTS
 62
     0
 10
39315.58241253935
 20
-6664.826517304026
 30
0.0
  0
POINT
  8
DEFPOINTS
 62
     0
 10
39403.04078519464
 20
-6664.826517304026
 30
0.0
  0
ENDBLK
  8
0
  0
ENDSEC
  0
SECTION
  2
ENTITIES
  0
DIMENSION
  8
1DIM
  2
*D301
 10
39323.26190446367
 20
-6764.82651730407
 11
39023.26190446367
 21
-6740.32651730407
 70
    32
 13
38723.26190446366
 23
-6664.82651730407
 33
0.0
 14
39323.26190446367
 24
-6664.82651730407
 34
0.0
  0
DIMENSION
  8
1DIM
  2
*D302
 10
40423.26190446367
 20
-6764.82651730407
 11
40123.26190446367
 21
-6740.32651730407
 70
    32
 13
39823.26190446367
 23
-6664.82651730407
 33
0.0
 14
40423.26190446367
 24
-6664.82651730407
 34
0.0
  0
DIMENSION
  8
1DIM
  2
*D303
 10
40523.26190446367
 20
-6664.82651730407
 11
40498.76190446367
 21
-6459.826517304055
 70
    32
 13
40423.26190446367
 23
-6254.826517304041
 33
0.0
 14
40423.26190446367
 24
-6664.82651730407
 34
0.0
 50
90.0
  0
LINE
  8
0
 10
38723.26190446367
 20
-6294.826517304012
 11
38723.26190446367
 21
-6254.826517304012
  0
LINE
  8
0
 10
38723.26190446367
 20
-6254.826517304012
 11
39323.26190446367
 21
-6254.826517304012
  0
LINE
  8
0
 10
38723.26190446367
 20
-6294.826517304012
 11
39323.26190446367
 21
-6294.826517304012
  0
LINE
  8
0
 10
38723.26190446367
 20
-5954.826517304012
 11
39323.26190446367
 21
-5954.826517304012
  0
LINE
  8
0
 10
38723.26190446367
 20
-5354.826517304012
 11
39323.26190446367
 21
-5354.826517304012
  0
LINE
  8
0
 10
38725.26190446367
 20
-6654.826517304041
 11
38755.26190446367
 21
-6654.826517304055
  0
LINE
  8
0
 10
38723.26190446367
 20
-5954.826517304012
 11
38723.26190446367
 21
-5354.826517304012
  0
LINE
  8
0
 10
39323.26190446367
 20
-5954.826517304012
 11
39323.26190446367
 21
-5354.826517304012
  0
LINE
  8
0
 10
38725.26190446367
 20
-6654.826517304041
 11
38725.26190446367
 21
-6294.826517304012
  0
LINE
  8
0
 10
38755.26190446367
 20
-6654.826517304041
 11
38785.26190446367
 21
-6294.826517304012
  0
LINE
  8
0
 10
39321.26190446367
 20
-6654.826517304041
 11
39291.26190446367
 21
-6654.826517304055
  0
LINE
  8
0
 10
39321.26190446367
 20
-6654.826517304041
 11
39321.26190446367
 21
-6294.826517304012
  0
LINE
  8
0
 10
39291.26190446367
 20
-6654.826517304041
 11
39261.26190446367
 21
-6294.826517304012
  0
LINE
  8
0
 10
39323.26190446367
 20
-6294.826517304012
 11
39323.26190446367
 21
-6254.826517304012
  0
LINE
  8
0
 10
38749.58241253935
 20
-6664.826517304026
 11
38730.94139638797
 21
-6664.826517304055
  0
LINE
  8
0
 10
38728.26190446366
 20
-6654.826517304055
 11
38730.94139638797
 21
-6664.826517304055
  0
LINE
  8
0
 10
38752.26190446366
 20
-6654.826517304026
 11
38749.58241253935
 21
-6664.826517304026
  0
LINE
  8
0
 10
39315.58241253935
 20
-6664.826517304026
 11
39296.94139638797
 21
-6664.826517304055
  0
LINE
  8
0
 10
39294.26190446366
 20
-6654.826517304055
 11
39296.94139638797
 21
-6664.826517304055
  0
LINE
  8
0
 10
39318.26190446366
 20
-6654.826517304026
 11
39315.58241253935
 21
-6664.826517304026
  0
LINE
  8
0
 10
39823.26190446367
 20
-6294.826517304012
 11
39823.26190446367
 21
-6254.826517304012
  0
LINE
  8
0
 10
39823.26190446367
 20
-6254.826517304012
 11
40423.26190446367
 21
-6254.826517304012
  0
LINE
  8
0
 10
39823.26190446367
 20
-6294.826517304012
 11
40423.26190446367
 21
-6294.826517304012
  0
LINE
  8
0
 10
39825.26190446367
 20
-6654.826517304041
 11
39855.26190446367
 21
-6654.826517304055
  0
LINE
  8
0
 10
39825.26190446367
 20
-6654.826517304041
 11
39825.26190446367
 21
-6294.826517304012
  0
LINE
  8
0
 10
39855.26190446367
 20
-6654.826517304041
 11
39885.26190446367
 21
-6294.826517304012
  0
LINE
  8
0
 10
40421.26190446367
 20
-6654.826517304041
 11
40391.26190446367
 21
-6654.826517304055
  0
LINE
  8
0
 10
40421.26190446367
 20
-6654.826517304041
 11
40421.26190446367
 21
-6294.826517304012
  0
LINE
  8
0
 10
40391.26190446367
 20
-6654.826517304041
 11
40361.26190446367
 21
-6294.826517304012
  0
LINE
  8
0
 10
40423.26190446367
 20
-6294.826517304012
 11
40423.26190446367
 21
-6254.826517304012
  0
LINE
  8
0
 10
39849.58241253935
 20
-6664.826517304026
 11
39830.94139638797
 21
-6664.826517304055
  0
LINE
  8
0
 10
39828.26190446366
 20
-6654.826517304055
 11
39830.94139638797
 21
-6664.826517304055
  0
LINE
  8
0
 10
39852.26190446366
 20
-6654.826517304026
 11
39849.58241253935
 21
-6664.826517304026
  0
LINE
  8
0
 10
40415.58241253935
 20
-6664.826517304026
 11
40396.94139638797
 21
-6664.826517304055
  0
LINE
  8
0
 10
40394.26190446366
 20
-6654.826517304055
 11
40396.94139638797
 21
-6664.826517304055
  0
LINE
  8
0
 10
40418.26190446366
 20
-6654.826517304026
 11
40415.58241253935
 21
-6664.826517304026
  0
ENDSEC
  0
EOF
