  0
SECTION
  2
HEADER
  9
$ACADVER
  1
AC1004
  9
$INSBASE
 10
0.0
 20
0.0
  9
$EXTMIN
 10
37788.31460866944
 20
-6834.82651730407
  9
$EXTMAX
 10
40743.40160987387
 20
-4771.706423327166
  9
$LIMMIN
 10
0.0
 20
0.0
  9
$LIMMAX
 10
12.0
 20
9.0
  9
$ORTHOMODE
 70
     0
  9
$REGENMODE
 70
     1
  9
$FILLMODE
 70
     1
  9
$QTEXTMODE
 70
     0
  9
$DRAGMODE
 70
     2
  9
$LTSCALE
 40
0.5
  9
$OSMODE
 70
  2175
  9
$ATTMODE
 70
     1
  9
$TEXTSIZE
 40
4.0
  9
$TRACEWID
 40
0.05
  9
$TEXTSTYLE
  7
STANDARD
  9
$CLAYER
  8
0
  9
$CELTYPE
  6
BYLAYER
  9
$CECOLOR
 62
   256
  9
$DIMSCALE
 40
20.0
  9
$DIMASZ
 40
2.0
  9
$DIMEXO
 40
0.0
  9
$DIMDLI
 40
7.0
  9
$DIMRND
 40
0.0
  9
$DIMDLE
 40
0.0
  9
$DIMEXE
 40
1.0
  9
$DIMTP
 40
0.0
  9
$DIMTM
 40
0.0
  9
$DIMTXT
 40
3.5
  9
$DIMCEN
 40
0.0
  9
$DIMTSZ
 40
0.0
  9
$DIMTOL
 70
     0
  9
$DIMLIM
 70
     0
  9
$DIMTIH
 70
     0
  9
$DIMTOH
 70
     0
  9
$DIMSE1
 70
     0
  9
$DIMSE2
 70
     0
  9
$DIMTAD
 70
     1
  9
$DIMZIN
 70
     8
  9
$DIMBLK
  1

  9
$DIMASO
 70
     1
  9
$DIMSHO
 70
     1
  9
$DIMPOST
  1
 
  9
$DIMAPOST
  1

  9
$DIMALT
 70
     0
  9
$DIMALTD
 70
     2
  9
$DIMALTF
 40
25.4
  9
$DIMLFAC
 40
1.0
  9
$DIMTOFL
 70
     1
  9
$DIMTVP
 40
0.0
  9
$DIMTIX
 70
     0
  9
$DIMSOXD
 70
     0
  9
$DIMSAH
 70
     1
  9
$DIMBLK1
  1
OPEN30
  9
$DIMBLK2
  1
OPEN30
  9
$LUNITS
 70
     2
  9
$LUPREC
 70
     4
  9
$SKETCHINC
 40
0.1
  9
$FILLETRAD
 40
5.8
  9
$AUNITS
 70
     0
  9
$AUPREC
 70
     2
  9
$MENU
  1
acad
  9
$ELEVATION
 40
0.0
  9
$THICKNESS
 40
0.0
  9
$LIMCHECK
 70
     0
  9
$CHAMFERA
 40
0.0
  9
$CHAMFERB
 40
0.0
  9
$SKPOLY
 70
     0
  9
$TDCREATE
 40
2448750.487089225
  9
$TDUPDATE
 40
2459428.672340382
  9
$TDINDWG
 40
2.5560916319
  9
$TDUSRTIMER
 40
2.5560916319
  9
$USRTIMER
 70
     1
  9
$ANGBASE
 50
0.0
  9
$ANGDIR
 70
     0
  9
$PDMODE
 70
     0
  9
$PDSIZE
 40
0.0
  9
$PLINEWID
 40
1.0
  9
$COORDS
 70
     2
  9
$SPLFRAME
 70
     0
  9
$SPLINETYPE
 70
     6
  9
$SPLINESEGS
 70
     8
  9
$ATTDIA
 70
     0
  9
$ATTREQ
 70
     1
  9
$SURFTAB1
 70
     6
  9
$SURFTAB2
 70
     6
  9
$SURFTYPE
 70
     6
  9
$SURFU
 70
     6
  9
$SURFV
 70
     6
  9
$UCSNAME
  2

  9
$UCSORG
 10
0.0
 20
0.0
 30
0.0
  9
$UCSXDIR
 10
1.0
 20
0.0
 30
0.0
  9
$UCSYDIR
 10
0.0
 20
1.0
 30
0.0
  9
$USERI1
 70
     0
  9
$USERI2
 70
     0
  9
$USERI3
 70
     0
  9
$USERI4
 70
     0
  9
$USERI5
 70
     0
  9
$USERR1
 40
0.0
  9
$USERR2
 40
0.0
  9
$USERR3
 40
0.0
  9
$USERR4
 40
0.0
  9
$USERR5
 40
0.0
  9
$WORLDVIEW
 70
     1
  0
ENDSEC
  0
SECTION
  2
TABLES
  0
TABLE
  2
LTYPE
 70
    12
  0
LTYPE
  2
CONTINUOUS
 70
     0
  3
Solid line
 72
    65
 73
     0
 40
0.0
  0
LTYPE
  2
HIDDEN
 70
     0
  3
Hidden __ __ __ __ __ __ __ __ __ __ __ __ __ _
 72
    65
 73
     2
 40
9.525
 49
6.35
 49
-3.175
  0
LTYPE
  2
PHANTOM2
 70
     0
  3
Phantom (0.5x) ___ _ _ ___ _ _ ___ _ _ ___ _ _
 72
    65
 73
     6
 40
31.75
 49
15.875
 49
-3.175
 49
3.175
 49
-3.175
 49
3.175
 49
-3.175
  0
LTYPE
  2
CENTER2
 70
     0
  3
Center (.5x) ___ _ ___ _ ___ _ ___ _ ___ _ ___
 72
    65
 73
     4
 40
28.575
 49
19.05
 49
-3.175
 49
3.175
 49
-3.175
  0
LTYPE
  2
HADAN
 70
     0
  3
Hadansen
 72
    65
 73
     4
 40
58.0
 49
50.0
 49
-2.0
 49
-4.0
 49
-2.0
  0
LTYPE
  2
BATTING
 70
     0
  3
Batting SSSSSSSSSSSSSSSSSSSSSSSSSSSSSSSSSSSSSSS
 72
    65
 73
     4
 40
10.16254
 49
0.00254
 49
-2.54
 49
-5.08
 49
-2.54
  0
LTYPE
  2
DASHED2
 70
     0
  3
Dashed (0.5x) _ _ _ _ _ _ _ _ _ _ _ _ _ _ _ _ _
 72
    65
 73
     2
 40
9.525
 49
6.35
 49
-3.175
  0
LTYPE
  2
FENCELINE1
 70
     0
  3
Fenceline circle -0-----0----0-----0----0-----0
 72
    65
 73
     4
 40
36.83
 49
3.81
 49
-2.54
 49
-2.54
 49
27.94
  0
LTYPE
  2
FENCELINE2
 70
     0
  3
Fenceline square -[]-----[]----[]-----[]----[]-
 72
    65
 73
     4
 40
36.83
 49
3.81
 49
-2.54
 49
-2.54
 49
27.94
  0
LTYPE
  2
TRACKS
 70
     0
  3
Tracks -|-|-|-|-|-|-|-|-|-|-|-|-|-|-|-|-|-|-|-|
 72
    65
 73
     2
 40
7.62
 49
3.81
 49
3.81
  0
LTYPE
  2
ZIGZAG
 70
     0
  3
Zig zag /\/\/\/\/\/\/\/\/\/\/\/\/\/\/\/\/\/\/\/
 72
    65
 73
     4
 40
20.32254
 49
0.00254
 49
-5.08
 49
-10.16
 49
-5.08
  0
LTYPE
  2
BORDER2
 70
     0
  3
Border (0.5x) __.__.__.__.__.__.__.__.__.__.__.
 72
    65
 73
     6
 40
22.225
 49
6.35
 49
-3.175
 49
6.35
 49
-3.175
 49
0.0
 49
-3.175
  0
ENDTAB
  0
TABLE
  2
LAYER
 70
    38
  0
LAYER
  2
0
 70
     0
 62
     7
  6
CONTINUOUS
  0
LAYER
  2
1DIM
 70
     0
 62
     8
  6
CONTINUOUS
  0
LAYER
  2
2VIEWPORT
 70
     0
 62
    -1
  6
CONTINUOUS
  0
LAYER
  2
01
 70
     0
 62
     1
  6
CONTINUOUS
  0
LAYER
  2
DEFPOINTS
 70
     0
 62
     7
  6
CONTINUOUS
  0
LAYER
  2
1HIDDEN
 70
     0
 62
     8
  6
HIDDEN
  0
LAYER
  2
1PHANTOM
 70
     0
 62
   254
  6
PHANTOM2
  0
LAYER
  2
03
 70
     0
 62
     3
  6
CONTINUOUS
  0
LAYER
  2
02
 70
     0
 62
     2
  6
CONTINUOUS
  0
LAYER
  2
1TEXT
 70
     0
 62
   201
  6
CONTINUOUS
  0
LAYER
  2
04
 70
     0
 62
     4
  6
CONTINUOUS
  0
LAYER
  2
POINT
 70
     0
 62
     7
  6
CONTINUOUS
  0
LAYER
  2
1HATCH
 70
     0
 62
     8
  6
CONTINUOUS
  0
LAYER
  2
05
 70
     0
 62
     5
  6
CONTINUOUS
  0
LAYER
  2
06
 70
     0
 62
     6
  6
CONTINUOUS
  0
LAYER
  2
07
 70
     0
 62
   143
  6
CONTINUOUS
  0
LAYER
  2
08
 70
     0
 62
    95
  6
CONTINUOUS
  0
LAYER
  2
09
 70
     0
 62
    15
  6
CONTINUOUS
  0
LAYER
  2
10
 70
     0
 62
   213
  6
CONTINUOUS
  0
LAYER
  2
11
 70
     0
 62
     7
  6
CONTINUOUS
  0
LAYER
  2
1CENTER
 70
     0
 62
   221
  6
CONTINUOUS
  0
LAYER
  2
1DIM1
 70
     0
 62
   221
  6
CONTINUOUS
  0
LAYER
  2
1DIM2
 70
     0
 62
   254
  6
CONTINUOUS
  0
LAYER
  2
1DIM3
 70
     0
 62
     8
  6
CONTINUOUS
  0
LAYER
  2
2BATTING
 70
     0
 62
     7
  6
BATTING
  0
LAYER
  2
2FENCELINE1
 70
     0
 62
     7
  6
FENCELINE1
  0
LAYER
  2
2FENCELINE2
 70
     0
 62
     7
  6
FENCELINE2
  0
LAYER
  2
2TRACKS
 70
     0
 62
     7
  6
TRACKS
  0
LAYER
  2
2ZIGZAG
 70
     0
 62
     7
  6
ZIGZAG
  0
LAYER
  2
2HADAN
 70
     0
 62
     7
  6
HADAN
  0
LAYER
  2
1TEXT2
 70
     0
 62
   221
  6
CONTINUOUS
  0
LAYER
  2
99WAKU
 70
     0
 62
   253
  6
CONTINUOUS
  0
LAYER
  2
MIDFINE
 70
     0
 62
     9
  6
CONTINUOUS
  0
LAYER
  2
THICK
 70
     0
 62
   252
  6
CONTINUOUS
  0
LAYER
  2
ZZ
 70
     0
 62
    -8
  6
CONTINUOUS
  0
LAYER
  2
ZZXX
 70
     0
 62
   243
  6
CONTINUOUS
  0
LAYER
  2
MAKE2D$VISIBLE$LINES
 70
     0
 62
     7
  6
CONTINUOUS
  0
LAYER
  2
MAKE2D$VISIBLE$TANGENTS
 70
     0
 62
     7
  6
CONTINUOUS
  0
ENDTAB
  0
TABLE
  2
STYLE
 70
     4
  0
STYLE
  2
STANDARD
 70
     0
 40
0.0
 41
1.0
 50
0.0
 71
     0
 42
4.0
  3
romans.shx
  4
extfont2.shx
  0
STYLE
  2
KAI
 70
     0
 40
0.0
 41
1.0
 50
0.0
 71
     0
 42
4.0
  3
HGSeikaishotaiPRO.ttf
  4

  0
STYLE
  2

 70
     1
 40
0.2
 41
1.0
 50
0.0
 71
     0
 42
4.0
  3
ltypeshp.shx
  4

  0
STYLE
  2
TATE2
 70
     4
 40
0.0
 41
1.0
 50
0.0
 71
     0
 42
4.0
  3
romans.shx
  4
@extfont2.shx
  0
ENDTAB
  0
TABLE
  2
VIEW
 70
     0
  0
ENDTAB
  0
ENDSEC
  0
SECTION
  2
BLOCKS
  0
BLOCK
  8
0
  2
_OPEN30
 70
     0
 10
0.0
 20
0.0
  0
LINE
  8
0
  6
BYBLOCK
 62
     0
 10
-1.0
 20
0.26794919
 11
0.0
 21
0.0
  0
LINE
  8
0
  6
BYBLOCK
 62
     0
 10
0.0
 20
0.0
 11
-1.0
 21
-0.26794919
  0
LINE
  8
0
  6
BYBLOCK
 62
     0
 10
0.0
 20
0.0
 11
-1.0
 21
0.0
  0
ENDBLK
  8
0
  0
BLOCK
  8
0
  2
NOCIRCLE
 70
     2
 10
0.0
 20
0.0
  0
CIRCLE
  8
0
  6
BYBLOCK
 62
     0
 10
0.0
 20
0.0
 40
4.2
  0
ATTDEF
  8
1TEXT
 10
-1.904761904762
 20
-2.0
 40
4.0
  1
0
 72
     4
 11
0.0
 21
0.0
  3
NO.
  2
NO
 70
     0
  0
ENDBLK
  8
0
  0
BLOCK
  8
0
  2
_OPEN
 70
     0
 10
0.0
 20
0.0
  0
LINE
  8
0
  6
BYBLOCK
 62
     0
 10
-1.0
 20
0.166667
 11
0.0
 21
0.0
  0
LINE
  8
0
  6
BYBLOCK
 62
     0
 10
-1.0
 20
-0.166667
 11
0.0
 21
0.0
  0
LINE
  8
0
  6
BYBLOCK
 62
     0
 10
0.0
 20
0.0
 11
-1.0
 21
0.0
  0
ENDBLK
  8
0
  0
BLOCK
  8
0
  2
YA__
 70
     0
 10
0.0
 20
0.0
  0
INSERT
  8
0
  2
YA_
 10
0.0
 20
0.0
 30
0.0
 50
180.0
  0
ENDBLK
  8
0
  0
BLOCK
  8
0
  2
YA_
 70
     0
 10
0.0
 20
0.0
  0
LINE
  8
0
 10
-5.598760219962
 20
0.622116757674
 11
-2.488360049962
 21
0.622116757674
  0
LINE
  8
0
 10
-5.598760219962
 20
-0.622043242326
 11
-2.488359989962
 21
-0.622043242326
  0
LINE
  8
0
 10
-5.598760219962
 20
0.622116757674
 11
-5.598760219962
 21
-0.622043242326
  0
LINE
  8
0
 10
-2.488360079962
 20
1.346879757674
 11
-2.488360049962
 21
0.622116757674
  0
LINE
  8
0
 10
0.155480482306
 20
-1.993947296099
 11
0.155480380551
 21
1.993947304034
  0
LINE
  8
0
 10
-0.000039515118
 20
-1.99999999961
 11
-0.000039719246
 21
1.999999999606
  0
LINE
  8
0
 10
-0.155559515297
 20
-1.993941131829
 11
-0.155559619962
 21
0.000036757674
  0
LINE
  8
0
 10
-0.155559619962
 20
0.000036757674
 11
-0.155559718965
 21
1.99394111594
  0
LINE
  8
0
 10
-2.488359989962
 20
-0.622043242326
 11
-2.488359959962
 21
-1.346806242326
  0
LINE
  8
0
 10
-0.155559619962
 20
0.000036757674
 11
-2.488360199962
 21
-1.346806242326
  0
LINE
  8
0
 10
-0.155559619962
 20
0.000036757674
 11
-2.488360079962
 21
1.346879757674
  0
POINT
  8
POINT
 10
0.0
 20
0.0
 30
0.0
  0
ENDBLK
  8
0
  0
BLOCK
  8
0
  2
金属脚
 70
     0
 10
0.0
 20
0.0
  0
LINE
  8
0
  6
BYBLOCK
 62
     0
 10
0.0
 20
0.0
 11
125.0
 21
0.0
  0
LINE
  8
0
  6
BYBLOCK
 62
     0
 10
7.011342610203
 20
-155.999982357025
 11
23.011342610203
 21
-155.999982357025
  0
LINE
  8
0
  6
BYBLOCK
 62
     0
 10
7.011342610203
 20
-155.999982357025
 11
7.011342610203
 21
-145.999982357025
  0
LINE
  8
0
  6
BYBLOCK
 62
     0
 10
23.011342610203
 20
-155.999982357025
 11
23.011342610218
 21
-145.999982357025
  0
LINE
  8
0
  6
BYBLOCK
 62
     0
 10
4.0
 20
-145.999982357025
 11
22.0
 21
-145.999982357025
  0
LINE
  8
0
  6
BYBLOCK
 62
     0
 10
4.0
 20
-5.999982357025
 11
4.0
 21
-145.999982357025
  0
LINE
  8
0
  6
BYBLOCK
 62
     0
 10
22.0
 20
-5.999982357025
 11
104.0
 21
-5.999982357025
  0
LINE
  8
0
  6
BYBLOCK
 62
     0
 10
22.0
 20
-145.999982357025
 11
26.0
 21
-145.999982357025
  0
ARC
  8
0
  6
BYBLOCK
 62
     0
 10
31.0
 20
-32.999982357025
 40
5.0
 50
90.0
 51
180.0
  0
LINE
  8
0
  6
BYBLOCK
 62
     0
 10
26.0
 20
-145.999982357025
 11
26.0
 21
-32.999982357025
  0
LINE
  8
0
  6
BYBLOCK
 62
     0
 10
31.0
 20
-27.999982357025
 11
104.0
 21
-27.999982357025
  0
LINE
  8
0
  6
BYBLOCK
 62
     0
 10
104.0
 20
-27.999982357025
 11
104.0
 21
-5.999982357025
  0
LINE
  8
0
  6
BYBLOCK
 62
     0
 10
125.0
 20
-5.999982357025
 11
119.999885559082
 21
-5.999982357025
  0
LINE
  8
0
  6
BYBLOCK
 62
     0
 10
125.0
 20
-5.999982357025
 11
125.0
 21
0.0
  0
LINE
  8
0
  6
BYBLOCK
 62
     0
 10
119.999885559082
 20
-5.999982357025
 11
0.0
 21
-5.999982357025
  0
LINE
  8
0
  6
BYBLOCK
 62
     0
 10
0.0
 20
-5.999982357025
 11
0.0
 21
0.0
  0
ENDBLK
  8
0
  0
BLOCK
  8
0
  2
A-A
 70
     0
 10
0.0
 20
0.0
  0
LINE
  8
0
 10
0.0
 20
0.0
 11
53.759996799999
 21
0.0
  0
LINE
  8
0
 10
8.0321632
 20
10.63999856
 11
11.2933376
 21
1.68
  0
LINE
  8
0
 10
3.36
 20
1.68000624
 11
6.6211696
 21
10.63998944
  0
LINE
  8
0
 10
9.8630848
 20
1.68
 11
11.2933392
 21
1.68
  0
LINE
  8
0
 10
8.905750399999
 20
4.31024896
 11
9.8630848
 21
1.67999952
  0
LINE
  8
0
 10
4.7902528
 20
1.68000016
 11
5.7475856
 21
4.31024864
  0
LINE
  8
0
 10
3.36
 20
1.68
 11
4.7902528
 21
1.68
  0
LINE
  8
0
 10
5.7475856
 20
4.31024928
 11
8.905750399999
 21
4.31024928
  0
LINE
  8
0
 10
6.171791999999
 20
5.47574928
 11
8.4815424
 21
5.47574928
  0
LINE
  8
0
 10
6.171791999999
 20
5.4757488
 11
7.3266672
 21
8.64873968
  0
LINE
  8
0
 10
7.326668799999
 20
8.64873888
 11
8.481544
 21
5.4757488
  0
LINE
  8
0
 10
12.678397759999
 20
5.57759664
 11
16.441594239999
 21
5.57759664
  0
LINE
  8
0
 10
12.678397759999
 20
6.65279616
 11
16.441594239999
 21
6.65279616
  0
ARC
  8
0
 10
12.678397759999
 20
5.93599664
 40
0.3583999840000001
 50
179.99994
 51
270.0
  0
ARC
  8
0
 10
12.678397759999
 20
6.29439616
 40
0.3583999840000001
 50
90.0
 51
179.99994
  0
LINE
  8
0
 10
12.319997759999
 20
6.29439616
 11
12.319997759999
 21
5.93599664
  0
ARC
  8
0
 10
16.441594239999
 20
6.29439616
 40
0.3583999840000001
 50
0.0
 51
90.0
  0
ARC
  8
0
 10
16.441594239999
 20
5.93599664
 40
0.3583999840000001
 50
270.0
 51
0.0
  0
LINE
  8
0
 10
16.79999424
 20
6.29439616
 11
16.79999424
 21
5.93599664
  0
LINE
  8
0
 10
6.621172799999
 20
10.63999856
 11
8.0321632
 21
10.63999856
  0
LINE
  8
0
 10
25.952162927999
 20
10.63999936
 11
29.21333792
 21
1.68000064
  0
LINE
  8
0
 10
21.279999519999
 20
1.68000528
 11
24.541168639999
 21
10.639988
  0
LINE
  8
0
 10
23.667586079999
 20
4.31024928
 11
26.8257509616
 21
4.31024928
  0
LINE
  8
0
 10
22.7102536
 20
1.67999904
 11
23.667586559999
 21
4.31024784
  0
LINE
  8
0
 10
21.28000064
 20
1.68
 11
22.71025168
 21
1.68
  0
LINE
  8
0
 10
24.09179248
 20
5.47574928
 11
26.401542576
 21
5.47574928
  0
LINE
  8
0
 10
24.091794239999
 20
5.475748
 11
25.24666896
 21
8.64873888
  0
LINE
  8
0
 10
25.2466664
 20
8.64873968
 11
26.401541424
 21
5.475748
  0
LINE
  8
0
 10
26.8257489648
 20
4.31024816
 11
27.783081824
 21
1.67999952
  0
LINE
  8
0
 10
27.783083439999
 20
1.68
 11
29.21333888
 21
1.68
  0
POINT
  8
0
 10
26.8799984
 20
0.0
 30
0.0
  0
POINT
  8
0
 10
26.8799984
 20
0.0
 30
0.0
  0
LINE
  8
0
 10
24.541171999999
 20
10.63999856
 11
25.952163024
 21
10.63999856
  0
TEXT
  8
0
 10
35.978853279999
 20
1.99199984
 40
8.0
  1
断面
 41
0.8643459
  0
ENDBLK
  8
0
  0
BLOCK
  8
0
  2
AA
 70
     0
 10
0.0
 20
0.0
  0
LINE
  8
0
 10
0.000001680067
 20
0.00000565232
 11
2.9117599
 21
7.9999905
  0
LINE
  8
0
 10
3.5416694
 20
6.2220893
 11
4.5728078
 21
3.3890617
  0
LINE
  8
0
 10
2.5105312
 20
3.3890617
 11
3.5416694
 21
6.2220888
  0
LINE
  8
0
 10
4.171576
 20
7.999999
 11
7.0833392
 21
0.000000048888
  0
LINE
  8
0
 10
2.1317739
 20
2.3484368
 11
4.9515643
 21
2.3484368
  0
LINE
  8
0
 10
2.5105309
 20
3.3890619
 11
4.5728073
 21
3.3890619
  0
LINE
  8
0
 10
0.000001907349
 20
0.0
 11
1.2770123
 21
0.0
  0
POINT
  8
0
 10
0.0
 20
0.0
 30
0.0
  0
LINE
  8
0
 10
1.2770127
 20
-0.000000009364
 11
2.1317742
 21
2.3484364
  0
LINE
  8
0
 10
5.8063259
 20
0.0
 11
7.0833392
 21
0.0
  0
LINE
  8
0
 10
4.9515648
 20
2.3484368
 11
5.8063259
 21
0.000000268506
  0
LINE
  8
0
 10
2.9117632
 20
7.999999
 11
4.171576
 21
7.999999
  0
ENDBLK
  8
0
  0
BLOCK
  8
0
  2
訂正1
 70
     0
 10
0.0
 20
0.0
  0
LINE
  8
1HATCH
 10
0.000000135843
 20
2.025
 11
2.33826804
 21
-2.0250009
  0
LINE
  8
1HATCH
 10
-2.33826867
 20
-2.025
 11
2.33826849
 21
-2.025
  0
TEXT
  8
1TEXT
 10
-0.434499620191
 20
-1.510450886077
 40
1.8
  1
1
 41
0.66666667
 72
     1
 11
0.051214667951
 21
-1.510450886077
  0
LINE
  8
1HATCH
 10
0.000000476316
 20
2.02500018
 11
-2.33826849
 21
-2.02499937
  0
ENDBLK
  8
0
  0
BLOCK
  8
0
  2
*D413
 70
     1
 10
0.0
 20
0.0
  0
LINE
  8
1DIM
 10
39723.2741440511
 20
-6074.826543530114
 11
39653.2741440511
 21
-6074.826543530114
  0
LINE
  8
1DIM
 10
39723.2741440511
 20
-6664.82651730407
 11
39653.2741440511
 21
-6664.82651730407
  0
LINE
  8
1DIM
 10
39673.2741440511
 20
-6114.826543530114
 11
39673.2741440511
 21
-6624.82651730407
  0
INSERT
  8
1DIM
  2
_OPEN30
 10
39673.2741440511
 20
-6074.826543530114
 30
0.0
 41
40.0
 42
40.0
 43
40.0
 50
90.0
  0
INSERT
  8
1DIM
  2
_OPEN30
 10
39673.2741440511
 20
-6664.82651730407
 30
0.0
 41
40.0
 42
40.0
 43
40.0
 50
270.0
  0
TEXT
  8
1DIM
  6
CONTINUOUS
 62
   201
 10
39659.2741440511
 20
-6469.826530417093
 40
70.0
  1
590
 50
90.0
  0
POINT
  8
DEFPOINTS
 62
     0
 10
39823.2741440511
 20
-6074.826543530114
 30
0.0
  0
POINT
  8
DEFPOINTS
 62
     0
 10
39823.2741440511
 20
-6664.82651730407
 30
0.0
  0
POINT
  8
DEFPOINTS
 62
     0
 10
39673.2741440511
 20
-6664.82651730407
 30
0.0
  0
ENDBLK
  8
0
  0
BLOCK
  8
0
  2
*D414
 70
     1
 10
0.0
 20
0.0
  0
LINE
  8
1DIM
 10
39823.2741440511
 20
-6764.82651730407
 11
39823.2741440511
 21
-6834.82651730407
  0
LINE
  8
1DIM
 10
40573.40160987387
 20
-6764.82651730407
 11
40573.40160987387
 21
-6834.82651730407
  0
LINE
  8
1DIM
 10
39863.2741440511
 20
-6814.82651730407
 11
40533.40160987387
 21
-6814.82651730407
  0
INSERT
  8
1DIM
  2
_OPEN30
 10
39823.2741440511
 20
-6814.82651730407
 30
0.0
 41
40.0
 42
40.0
 43
40.0
 50
180.0
  0
INSERT
  8
1DIM
  2
_OPEN30
 10
40573.40160987387
 20
-6814.82651730407
 30
0.0
 41
40.0
 42
40.0
 43
40.0
  0
TEXT
  8
1DIM
  6
CONTINUOUS
 62
   201
 10
40098.33787696248
 20
-6800.82651730407
 40
70.0
  1
750
  0
POINT
  8
DEFPOINTS
 62
     0
 10
39823.2741440511
 20
-6664.82651730407
 30
0.0
  0
POINT
  8
DEFPOINTS
 62
     0
 10
40573.40160987387
 20
-6664.82651730407
 30
0.0
  0
POINT
  8
DEFPOINTS
 62
     0
 10
40573.40160987387
 20
-6814.82651730407
 30
0.0
  0
ENDBLK
  8
0
  0
BLOCK
  8
0
  2
*D415
 70
     1
 10
0.0
 20
0.0
  0
LINE
  8
1DIM
 10
40673.40160987387
 20
-5871.841222201911
 11
40743.40160987387
 21
-5871.841222201911
  0
LINE
  8
1DIM
 10
40673.40160987387
 20
-6664.82651730407
 11
40743.40160987387
 21
-6664.82651730407
  0
LINE
  8
1DIM
 10
40723.40160987387
 20
-5911.841222201911
 11
40723.40160987387
 21
-6624.82651730407
  0
INSERT
  8
1DIM
  2
_OPEN30
 10
40723.40160987387
 20
-5871.841222201911
 30
0.0
 41
40.0
 42
40.0
 43
40.0
 50
90.0
  0
INSERT
  8
1DIM
  2
_OPEN30
 10
40723.40160987387
 20
-6664.82651730407
 30
0.0
 41
40.0
 42
40.0
 43
40.0
 50
270.0
  0
TEXT
  8
1DIM
  6
CONTINUOUS
 62
   201
 10
40709.40160987387
 20
-6368.333869752991
 40
70.0
  1
790
 50
90.0
  0
POINT
  8
DEFPOINTS
 62
     0
 10
40573.40160987387
 20
-5871.841222201911
 30
0.0
  0
POINT
  8
DEFPOINTS
 62
     0
 10
40573.40160987387
 20
-6664.82651730407
 30
0.0
  0
POINT
  8
DEFPOINTS
 62
     0
 10
40723.40160987387
 20
-6664.82651730407
 30
0.0
  0
ENDBLK
  8
0
  0
BLOCK
  8
0
  2
*D416
 70
     1
 10
0.0
 20
0.0
  0
LINE
  8
1DIM
 10
39823.2741440511
 20
-5771.841222201911
 11
39823.2741440511
 21
-5701.841222201911
  0
LINE
  8
1DIM
 10
40322.8093781187
 20
-5771.841222201911
 11
40322.8093781187
 21
-5701.841222201911
  0
LINE
  8
1DIM
 10
39863.2741440511
 20
-5721.841222201911
 11
40282.8093781187
 21
-5721.841222201911
  0
INSERT
  8
1DIM
  2
_OPEN30
 10
39823.2741440511
 20
-5721.841222201911
 30
0.0
 41
40.0
 42
40.0
 43
40.0
 50
180.0
  0
INSERT
  8
1DIM
  2
_OPEN30
 10
40322.8093781187
 20
-5721.841222201911
 30
0.0
 41
40.0
 42
40.0
 43
40.0
  0
TEXT
  8
1DIM
  6
CONTINUOUS
 62
   201
 10
39973.0417610849
 20
-5707.841222201911
 40
70.0
  1
500
  0
POINT
  8
DEFPOINTS
 62
     0
 10
39823.2741440511
 20
-5871.841222201911
 30
0.0
  0
POINT
  8
DEFPOINTS
 62
     0
 10
40322.8093781187
 20
-5871.841222201911
 30
0.0
  0
POINT
  8
DEFPOINTS
 62
     0
 10
40322.8093781187
 20
-5721.841222201911
 30
0.0
  0
ENDBLK
  8
0
  0
BLOCK
  8
0
  2
*D425
 70
     1
 10
0.0
 20
0.0
  0
LINE
  8
1DIM
 10
37922.31460866944
 20
-6264.82651730407
 11
37852.31460866944
 21
-6264.82651730407
  0
LINE
  8
1DIM
 10
37922.31460866944
 20
-6664.82651730407
 11
37852.31460866944
 21
-6664.82651730407
  0
LINE
  8
1DIM
 10
37872.31460866944
 20
-6304.82651730407
 11
37872.31460866944
 21
-6624.82651730407
  0
INSERT
  8
1DIM
  2
_OPEN30
 10
37872.31460866944
 20
-6264.82651730407
 30
0.0
 41
40.0
 42
40.0
 43
40.0
 50
90.0
  0
INSERT
  8
1DIM
  2
_OPEN30
 10
37872.31460866944
 20
-6664.82651730407
 30
0.0
 41
40.0
 42
40.0
 43
40.0
 50
270.0
  0
TEXT
  8
1DIM
  6
CONTINUOUS
 62
   201
 10
37858.31460866944
 20
-6564.826517304071
 40
70.0
  1
400
 50
90.0
  0
POINT
  8
DEFPOINTS
 62
     0
 10
38022.31460866944
 20
-6264.82651730407
 30
0.0
  0
POINT
  8
DEFPOINTS
 62
     0
 10
38022.31460866944
 20
-6664.82651730407
 30
0.0
  0
POINT
  8
DEFPOINTS
 62
     0
 10
37872.31460866944
 20
-6664.82651730407
 30
0.0
  0
ENDBLK
  8
0
  0
BLOCK
  8
0
  2
*D426
 70
     1
 10
0.0
 20
0.0
  0
LINE
  8
1DIM
 10
38022.31460866944
 20
-6764.82651730407
 11
38022.31460866944
 21
-6834.82651730407
  0
LINE
  8
1DIM
 10
39323.26190446367
 20
-6764.82651730407
 11
39323.26190446367
 21
-6834.82651730407
  0
LINE
  8
1DIM
 10
38062.31460866944
 20
-6814.82651730407
 11
39283.26190446367
 21
-6814.82651730407
  0
INSERT
  8
1DIM
  2
_OPEN30
 10
38022.31460866944
 20
-6814.82651730407
 30
0.0
 41
40.0
 42
40.0
 43
40.0
 50
180.0
  0
INSERT
  8
1DIM
  2
_OPEN30
 10
39323.26190446367
 20
-6814.82651730407
 30
0.0
 41
40.0
 42
40.0
 43
40.0
  0
TEXT
  8
1DIM
  6
CONTINUOUS
 62
   201
 10
38534.45492323321
 20
-6800.82651730407
 40
70.0
  1
1300
  0
POINT
  8
DEFPOINTS
 62
     0
 10
38022.31460866944
 20
-6664.82651730407
 30
0.0
  0
POINT
  8
DEFPOINTS
 62
     0
 10
39323.26190446367
 20
-6664.82651730407
 30
0.0
  0
POINT
  8
DEFPOINTS
 62
     0
 10
39323.26190446367
 20
-6814.82651730407
 30
0.0
  0
ENDBLK
  8
0
  0
BLOCK
  8
0
  2
*D427
 70
     1
 10
0.0
 20
0.0
  0
LINE
  8
1DIM
 10
38152.27215455271
 20
-5772.499168020363
 11
38152.27215455271
 21
-5701.841222201911
  0
LINE
  8
1DIM
 10
39192.90940621212
 20
-5772.470894332817
 11
39192.90940621212
 21
-5701.841222201911
  0
LINE
  8
1DIM
 10
38192.27215455271
 20
-5721.841222201911
 11
39152.90940621212
 21
-5721.841222201911
  0
INSERT
  8
1DIM
  2
_OPEN30
 10
38152.27215455271
 20
-5721.841222201911
 30
0.0
 41
40.0
 42
40.0
 43
40.0
 50
180.0
  0
INSERT
  8
1DIM
  2
_OPEN30
 10
39192.90940621212
 20
-5721.841222201911
 30
0.0
 41
40.0
 42
40.0
 43
40.0
  0
TEXT
  8
1DIM
  6
CONTINUOUS
 62
   201
 10
38534.25744704908
 20
-5707.841222201911
 40
70.0
  1
1040
  0
POINT
  8
DEFPOINTS
 62
     0
 10
38152.27215455271
 20
-5872.499168020363
 30
0.0
  0
POINT
  8
DEFPOINTS
 62
     0
 10
39192.90940621212
 20
-5872.470894332817
 30
0.0
  0
POINT
  8
DEFPOINTS
 62
     0
 10
39192.90940621212
 20
-5721.841222201911
 30
0.0
  0
ENDBLK
  8
0
  0
ENDSEC
  0
SECTION
  2
ENTITIES
  0
LINE
  8
0
 10
38110.40940601443
 20
-6664.82651730407
 11
38075.40940601443
 21
-6664.82651730407
  0
POLYLINE
  8
0
 66
     1
  0
VERTEX
  8
0
 10
40487.41863152991
 20
-6074.826543530114
  0
VERTEX
  8
0
 10
40532.93863914023
 20
-5956.242864330895
 42
-0.312728412941
  0
VERTEX
  8
0
 10
40542.27439544211
 20
-5949.826543530114
  0
VERTEX
  8
0
 10
40563.40161941062
 20
-5949.826543530114
 42
-0.421776386743
  0
VERTEX
  8
0
 10
40573.40160987387
 20
-5959.826533993371
  0
VERTEX
  8
0
 10
40573.40160987387
 20
-6084.826533993371
  0
SEQEND
  8
0
  0
POLYLINE
  8
0
 66
     1
  0
VERTEX
  8
0
 10
40550.90163133154
 20
-6544.826519986279
  0
VERTEX
  8
0
 10
40550.90163133154
 20
-6664.82651730407
  0
VERTEX
  8
0
 10
40515.9016051055
 20
-6664.82651730407
  0
VERTEX
  8
0
 10
40495.90162417899
 20
-6544.826519986279
  0
SEQEND
  8
0
  0
POLYLINE
  8
0
 66
     1
  0
VERTEX
  8
0
 10
39915.90161106596
 20
-6544.826519986279
  0
VERTEX
  8
0
 10
39895.9016077877
 20
-6664.82651730407
  0
VERTEX
  8
0
 10
39860.90161136398
 20
-6664.82651730407
  0
VERTEX
  8
0
 10
39860.90161136398
 20
-6544.826519986279
  0
SEQEND
  8
0
  0
POLYLINE
  8
0
 66
     1
 70
     1
  0
VERTEX
  8
0
 10
40573.40160987387
 20
-6084.826533993371
  0
VERTEX
  8
0
 10
40573.40160987387
 20
-6544.826519986279
  0
VERTEX
  8
0
 10
39837.44760115279
 20
-6544.826519986279
  0
VERTEX
  8
0
 10
39837.44760115279
 20
-6089.826339742541
 42
-0.425405565861
  0
VERTEX
  8
0
 10
39852.44760081751
 20
-6074.826543530114
  0
VERTEX
  8
0
 10
40562.44761102481
 20
-6074.826543530114
 42
-0.369841049831
  0
SEQEND
  8
0
  0
DIMENSION
  8
1DIM
  2
*D413
 10
39673.2741440511
 20
-6664.82651730407
 11
39624.2741440511
 21
-6369.826530417092
 70
    32
 13
39823.2741440511
 23
-6074.826543530114
 33
0.0
 14
39823.2741440511
 24
-6664.82651730407
 34
0.0
 50
90.0
  0
DIMENSION
  8
1DIM
  2
*D414
 10
40573.40160987387
 20
-6814.82651730407
 11
40198.33787696248
 21
-6765.82651730407
 70
    32
 13
39823.2741440511
 23
-6664.82651730407
 33
0.0
 14
40573.40160987387
 24
-6664.82651730407
 34
0.0
  0
DIMENSION
  8
1DIM
  2
*D415
 10
40723.40160987387
 20
-6664.82651730407
 11
40674.40160987387
 21
-6268.333869752991
 70
    32
  1
790
 13
40573.40160987387
 23
-5871.841222201911
 33
0.0
 14
40573.40160987387
 24
-6664.82651730407
 34
0.0
 50
90.0
  0
LINE
  8
1HIDDEN
 10
40399.40161136397
 20
-6304.118630102427
 11
40487.41859691732
 21
-6074.826543530112
  0
POLYLINE
  8
0
 66
     1
  0
VERTEX
  8
0
 10
39838.40160953859
 20
-6286.81771955736
 42
0.090047911554
  0
VERTEX
  8
0
 10
39827.87478164749
 20
-6313.810945945431
 42
0.10272389388
  0
VERTEX
  8
0
 10
39830.5978957543
 20
-6428.584568251775
 42
0.202008015793
  0
VERTEX
  8
0
 10
39837.44760115279
 20
-6438.002309022521
  0
SEQEND
  8
0
  0
POLYLINE
  8
1HIDDEN
 66
     1
  0
VERTEX
  8
1HIDDEN
 10
40399.40161136399
 20
-6304.118630102427
 42
0.021426023471
  0
VERTEX
  8
1HIDDEN
 10
40137.31267350211
 20
-6269.375514561693
 42
0.036028515946
  0
VERTEX
  8
1HIDDEN
 10
39873.71793943749
 20
-6271.426271763205
 42
0.046505347099
  0
VERTEX
  8
1HIDDEN
 10
39854.92831514821
 20
-6274.96536165102
 42
0.148815603418
  0
VERTEX
  8
1HIDDEN
 10
39838.40160953859
 20
-6286.81771955736
  0
SEQEND
  8
1HIDDEN
  0
DIMENSION
  8
1DIM
  2
*D416
 10
40322.8093781187
 20
-5721.841222201911
 11
40073.0417610849
 21
-5672.841222201911
 70
    32
 13
39823.2741440511
 23
-5871.841222201911
 33
0.0
 14
40322.8093781187
 24
-5871.841222201911
 34
0.0
  0
POLYLINE
  8
0
 66
     1
  0
VERTEX
  8
0
 10
38152.92152503005
 20
-5005.766880176218
  0
VERTEX
  8
0
 10
38152.92152503005
 20
-5491.727178236684
 42
-0.413965955855
  0
VERTEX
  8
0
 10
38137.92153078095
 20
-5506.714043281896
  0
VERTEX
  8
0
 10
38037.56909261004
 20
-5506.714043617172
 42
-0.419950095054
  0
VERTEX
  8
0
 10
38022.5691471385
 20
-5491.714043952448
  0
VERTEX
  8
0
 10
38022.56914713851
 20
-4781.714033745152
 42
-0.43772166494
  0
VERTEX
  8
0
 10
38032.56913760176
 20
-4771.714043281894
  0
VERTEX
  8
0
 10
38142.92153078095
 20
-4771.714043281894
 42
-0.414154868071
  0
VERTEX
  8
0
 10
38152.92152503005
 20
-4781.656648790275
  0
VERTEX
  8
0
 10
38152.92152503005
 20
-4837.89467061721
  0
SEQEND
  8
0
  0
DIMENSION
  8
1DIM
  2
*D425
 10
37872.31460866944
 20
-6664.82651730407
 11
37823.31460866944
 21
-6464.82651730407
 70
    32
 13
38022.31460866944
 23
-6264.82651730407
 33
0.0
 14
38022.31460866944
 24
-6664.82651730407
 34
0.0
 50
90.0
  0
POLYLINE
  8
0
 10
0.0
 20
0.0
 30
0.0
 66
     1
 70
     8
  0
VERTEX
  8
0
 10
38152.90940605127
 20
-6244.388639603913
 30
0.0
 70
    32
  0
VERTEX
  8
0
 10
38152.90940604966
 20
-6244.388639700802
 30
0.0
 70
    32
  0
VERTEX
  8
0
 10
38152.90940604804
 20
-6244.388639797693
 30
0.0
 70
    32
  0
VERTEX
  8
0
 10
38152.90940604645
 20
-6244.388639894582
 30
0.0
 70
    32
  0
VERTEX
  8
0
 10
38152.90940604483
 20
-6244.388639991473
 30
0.0
 70
    32
  0
VERTEX
  8
0
 10
38152.90940604322
 20
-6244.388640088361
 30
0.0
 70
    32
  0
VERTEX
  8
0
 10
38152.9094060416
 20
-6244.388640185251
 30
0.0
 70
    32
  0
VERTEX
  8
0
 10
38152.90940604001
 20
-6244.388640282141
 30
0.0
 70
    32
  0
VERTEX
  8
0
 10
38152.90940603839
 20
-6244.388640379029
 30
0.0
 70
    32
  0
VERTEX
  8
0
 10
38152.90940603678
 20
-6244.38864047592
 30
0.0
 70
    32
  0
VERTEX
  8
0
 10
38152.90940603516
 20
-6244.388640572809
 30
0.0
 70
    32
  0
VERTEX
  8
0
 10
38152.90940603357
 20
-6244.388640669699
 30
0.0
 70
    32
  0
VERTEX
  8
0
 10
38152.90940603195
 20
-6244.388640766589
 30
0.0
 70
    32
  0
VERTEX
  8
0
 10
38152.90940603034
 20
-6244.388640863477
 30
0.0
 70
    32
  0
VERTEX
  8
0
 10
38152.90940602872
 20
-6244.388640960367
 30
0.0
 70
    32
  0
VERTEX
  8
0
 10
38152.90940602713
 20
-6244.388641057257
 30
0.0
 70
    32
  0
VERTEX
  8
0
 10
38152.90940602552
 20
-6244.388641154146
 30
0.0
 70
    32
  0
VERTEX
  8
0
 10
38152.9094060239
 20
-6244.388641251036
 30
0.0
 70
    32
  0
VERTEX
  8
0
 10
38152.90940602229
 20
-6244.388641347926
 30
0.0
 70
    32
  0
VERTEX
  8
0
 10
38152.90940602069
 20
-6244.388641444814
 30
0.0
 70
    32
  0
VERTEX
  8
0
 10
38152.90940601908
 20
-6244.388641541705
 30
0.0
 70
    32
  0
VERTEX
  8
0
 10
38152.90940601746
 20
-6244.388641638594
 30
0.0
 70
    32
  0
VERTEX
  8
0
 10
38152.90940601585
 20
-6244.388641735482
 30
0.0
 70
    32
  0
VERTEX
  8
0
 10
38152.90940601425
 20
-6244.388641832374
 30
0.0
 70
    32
  0
VERTEX
  8
0
 10
38152.90940601264
 20
-6244.388641929262
 30
0.0
 70
    32
  0
SEQEND
  8
0
  0
POLYLINE
  8
0
 66
     1
 70
     1
  0
VERTEX
  8
0
 10
38152.90940601482
 20
-6198.368655828032
 42
0.07026305415
  0
VERTEX
  8
0
 10
38149.65179002345
 20
-6170.144533049054
 42
0.101618697399
  0
VERTEX
  8
0
 10
38114.03888163114
 20
-6097.990633328257
 42
0.236601655473
  0
VERTEX
  8
0
 10
38066.67732555485
 20
-6074.826543530114
  0
VERTEX
  8
0
 10
38042.55699474429
 20
-6074.826543530114
 42
0.523240917751
  0
VERTEX
  8
0
 10
38023.79268196294
 20
-6101.747636896952
 42
-0.088362807038
  0
VERTEX
  8
0
 10
38052.90936786746
 20
-6264.826511343605
  0
VERTEX
  8
0
 10
38052.90936786746
 20
-6539.82651730407
 42
0.398337629729
  0
VERTEX
  8
0
 10
38057.9093630991
 20
-6544.826519986281
  0
VERTEX
  8
0
 10
38147.90939746022
 20
-6544.826519986263
 42
0.428549589901
  0
VERTEX
  8
0
 10
38152.90940601443
 20
-6539.82651730407
  0
VERTEX
  8
0
 10
38152.90940601482
 20
-6288.793305355087
  0
SEQEND
  8
0
  0
POLYLINE
  8
0
 66
     1
  0
VERTEX
  8
0
 10
38075.40940601443
 20
-6544.82651730407
  0
VERTEX
  8
0
 10
38075.40940601443
 20
-6664.82651730407
  0
VERTEX
  8
0
 10
38110.40940601443
 20
-6664.82651730407
  0
VERTEX
  8
0
 10
38110.40940601443
 20
-6664.82651730407
  0
VERTEX
  8
0
 10
38130.40940601443
 20
-6544.82651730407
  0
SEQEND
  8
0
  0
LINE
  8
0
 10
39192.57228214243
 20
-6440.364318556879
 11
38152.90940601459
 21
-6440.364318556879
  0
POLYLINE
  8
0
 66
     1
  0
VERTEX
  8
0
 10
38152.67807105363
 20
-6188.470186008296
  0
VERTEX
  8
0
 10
38152.60702868662
 20
-6186.040816739566
  0
VERTEX
  8
0
 10
38152.53035645105
 20
-6183.6116334137
  0
VERTEX
  8
0
 10
38152.44812657957
 20
-6181.182633645007
  0
VERTEX
  8
0
 10
38152.36041130482
 20
-6178.753815047788
  0
VERTEX
  8
0
 10
38152.26728285946
 20
-6176.325175236351
  0
VERTEX
  8
0
 10
38152.16881347615
 20
-6173.896711825001
  0
VERTEX
  8
0
 10
38152.06507538754
 20
-6171.468422428045
  0
VERTEX
  8
0
 10
38151.95614082628
 20
-6169.040304659785
  0
VERTEX
  8
0
 10
38151.84208202502
 20
-6166.61235613453
  0
VERTEX
  8
0
 10
38151.72297121644
 20
-6164.184574466583
  0
VERTEX
  8
0
 10
38151.59888063317
 20
-6161.756957270252
  0
VERTEX
  8
0
 10
38151.46988250786
 20
-6159.32950215984
  0
VERTEX
  8
0
 10
38151.33604907318
 20
-6156.902206749653
  0
VERTEX
  8
0
 10
38151.19745256178
 20
-6154.475068653997
  0
VERTEX
  8
0
 10
38151.05416520631
 20
-6152.048085487179
  0
VERTEX
  8
0
 10
38150.90625923942
 20
-6149.621254863502
  0
VERTEX
  8
0
 10
38150.75380689378
 20
-6147.194574397272
  0
VERTEX
  8
0
 10
38150.59688040203
 20
-6144.768041702795
  0
VERTEX
  8
0
 10
38150.43555199683
 20
-6142.341654394375
  0
VERTEX
  8
0
 10
38150.26989391083
 20
-6139.915410086321
  0
VERTEX
  8
0
 10
38150.09997837669
 20
-6137.489306392933
  0
VERTEX
  8
0
 10
38149.92587762706
 20
-6135.063340928523
  0
VERTEX
  8
0
 10
38149.74766389459
 20
-6132.63751130739
  0
VERTEX
  8
0
 10
38149.56540941194
 20
-6130.211815143845
  0
VERTEX
  8
0
 10
38149.37918641176
 20
-6127.78625005219
  0
VERTEX
  8
0
 10
38149.18906712671
 20
-6125.360813646732
  0
VERTEX
  8
0
 10
38148.99512378944
 20
-6122.935503541775
  0
VERTEX
  8
0
 10
38148.79742863261
 20
-6120.510317351626
  0
VERTEX
  8
0
 10
38148.59605388887
 20
-6118.08525269059
  0
VERTEX
  8
0
 10
38148.39107179086
 20
-6115.660307172972
  0
VERTEX
  8
0
 10
38148.18255457126
 20
-6113.235478413079
  0
VERTEX
  8
0
 10
38147.97057446271
 20
-6110.810764025215
  0
VERTEX
  8
0
 10
38147.75520369785
 20
-6108.386161623685
  0
VERTEX
  8
0
 10
38147.53651450936
 20
-6105.961668822795
  0
VERTEX
  8
0
 10
38147.31457912988
 20
-6103.537283236852
  0
VERTEX
  8
0
 10
38147.08946979207
 20
-6101.113002480159
  0
VERTEX
  8
0
 10
38146.86125872858
 20
-6098.688824167024
  0
VERTEX
  8
0
 10
38146.63001817207
 20
-6096.26474591175
  0
VERTEX
  8
0
 10
38146.39582035519
 20
-6093.840765328644
  0
VERTEX
  8
0
 10
38146.15873751058
 20
-6091.41688003201
  0
VERTEX
  8
0
 10
38145.91884187092
 20
-6088.993087636157
  0
VERTEX
  8
0
 10
38145.67620566885
 20
-6086.569385755386
  0
VERTEX
  8
0
 10
38145.43090113702
 20
-6084.145772004005
  0
VERTEX
  8
0
 10
38145.18300050809
 20
-6081.72224399632
  0
VERTEX
  8
0
 10
38144.93257601473
 20
-6079.298799346634
  0
VERTEX
  8
0
 10
38144.67969988956
 20
-6076.875435669255
  0
VERTEX
  8
0
 10
38144.42444436525
 20
-6074.452150578486
  0
VERTEX
  8
0
 10
38144.16688167446
 20
-6072.028941688635
  0
VERTEX
  8
0
 10
38143.90708404985
 20
-6069.605806614005
  0
VERTEX
  8
0
 10
38143.64512372405
 20
-6067.182742968905
  0
VERTEX
  8
0
 10
38143.38107292973
 20
-6064.759748367636
  0
VERTEX
  8
0
 10
38143.11500389955
 20
-6062.336820424507
  0
VERTEX
  8
0
 10
38142.84698886616
 20
-6059.913956753821
  0
VERTEX
  8
0
 10
38142.5771000622
 20
-6057.491154969886
  0
VERTEX
  8
0
 10
38142.30540972033
 20
-6055.068412687005
  0
VERTEX
  8
0
 10
38142.03199007322
 20
-6052.645727519485
  0
VERTEX
  8
0
 10
38141.75691335351
 20
-6050.223097081631
  0
VERTEX
  8
0
 10
38141.48025179384
 20
-6047.800518987749
  0
VERTEX
  8
0
 10
38141.20207762691
 20
-6045.377990852144
  0
VERTEX
  8
0
 10
38140.92246308532
 20
-6042.955510289121
  0
VERTEX
  8
0
 10
38140.64148040175
 20
-6040.533074912986
  0
VERTEX
  8
0
 10
38140.35920180887
 20
-6038.110682338044
  0
VERTEX
  8
0
 10
38140.0756995393
 20
-6035.688330178602
  0
VERTEX
  8
0
 10
38139.79104582572
 20
-6033.266016048962
  0
VERTEX
  8
0
 10
38139.50531290078
 20
-6030.843737563435
  0
VERTEX
  8
0
 10
38139.21857299711
 20
-6028.421492336321
  0
VERTEX
  8
0
 10
38138.9308983474
 20
-6025.999277981929
  0
VERTEX
  8
0
 10
38138.64236118428
 20
-6023.577092114561
  0
VERTEX
  8
0
 10
38138.35303374041
 20
-6021.154932348527
  0
VERTEX
  8
0
 10
38138.06298824844
 20
-6018.732796298129
  0
VERTEX
  8
0
 10
38137.77229694105
 20
-6016.310681577675
  0
VERTEX
  8
0
 10
38137.48103205085
 20
-6013.888585801466
  0
VERTEX
  8
0
 10
38137.18926581053
 20
-6011.466506583813
  0
VERTEX
  8
0
 10
38136.89707045273
 20
-6009.04444153902
  0
VERTEX
  8
0
 10
38136.60451821009
 20
-6006.622388281389
  0
VERTEX
  8
0
 10
38136.3116813153
 20
-6004.20034442523
  0
VERTEX
  8
0
 10
38136.01863200098
 20
-6001.778307584845
  0
VERTEX
  8
0
 10
38135.7254424998
 20
-5999.356275374542
  0
VERTEX
  8
0
 10
38134.01504469724
 20
-5986.98570618773
  0
VERTEX
  8
0
 10
38125.2617356266
 20
-5925.521590437403
  0
VERTEX
  8
0
 10
38124.8950360775
 20
-5923.11007707866
  0
VERTEX
  8
0
 10
38124.53264846181
 20
-5920.698244334224
  0
VERTEX
  8
0
 10
38124.17718855346
 20
-5918.285898453239
  0
VERTEX
  8
0
 10
38123.83127212637
 20
-5915.872845684858
  0
VERTEX
  8
0
 10
38123.49751495444
 20
-5913.458892278229
  0
VERTEX
  8
0
 10
38123.17853281159
 20
-5911.0438444825
  0
VERTEX
  8
0
 10
38122.87694147172
 20
-5908.627508546822
  0
VERTEX
  8
0
 10
38122.59535670875
 20
-5906.209690720342
  0
VERTEX
  8
0
 10
38122.33639429659
 20
-5903.79019725221
  0
VERTEX
  8
0
 10
38122.10267000915
 20
-5901.368834391576
  0
VERTEX
  8
0
 10
38121.89679962034
 20
-5898.945408387589
  0
VERTEX
  8
0
 10
38121.72139890408
 20
-5896.519725489396
  0
VERTEX
  8
0
 10
38121.57908363427
 20
-5894.091591946148
  0
VERTEX
  8
0
 10
38121.47142250496
 20
-5891.660891564392
  0
VERTEX
  8
0
 10
38121.39192326528
 20
-5889.228105226332
  0
VERTEX
  8
0
 10
38121.33035060862
 20
-5886.793991062997
  0
VERTEX
  8
0
 10
38121.5320639126
 20
-5884.365902061631
  0
VERTEX
  8
0
 10
38122.52281070063
 20
-5881.99551669779
  0
VERTEX
  8
0
 10
38123.63314800084
 20
-5879.77746124175
  0
VERTEX
  8
0
 10
38124.95858947569
 20
-5877.833397413434
  0
VERTEX
  8
0
 10
38126.59082510836
 20
-5876.280116473536
  0
VERTEX
  8
0
 10
38128.54511905685
 20
-5875.137061333859
  0
VERTEX
  8
0
 10
38130.76620905002
 20
-5874.333840986661
  0
VERTEX
  8
0
 10
38133.19619140409
 20
-5873.796699891863
  0
VERTEX
  8
0
 10
38135.77716243522
 20
-5873.451882509381
  0
VERTEX
  8
0
 10
38138.45121845965
 20
-5873.225633299136
  0
VERTEX
  8
0
 10
38142.55312849639
 20
-5872.979266825138
  0
VERTEX
  8
0
 10
38148.69853202908
 20
-5872.665120491144
  0
VERTEX
  8
0
 10
38154.68255014228
 20
-5872.39434934169
  0
VERTEX
  8
0
 10
38160.50824746072
 20
-5872.165248307897
  0
VERTEX
  8
0
 10
38166.17868860911
 20
-5871.976112320885
  0
VERTEX
  8
0
 10
38171.69693821215
 20
-5871.825236311777
  0
VERTEX
  8
0
 10
38177.06606089459
 20
-5871.710915211691
  0
VERTEX
  8
0
 10
38182.28912128112
 20
-5871.63144395175
  0
VERTEX
  8
0
 10
38187.36918399646
 20
-5871.585117463076
  0
VERTEX
  8
0
 10
38192.30931366533
 20
-5871.570230676787
  0
VERTEX
  8
0
 10
38197.11257491244
 20
-5871.585078524006
  0
VERTEX
  8
0
 10
38201.78203236251
 20
-5871.627955935855
  0
VERTEX
  8
0
 10
38206.32075064026
 20
-5871.697157843451
  0
VERTEX
  8
0
 10
38210.7317943704
 20
-5871.790979177918
  0
VERTEX
  8
0
 10
38215.01822817766
 20
-5871.907714870377
  0
VERTEX
  8
0
 10
38219.18311668673
 20
-5872.045659851949
  0
VERTEX
  8
0
 10
38223.22952452234
 20
-5872.203109053752
  0
VERTEX
  8
0
 10
38227.1605163092
 20
-5872.378357406911
  0
VERTEX
  8
0
 10
38230.97915667204
 20
-5872.569699842546
  0
VERTEX
  8
0
 10
38234.68851023555
 20
-5872.775431291776
  0
VERTEX
  8
0
 10
38238.29164162448
 20
-5872.993846685724
  0
VERTEX
  8
0
 10
38241.79161546352
 20
-5873.223240955509
  0
VERTEX
  8
0
 10
38245.19149637739
 20
-5873.461909032254
  0
VERTEX
  8
0
 10
38248.49434899081
 20
-5873.708145847079
  0
VERTEX
  8
0
 10
38251.7032379285
 20
-5873.960246331105
  0
VERTEX
  8
0
 10
38254.82122781517
 20
-5874.216505415454
  0
VERTEX
  8
0
 10
38257.85138327553
 20
-5874.475218031244
  0
VERTEX
  8
0
 10
38260.79676893431
 20
-5874.734679109599
  0
VERTEX
  8
0
 10
38263.66044941622
 20
-5874.99318358164
  0
VERTEX
  8
0
 10
38266.44548934597
 20
-5875.249026378485
  0
VERTEX
  8
0
 10
38269.15495334828
 20
-5875.500502431258
  0
VERTEX
  8
0
 10
38271.79190604786
 20
-5875.745906671078
  0
VERTEX
  8
0
 10
38274.35941206943
 20
-5875.983534029068
  0
VERTEX
  8
0
 10
38276.86053603771
 20
-5876.211679436346
  0
VERTEX
  8
0
 10
38279.30011173819
 20
-5876.434333442271
  0
VERTEX
  8
0
 10
38281.72329652771
 20
-5876.659587817151
  0
VERTEX
  8
0
 10
38284.14692701558
 20
-5876.87913295858
  0
VERTEX
  8
0
 10
38286.57099494116
 20
-5877.093074682426
  0
VERTEX
  8
0
 10
38288.9954920438
 20
-5877.301518804551
  0
VERTEX
  8
0
 10
38291.42041006283
 20
-5877.504571140826
  0
VERTEX
  8
0
 10
38293.84574073765
 20
-5877.702337507116
  0
VERTEX
  8
0
 10
38296.27147580757
 20
-5877.894923719288
  0
VERTEX
  8
0
 10
38298.69760701197
 20
-5878.082435593211
  0
VERTEX
  8
0
 10
38301.1241260902
 20
-5878.264978944747
  0
VERTEX
  8
0
 10
38303.55102478162
 20
-5878.442659589767
  0
VERTEX
  8
0
 10
38305.97829482557
 20
-5878.615583344135
  0
VERTEX
  8
0
 10
38308.4059279614
 20
-5878.78385602372
  0
VERTEX
  8
0
 10
38310.83391592848
 20
-5878.947583444387
  0
VERTEX
  8
0
 10
38313.26225046616
 20
-5879.106871422003
  0
VERTEX
  8
0
 10
38315.69092331378
 20
-5879.261825772437
  0
VERTEX
  8
0
 10
38318.11992621072
 20
-5879.412552311553
  0
VERTEX
  8
0
 10
38320.54925089631
 20
-5879.559156855218
  0
VERTEX
  8
0
 10
38322.9788891099
 20
-5879.7017452193
  0
VERTEX
  8
0
 10
38325.40883259087
 20
-5879.840423219666
  0
VERTEX
  8
0
 10
38327.83907307857
 20
-5879.975296672182
  0
VERTEX
  8
0
 10
38330.26960231233
 20
-5880.106471392714
  0
VERTEX
  8
0
 10
38332.70041203151
 20
-5880.234053197129
  0
VERTEX
  8
0
 10
38335.13149397548
 20
-5880.358147901295
  0
VERTEX
  8
0
 10
38337.56283988359
 20
-5880.478861321079
  0
VERTEX
  8
0
 10
38339.99444149518
 20
-5880.596299272345
  0
VERTEX
  8
0
 10
38342.42629054961
 20
-5880.710567570963
  0
VERTEX
  8
0
 10
38344.85837878625
 20
-5880.821772032797
  0
VERTEX
  8
0
 10
38347.29069794444
 20
-5880.930018473716
  0
VERTEX
  8
0
 10
38349.72323976352
 20
-5881.035412709585
  0
VERTEX
  8
0
 10
38352.15599598288
 20
-5881.138060556273
  0
VERTEX
  8
0
 10
38354.58895834184
 20
-5881.238067829644
  0
VERTEX
  8
0
 10
38357.02211857976
 20
-5881.335540345567
  0
VERTEX
  8
0
 10
38359.45546843601
 20
-5881.430583919907
  0
VERTEX
  8
0
 10
38361.88899964994
 20
-5881.523304368532
  0
VERTEX
  8
0
 10
38364.32270396088
 20
-5881.613807507308
  0
VERTEX
  8
0
 10
38366.75657310821
 20
-5881.702199152102
  0
VERTEX
  8
0
 10
38369.19059883129
 20
-5881.788585118782
  0
VERTEX
  8
0
 10
38371.62477286944
 20
-5881.873071223213
  0
VERTEX
  8
0
 10
38374.05908696204
 20
-5881.955763281262
  0
VERTEX
  8
0
 10
38376.49353284844
 20
-5882.036767108797
  0
VERTEX
  8
0
 10
38378.92810226799
 20
-5882.116188521682
  0
VERTEX
  8
0
 10
38381.36278696003
 20
-5882.194133335788
  0
VERTEX
  8
0
 10
38383.79757866394
 20
-5882.270707366979
  0
VERTEX
  8
0
 10
38386.23246911907
 20
-5882.346016431121
  0
VERTEX
  8
0
 10
38388.66745006476
 20
-5882.420166344082
  0
VERTEX
  8
0
 10
38391.10251324037
 20
-5882.49326292173
  0
VERTEX
  8
0
 10
38393.53765038526
 20
-5882.56541197993
  0
VERTEX
  8
0
 10
38395.97285323877
 20
-5882.63671933455
  0
VERTEX
  8
0
 10
38398.40811354026
 20
-5882.707290801452
  0
VERTEX
  8
0
 10
38400.84342302909
 20
-5882.77723219651
  0
VERTEX
  8
0
 10
38403.27877344462
 20
-5882.846649335588
  0
VERTEX
  8
0
 10
38405.71415652618
 20
-5882.915648034552
  0
VERTEX
  8
0
 10
38408.14956401313
 20
-5882.984334109266
  0
VERTEX
  8
0
 10
38410.58498764486
 20
-5883.052813375603
  0
VERTEX
  8
0
 10
38415.1286325843
 20
-5883.118075493087
  0
VERTEX
  8
0
 10
38434.4549997871
 20
-5883.073357752535
  0
VERTEX
  8
0
 10
38436.8883064988
 20
-5882.997624148593
  0
VERTEX
  8
0
 10
38439.31983921382
 20
-5882.915568211045
  0
VERTEX
  8
0
 10
38441.74969445643
 20
-5882.827357662711
  0
VERTEX
  8
0
 10
38444.1779687509
 20
-5882.733160226408
  0
VERTEX
  8
0
 10
38446.6047586215
 20
-5882.633143624957
  0
VERTEX
  8
0
 10
38449.03016059249
 20
-5882.527475581176
  0
VERTEX
  8
0
 10
38451.45427118815
 20
-5882.416323817883
  0
VERTEX
  8
0
 10
38453.87718693273
 20
-5882.299856057898
  0
VERTEX
  8
0
 10
38456.29900435053
 20
-5882.178240024039
  0
VERTEX
  8
0
 10
38458.71981996577
 20
-5882.051643439127
  0
VERTEX
  8
0
 10
38461.13973030276
 20
-5881.920234025979
  0
VERTEX
  8
0
 10
38463.55883188576
 20
-5881.784179507414
  0
VERTEX
  8
0
 10
38465.97722123902
 20
-5881.643647606251
  0
VERTEX
  8
0
 10
38468.39499488682
 20
-5881.498806045309
  0
VERTEX
  8
0
 10
38470.81224935342
 20
-5881.349822547408
  0
VERTEX
  8
0
 10
38473.2290811631
 20
-5881.196864835364
  0
VERTEX
  8
0
 10
38475.64558684012
 20
-5881.040100631998
  0
VERTEX
  8
0
 10
38478.06186290875
 20
-5880.87969766013
  0
VERTEX
  8
0
 10
38480.47800589326
 20
-5880.715823642577
  0
VERTEX
  8
0
 10
38482.89411231792
 20
-5880.548646302158
  0
VERTEX
  8
0
 10
38485.31027870698
 20
-5880.378333361693
  0
VERTEX
  8
0
 10
38487.72660158473
 20
-5880.205052544
  0
VERTEX
  8
0
 10
38490.14317747542
 20
-5880.028971571897
  0
VERTEX
  8
0
 10
38492.56010290334
 20
-5879.850258168206
  0
VERTEX
  8
0
 10
38494.97747439274
 20
-5879.669080055743
  0
VERTEX
  8
0
 10
38497.39538846789
 20
-5879.485604957327
  0
VERTEX
  8
0
 10
38499.81394165306
 20
-5879.300000595778
  0
VERTEX
  8
0
 10
38502.23323047252
 20
-5879.112434693916
  0
VERTEX
  8
0
 10
38504.65335145054
 20
-5878.923074974557
  0
VERTEX
  8
0
 10
38507.07440111137
 20
-5878.732089160522
  0
VERTEX
  8
0
 10
38509.4964759793
 20
-5878.539644974629
  0
VERTEX
  8
0
 10
38511.9196725786
 20
-5878.345910139698
  0
VERTEX
  8
0
 10
38514.34408743351
 20
-5878.151052378546
  0
VERTEX
  8
0
 10
38516.76981706833
 20
-5877.955239413994
  0
VERTEX
  8
0
 10
38519.1969580073
 20
-5877.758638968859
  0
VERTEX
  8
0
 10
38521.62560677472
 20
-5877.56141876596
  0
VERTEX
  8
0
 10
38524.05585989482
 20
-5877.363746528118
  0
VERTEX
  8
0
 10
38526.48781389189
 20
-5877.16578997815
  0
VERTEX
  8
0
 10
38528.9215652902
 20
-5876.967716838876
  0
VERTEX
  8
0
 10
38531.35721061401
 20
-5876.769694833113
  0
VERTEX
  8
0
 10
38533.79484638759
 20
-5876.571891683682
  0
VERTEX
  8
0
 10
38536.23456913521
 20
-5876.374475113402
  0
VERTEX
  8
0
 10
38538.67647538113
 20
-5876.17761284509
  0
VERTEX
  8
0
 10
38541.12066164963
 20
-5875.981472601567
  0
VERTEX
  8
0
 10
38543.56722446497
 20
-5875.786222105649
  0
VERTEX
  8
0
 10
38546.01626035142
 20
-5875.592029080158
  0
VERTEX
  8
0
 10
38548.46786583325
 20
-5875.399061247911
  0
VERTEX
  8
0
 10
38550.92213743473
 20
-5875.207486331728
  0
VERTEX
  8
0
 10
38553.37917168011
 20
-5875.017472054426
  0
VERTEX
  8
0
 10
38555.83906509368
 20
-5874.829186138826
  0
VERTEX
  8
0
 10
38558.30191419969
 20
-5874.642796307748
  0
VERTEX
  8
0
 10
38560.76781552242
 20
-5874.458470284007
  0
VERTEX
  8
0
 10
38563.23686558614
 20
-5874.276375790423
  0
VERTEX
  8
0
 10
38565.70916091511
 20
-5874.096680549817
  0
VERTEX
  8
0
 10
38568.17473748456
 20
-5873.925923219215
  0
VERTEX
  8
0
 10
38570.62076777252
 20
-5873.76939188218
  0
VERTEX
  8
0
 10
38573.0667247489
 20
-5873.613741860027
  0
VERTEX
  8
0
 10
38575.51255318429
 20
-5873.459637093127
  0
VERTEX
  8
0
 10
38577.95819784928
 20
-5873.307741521846
  0
VERTEX
  8
0
 10
38580.40360351442
 20
-5873.158719086558
  0
VERTEX
  8
0
 10
38582.84871495031
 20
-5873.013233727632
  0
VERTEX
  8
0
 10
38585.29347692752
 20
-5872.871949385437
  0
VERTEX
  8
0
 10
38587.73783421663
 20
-5872.735530000341
  0
VERTEX
  8
0
 10
38590.18173158823
 20
-5872.604639512719
  0
VERTEX
  8
0
 10
38592.62511381288
 20
-5872.479941862937
  0
VERTEX
  8
0
 10
38595.06792566117
 20
-5872.362100991367
  0
VERTEX
  8
0
 10
38597.51011190367
 20
-5872.251780838375
  0
VERTEX
  8
0
 10
38599.95161731097
 20
-5872.149645344337
  0
VERTEX
  8
0
 10
38602.39238665364
 20
-5872.056358449619
  0
VERTEX
  8
0
 10
38604.83236470226
 20
-5871.972584094592
  0
VERTEX
  8
0
 10
38607.2714962274
 20
-5871.898986219625
  0
VERTEX
  8
0
 10
38609.70972599966
 20
-5871.83622876509
  0
VERTEX
  8
0
 10
38612.14699878961
 20
-5871.784975671355
  0
VERTEX
  8
0
 10
38614.58325936781
 20
-5871.74589087879
  0
VERTEX
  8
0
 10
38617.01845250486
 20
-5871.719638327765
  0
VERTEX
  8
0
 10
38619.45252297133
 20
-5871.706881958652
  0
VERTEX
  8
0
 10
38621.88541553781
 20
-5871.708285711818
  0
VERTEX
  8
0
 10
38624.31707497486
 20
-5871.724513527635
  0
VERTEX
  8
0
 10
38626.74744605306
 20
-5871.756229346473
  0
VERTEX
  8
0
 10
38629.17647354302
 20
-5871.804097108699
  0
VERTEX
  8
0
 10
38631.60410221528
 20
-5871.868780754687
  0
VERTEX
  8
0
 10
38634.03027684043
 20
-5871.950944224805
  0
VERTEX
  8
0
 10
38636.45494218906
 20
-5872.051251459422
  0
VERTEX
  8
0
 10
38638.87804303173
 20
-5872.170366398909
  0
VERTEX
  8
0
 10
38641.29952413903
 20
-5872.308952983637
  0
VERTEX
  8
0
 10
38643.71933028154
 20
-5872.467675153973
  0
VERTEX
  8
0
 10
38646.13740622984
 20
-5872.64719685029
  0
VERTEX
  8
0
 10
38648.5536967545
 20
-5872.848182012956
  0
VERTEX
  8
0
 10
38650.9681466261
 20
-5873.071294582342
  0
VERTEX
  8
0
 10
38653.38070061523
 20
-5873.317198498818
  0
VERTEX
  8
0
 10
38672.74084407851
 20
-5891.826987455017
  0
SEQEND
  8
0
  0
POLYLINE
  8
0
 66
     1
  0
VERTEX
  8
0
 10
39192.80361710339
 20
-6188.470186008296
  0
VERTEX
  8
0
 10
39192.8690905702
 20
-6186.224486129522
  0
VERTEX
  8
0
 10
39192.93937944601
 20
-6183.978945293706
  0
VERTEX
  8
0
 10
39193.0144266744
 20
-6181.733561616392
  0
VERTEX
  8
0
 10
39193.09417519899
 20
-6179.488333213127
  0
VERTEX
  8
0
 10
39193.17856796338
 20
-6177.243258199454
  0
VERTEX
  8
0
 10
39193.26754791118
 20
-6174.998334690924
  0
VERTEX
  8
0
 10
39193.36105798598
 20
-6172.753560803078
  0
VERTEX
  8
0
 10
39193.4590411314
 20
-6170.508934651464
  0
VERTEX
  8
0
 10
39193.56144029104
 20
-6168.264454351627
  0
VERTEX
  8
0
 10
39193.6681984085
 20
-6166.020118019113
  0
VERTEX
  8
0
 10
39193.77925842738
 20
-6163.775923769468
  0
VERTEX
  8
0
 10
39193.8945632913
 20
-6161.531869718238
  0
VERTEX
  8
0
 10
39194.01405594386
 20
-6159.287953980967
  0
VERTEX
  8
0
 10
39194.13767932865
 20
-6157.044174673204
  0
VERTEX
  8
0
 10
39194.2653763893
 20
-6154.800529910492
  0
VERTEX
  8
0
 10
39194.39709006939
 20
-6152.557017808376
  0
VERTEX
  8
0
 10
39194.53276331253
 20
-6150.313636482406
  0
VERTEX
  8
0
 10
39194.67233906234
 20
-6148.070384048124
  0
VERTEX
  8
0
 10
39194.81576026241
 20
-6145.827258621076
  0
VERTEX
  8
0
 10
39194.96296985634
 20
-6143.584258316811
  0
VERTEX
  8
0
 10
39195.11391078775
 20
-6141.341381250871
  0
VERTEX
  8
0
 10
39195.26852600023
 20
-6139.098625538803
  0
VERTEX
  8
0
 10
39195.4267584374
 20
-6136.855989296153
  0
VERTEX
  8
0
 10
39195.58855104286
 20
-6134.613470638467
  0
VERTEX
  8
0
 10
39195.75384676021
 20
-6132.371067681291
  0
VERTEX
  8
0
 10
39195.92258853305
 20
-6130.12877854017
  0
VERTEX
  8
0
 10
39196.09471930498
 20
-6127.88660133065
  0
VERTEX
  8
0
 10
39196.27018201963
 20
-6125.644534168277
  0
VERTEX
  8
0
 10
39196.44891962058
 20
-6123.402575168596
  0
VERTEX
  8
0
 10
39196.63087505144
 20
-6121.160722447155
  0
VERTEX
  8
0
 10
39196.81599125583
 20
-6118.918974119497
  0
VERTEX
  8
0
 10
39197.00421117733
 20
-6116.677328301169
  0
VERTEX
  8
0
 10
39197.19547775957
 20
-6114.435783107717
  0
VERTEX
  8
0
 10
39197.38973394613
 20
-6112.194336654686
  0
VERTEX
  8
0
 10
39197.58692268063
 20
-6109.952987057622
  0
VERTEX
  8
0
 10
39197.78698690667
 20
-6107.711732432072
  0
VERTEX
  8
0
 10
39197.98986956785
 20
-6105.47057089358
  0
VERTEX
  8
0
 10
39198.19551360779
 20
-6103.229500557692
  0
VERTEX
  8
0
 10
39198.40386197007
 20
-6100.988519539955
  0
VERTEX
  8
0
 10
39198.61485759832
 20
-6098.747625955913
  0
VERTEX
  8
0
 10
39198.82844343613
 20
-6096.506817921115
  0
VERTEX
  8
0
 10
39199.04456242711
 20
-6094.266093551102
  0
VERTEX
  8
0
 10
39199.26315751486
 20
-6092.025450961424
  0
VERTEX
  8
0
 10
39199.48417164298
 20
-6089.784888267626
  0
VERTEX
  8
0
 10
39199.70754775509
 20
-6087.544403585251
  0
VERTEX
  8
0
 10
39199.93322879478
 20
-6085.303995029848
  0
VERTEX
  8
0
 10
39200.16115770566
 20
-6083.06366071696
  0
VERTEX
  8
0
 10
39200.39127743134
 20
-6080.823398762135
  0
VERTEX
  8
0
 10
39200.62353091541
 20
-6078.583207280918
  0
VERTEX
  8
0
 10
39200.8578611015
 20
-6076.343084388855
  0
VERTEX
  8
0
 10
39201.09421093319
 20
-6074.103028201491
  0
VERTEX
  8
0
 10
39201.33252335408
 20
-6071.863036834372
  0
VERTEX
  8
0
 10
39201.57274130781
 20
-6069.623108403044
  0
VERTEX
  8
0
 10
39201.81480773794
 20
-6067.383241023053
  0
VERTEX
  8
0
 10
39202.05866558811
 20
-6065.143432809945
  0
VERTEX
  8
0
 10
39202.3042578019
 20
-6062.903681879266
  0
VERTEX
  8
0
 10
39202.55152732294
 20
-6060.66398634656
  0
VERTEX
  8
0
 10
39202.80041709481
 20
-6058.424344327374
  0
VERTEX
  8
0
 10
39203.05087006112
 20
-6056.184753937255
  0
VERTEX
  8
0
 10
39203.30282916549
 20
-6053.945213291745
  0
VERTEX
  8
0
 10
39203.55623735151
 20
-6051.705720506394
  0
VERTEX
  8
0
 10
39203.81103756278
 20
-6049.466273696745
  0
VERTEX
  8
0
 10
39204.06717274292
 20
-6047.226870978345
  0
VERTEX
  8
0
 10
39204.32458583553
 20
-6044.987510466738
  0
VERTEX
  8
0
 10
39204.5832197842
 20
-6042.748190277473
  0
VERTEX
  8
0
 10
39204.84301753256
 20
-6040.508908526093
  0
VERTEX
  8
0
 10
39205.10392202419
 20
-6038.269663328147
  0
VERTEX
  8
0
 10
39205.36587620271
 20
-6036.030452799176
  0
VERTEX
  8
0
 10
39205.62882301171
 20
-6033.79127505473
  0
VERTEX
  8
0
 10
39205.89270539482
 20
-6031.552128210352
  0
VERTEX
  8
0
 10
39206.15746629562
 20
-6029.313010381589
  0
VERTEX
  8
0
 10
39206.42304865772
 20
-6027.073919683986
  0
VERTEX
  8
0
 10
39206.68939542473
 20
-6024.834854233091
  0
VERTEX
  8
0
 10
39206.95644954026
 20
-6022.595812144448
  0
VERTEX
  8
0
 10
39207.22415394789
 20
-6020.356791533602
  0
VERTEX
  8
0
 10
39207.49245159125
 20
-6018.1177905161
  0
VERTEX
  8
0
 10
39207.76128541395
 20
-6015.878807207487
  0
VERTEX
  8
0
 10
39208.03059835956
 20
-6013.63983972331
  0
VERTEX
  8
0
 10
39208.30033337171
 20
-6011.400886179113
  0
VERTEX
  8
0
 10
39208.570433394
 20
-6009.161944690443
  0
VERTEX
  8
0
 10
39208.84084137004
 20
-6006.923013372845
  0
VERTEX
  8
0
 10
39209.11150024342
 20
-6004.684090341867
  0
VERTEX
  8
0
 10
39209.38235295775
 20
-6002.445173713051
  0
VERTEX
  8
0
 10
39209.65334245665
 20
-6000.206261601948
  0
VERTEX
  8
0
 10
39209.92441168371
 20
-5997.967352124097
  0
VERTEX
  8
0
 10
39220.03501008603
 20
-5926.732477844993
  0
VERTEX
  8
0
 10
39220.37514638009
 20
-5924.503376421284
  0
VERTEX
  8
0
 10
39220.71288951124
 20
-5922.274097735564
  0
VERTEX
  8
0
 10
39221.04617328615
 20
-5920.044488744514
  0
VERTEX
  8
0
 10
39221.37293151143
 20
-5917.814396404811
  0
VERTEX
  8
0
 10
39221.69109799372
 20
-5915.583667673138
  0
VERTEX
  8
0
 10
39221.99860653965
 20
-5913.352149506173
  0
VERTEX
  8
0
 10
39222.29339095586
 20
-5911.119688860599
  0
VERTEX
  8
0
 10
39222.57338504896
 20
-5908.886132693095
  0
VERTEX
  8
0
 10
39222.83652262559
 20
-5906.65132796034
  0
VERTEX
  8
0
 10
39223.08073749239
 20
-5904.415121619014
  0
VERTEX
  8
0
 10
39223.30396345599
 20
-5902.1773606258
  0
VERTEX
  8
0
 10
39223.50413432301
 20
-5899.937891937377
  0
VERTEX
  8
0
 10
39223.6791839001
 20
-5897.696562510423
  0
VERTEX
  8
0
 10
39223.82704599387
 20
-5895.453219301621
  0
VERTEX
  8
0
 10
39223.9456618112
 20
-5893.207709815787
  0
VERTEX
  8
0
 10
39224.03561168295
 20
-5890.960077038133
  0
VERTEX
  8
0
 10
39224.10400471879
 20
-5888.710847541711
  0
VERTEX
  8
0
 10
39224.15894205832
 20
-5886.460621379408
  0
VERTEX
  8
0
 10
39223.89053155218
 20
-5884.218414965711
  0
VERTEX
  8
0
 10
39222.973640461
 20
-5882.028584838173
  0
VERTEX
  8
0
 10
39221.95572440538
 20
-5879.967436520244
  0
VERTEX
  8
0
 10
39220.76133737864
 20
-5878.131070304757
  0
VERTEX
  8
0
 10
39219.31565496638
 20
-5876.614794723643
  0
VERTEX
  8
0
 10
39217.58712413343
 20
-5875.458800849357
  0
VERTEX
  8
0
 10
39215.61494486577
 20
-5874.613157210375
  0
VERTEX
  8
0
 10
39213.44485514059
 20
-5874.019604487295
  0
VERTEX
  8
0
 10
39211.12259293507
 20
-5873.619883360719
  0
VERTEX
  8
0
 10
39208.69389622637
 20
-5873.355734511243
  0
VERTEX
  8
0
 10
39206.20450299166
 20
-5873.168898619469
  0
VERTEX
  8
0
 10
39201.50280095994
 20
-5872.903195691768
  0
VERTEX
  8
0
 10
39195.85088734759
 20
-5872.620625023174
  0
VERTEX
  8
0
 10
39190.33647472679
 20
-5872.374894154111
  0
VERTEX
  8
0
 10
39184.95714235805
 20
-5872.164656254869
  0
VERTEX
  8
0
 10
39179.71046950184
 20
-5871.988564495746
  0
VERTEX
  8
0
 10
39174.59403541865
 20
-5871.845272047031
  0
VERTEX
  8
0
 10
39169.60541936896
 20
-5871.73343207902
  0
VERTEX
  8
0
 10
39164.74220061327
 20
-5871.651697762003
  0
VERTEX
  8
0
 10
39160.00195841207
 20
-5871.598722266277
  0
VERTEX
  8
0
 10
39155.38227202584
 20
-5871.573158762132
  0
VERTEX
  8
0
 10
39150.88072071506
 20
-5871.573660419862
  0
VERTEX
  8
0
 10
39146.49488374023
 20
-5871.598880409761
  0
VERTEX
  8
0
 10
39142.22234036183
 20
-5871.647471902122
  0
VERTEX
  8
0
 10
39138.06066984035
 20
-5871.718088067238
  0
VERTEX
  8
0
 10
39134.00745143628
 20
-5871.809382075401
  0
VERTEX
  8
0
 10
39130.0602644101
 20
-5871.920007096906
  0
VERTEX
  8
0
 10
39126.21668802231
 20
-5872.048616302046
  0
VERTEX
  8
0
 10
39122.47430153338
 20
-5872.193862861114
  0
VERTEX
  8
0
 10
39118.83068420381
 20
-5872.354399944403
  0
VERTEX
  8
0
 10
39115.28341529408
 20
-5872.528880722205
  0
VERTEX
  8
0
 10
39111.83007406467
 20
-5872.715958364814
  0
VERTEX
  8
0
 10
39108.46823977609
 20
-5872.914286042524
  0
VERTEX
  8
0
 10
39105.19549168882
 20
-5873.122516925628
  0
VERTEX
  8
0
 10
39102.00940906333
 20
-5873.339304184417
  0
VERTEX
  8
0
 10
39098.90757116013
 20
-5873.563300989187
  0
VERTEX
  8
0
 10
39095.88755723969
 20
-5873.793160510231
  0
VERTEX
  8
0
 10
39092.9469465625
 20
-5874.02753591784
  0
VERTEX
  8
0
 10
39090.08331838905
 20
-5874.265080382309
  0
VERTEX
  8
0
 10
39087.29425197984
 20
-5874.504447073931
  0
VERTEX
  8
0
 10
39084.57732659533
 20
-5874.744289162998
  0
VERTEX
  8
0
 10
39081.93012149603
 20
-5874.983259819805
  0
VERTEX
  8
0
 10
39079.35021594242
 20
-5875.220012214643
  0
VERTEX
  8
0
 10
39076.83518919499
 20
-5875.453199517808
  0
VERTEX
  8
0
 10
39074.38262051422
 20
-5875.68147489959
  0
VERTEX
  8
0
 10
39071.9900891606
 20
-5875.903491530285
  0
VERTEX
  8
0
 10
39069.65517439463
 20
-5876.117902580184
  0
VERTEX
  8
0
 10
39067.37545547677
 20
-5876.323361219581
  0
VERTEX
  8
0
 10
39065.1342888494
 20
-5876.532399641252
  0
VERTEX
  8
0
 10
39062.89414893398
 20
-5876.738529511881
  0
VERTEX
  8
0
 10
39060.653630685
 20
-5876.939813067395
  0
VERTEX
  8
0
 10
39058.41274062751
 20
-5877.136333891488
  0
VERTEX
  8
0
 10
39056.17148528658
 20
-5877.32817556785
  0
VERTEX
  8
0
 10
39053.92987118728
 20
-5877.515421680176
  0
VERTEX
  8
0
 10
39051.68790485468
 20
-5877.698155812155
  0
VERTEX
  8
0
 10
39049.44559281382
 20
-5877.876461547482
  0
VERTEX
  8
0
 10
39047.20294158978
 20
-5878.05042246985
  0
VERTEX
  8
0
 10
39044.95995770762
 20
-5878.220122162951
  0
VERTEX
  8
0
 10
39042.71664769242
 20
-5878.385644210475
  0
VERTEX
  8
0
 10
39040.47301806921
 20
-5878.547072196118
  0
VERTEX
  8
0
 10
39038.22907536309
 20
-5878.704489703571
  0
VERTEX
  8
0
 10
39035.9848260991
 20
-5878.857980316526
  0
VERTEX
  8
0
 10
39033.74027680232
 20
-5879.007627618675
  0
VERTEX
  8
0
 10
39031.49543399779
 20
-5879.153515193711
  0
VERTEX
  8
0
 10
39029.25030421061
 20
-5879.295726625328
  0
VERTEX
  8
0
 10
39027.00489396582
 20
-5879.434345497217
  0
VERTEX
  8
0
 10
39024.75920978848
 20
-5879.56945539307
  0
VERTEX
  8
0
 10
39022.51325820367
 20
-5879.70113989658
  0
VERTEX
  8
0
 10
39020.26704573644
 20
-5879.82948259144
  0
VERTEX
  8
0
 10
39018.02057891186
 20
-5879.954567061341
  0
VERTEX
  8
0
 10
39015.773864255
 20
-5880.076476889977
  0
VERTEX
  8
0
 10
39013.52690829091
 20
-5880.19529566104
  0
VERTEX
  8
0
 10
39011.27971754467
 20
-5880.311106958223
  0
VERTEX
  8
0
 10
39009.03229854134
 20
-5880.423994365216
  0
VERTEX
  8
0
 10
39006.78465780597
 20
-5880.534041465715
  0
VERTEX
  8
0
 10
39004.53680186365
 20
-5880.64133184341
  0
VERTEX
  8
0
 10
39002.28873723941
 20
-5880.745949081995
  0
VERTEX
  8
0
 10
39000.04047045835
 20
-5880.84797676516
  0
VERTEX
  8
0
 10
38997.7920080455
 20
-5880.9474984766
  0
VERTEX
  8
0
 10
38995.54335652595
 20
-5881.044597800006
  0
VERTEX
  8
0
 10
38993.29452242475
 20
-5881.139358319072
  0
VERTEX
  8
0
 10
38991.04551226698
 20
-5881.231863617489
  0
VERTEX
  8
0
 10
38988.79633257769
 20
-5881.32219727895
  0
VERTEX
  8
0
 10
38986.54698988194
 20
-5881.410442887146
  0
VERTEX
  8
0
 10
38984.2974907048
 20
-5881.496684025772
  0
VERTEX
  8
0
 10
38982.04784157134
 20
-5881.58100427852
  0
VERTEX
  8
0
 10
38979.79804900662
 20
-5881.66348722908
  0
VERTEX
  8
0
 10
38977.54811953569
 20
-5881.744216461147
  0
VERTEX
  8
0
 10
38975.29805968365
 20
-5881.823275558412
  0
VERTEX
  8
0
 10
38973.04787597552
 20
-5881.900748104569
  0
VERTEX
  8
0
 10
38970.7975749364
 20
-5881.976717683309
  0
VERTEX
  8
0
 10
38968.54716309132
 20
-5882.051267878326
  0
VERTEX
  8
0
 10
38966.29664696539
 20
-5882.124482273311
  0
VERTEX
  8
0
 10
38964.04603308363
 20
-5882.196444451955
  0
VERTEX
  8
0
 10
38961.79532797112
 20
-5882.267237997955
  0
VERTEX
  8
0
 10
38959.54453815293
 20
-5882.336946495
  0
VERTEX
  8
0
 10
38957.29367015411
 20
-5882.405653526782
  0
VERTEX
  8
0
 10
38955.04273049975
 20
-5882.473442676996
  0
VERTEX
  8
0
 10
38952.79172571489
 20
-5882.540397529334
  0
VERTEX
  8
0
 10
38950.5406623246
 20
-5882.606601667486
  0
VERTEX
  8
0
 10
38948.28954685394
 20
-5882.672138675146
  0
VERTEX
  8
0
 10
38946.038385828
 20
-5882.737092136008
  0
VERTEX
  8
0
 10
38943.7871857718
 20
-5882.801545633763
  0
VERTEX
  8
0
 10
38941.53595321044
 20
-5882.865582752101
  0
VERTEX
  8
0
 10
38939.28469466897
 20
-5882.929287074719
  0
VERTEX
  8
0
 10
38937.03341667246
 20
-5882.992742185307
  0
VERTEX
  8
0
 10
38934.78212574595
 20
-5883.056031667559
  0
VERTEX
  8
0
 10
38931.74359457091
 20
-5883.118075493087
  0
VERTEX
  8
0
 10
38911.28026659513
 20
-5883.080876399761
  0
VERTEX
  8
0
 10
38909.03069399073
 20
-5883.011710095847
  0
VERTEX
  8
0
 10
38906.78265210052
 20
-5882.937115570619
  0
VERTEX
  8
0
 10
38904.53606468021
 20
-5882.857225307918
  0
VERTEX
  8
0
 10
38902.29085548552
 20
-5882.772171791586
  0
VERTEX
  8
0
 10
38900.04694827217
 20
-5882.682087505463
  0
VERTEX
  8
0
 10
38897.80426679589
 20
-5882.587104933391
  0
VERTEX
  8
0
 10
38895.56273481238
 20
-5882.487356559212
  0
VERTEX
  8
0
 10
38893.32227607737
 20
-5882.382974866769
  0
VERTEX
  8
0
 10
38891.08281434658
 20
-5882.2740923399
  0
VERTEX
  8
0
 10
38888.84427337573
 20
-5882.160841462449
  0
VERTEX
  8
0
 10
38886.60657692052
 20
-5882.043354718256
  0
VERTEX
  8
0
 10
38884.36964873669
 20
-5881.921764591162
  0
VERTEX
  8
0
 10
38882.13341257995
 20
-5881.79620356501
  0
VERTEX
  8
0
 10
38879.89779220601
 20
-5881.666804123641
  0
VERTEX
  8
0
 10
38877.66271137061
 20
-5881.533698750895
  0
VERTEX
  8
0
 10
38875.42809382945
 20
-5881.397019930617
  0
VERTEX
  8
0
 10
38873.19386333826
 20
-5881.256900146645
  0
VERTEX
  8
0
 10
38870.95994365275
 20
-5881.113471882822
  0
VERTEX
  8
0
 10
38868.72625852864
 20
-5880.966867622988
  0
VERTEX
  8
0
 10
38866.49273172166
 20
-5880.817219850985
  0
VERTEX
  8
0
 10
38864.25928698752
 20
-5880.664661050655
  0
VERTEX
  8
0
 10
38862.02584808192
 20
-5880.50932370584
  0
VERTEX
  8
0
 10
38859.79233876062
 20
-5880.351340300381
  0
VERTEX
  8
0
 10
38857.5586827793
 20
-5880.190843318118
  0
VERTEX
  8
0
 10
38855.32480389371
 20
-5880.027965242894
  0
VERTEX
  8
0
 10
38853.09062585954
 20
-5879.862838558551
  0
VERTEX
  8
0
 10
38850.85607243252
 20
-5879.695595748927
  0
VERTEX
  8
0
 10
38848.62106736837
 20
-5879.526369297868
  0
VERTEX
  8
0
 10
38846.38553442282
 20
-5879.355291689212
  0
VERTEX
  8
0
 10
38844.14939735158
 20
-5879.182495406802
  0
VERTEX
  8
0
 10
38841.91257991035
 20
-5879.008112934479
  0
VERTEX
  8
0
 10
38839.67500585487
 20
-5878.832276756085
  0
VERTEX
  8
0
 10
38837.43659894085
 20
-5878.655119355461
  0
VERTEX
  8
0
 10
38835.19728292402
 20
-5878.476773216447
  0
VERTEX
  8
0
 10
38832.95698156008
 20
-5878.297370822887
  0
VERTEX
  8
0
 10
38830.71561860477
 20
-5878.117044658622
  0
VERTEX
  8
0
 10
38828.4731178138
 20
-5877.935927207492
  0
VERTEX
  8
0
 10
38826.22940294288
 20
-5877.754150953338
  0
VERTEX
  8
0
 10
38823.98439774774
 20
-5877.571848380005
  0
VERTEX
  8
0
 10
38821.73802598408
 20
-5877.38915197133
  0
VERTEX
  8
0
 10
38819.49021140764
 20
-5877.206194211157
  0
VERTEX
  8
0
 10
38817.24087777413
 20
-5877.023107583327
  0
VERTEX
  8
0
 10
38814.98994883928
 20
-5876.840024571681
  0
VERTEX
  8
0
 10
38812.73734835879
 20
-5876.65707766006
  0
VERTEX
  8
0
 10
38810.48300008838
 20
-5876.474399332308
  0
VERTEX
  8
0
 10
38808.22682778378
 20
-5876.292122072264
  0
VERTEX
  8
0
 10
38805.96875520071
 20
-5876.110378363769
  0
VERTEX
  8
0
 10
38803.70870609487
 20
-5875.929300690666
  0
VERTEX
  8
0
 10
38801.446604222
 20
-5875.749021536796
  0
VERTEX
  8
0
 10
38799.1823733378
 20
-5875.569673386
  0
VERTEX
  8
0
 10
38796.91593719801
 20
-5875.39138872212
  0
VERTEX
  8
0
 10
38794.64721955834
 20
-5875.214300028997
  0
VERTEX
  8
0
 10
38792.3761441745
 20
-5875.038539790472
  0
VERTEX
  8
0
 10
38790.10263480222
 20
-5874.864240490389
  0
VERTEX
  8
0
 10
38787.82661519721
 20
-5874.691534612584
  0
VERTEX
  8
0
 10
38785.54800911518
 20
-5874.520554640904
  0
VERTEX
  8
0
 10
38783.26674031187
 20
-5874.351433059189
  0
VERTEX
  8
0
 10
38780.98273254299
 20
-5874.184302351279
  0
VERTEX
  8
0
 10
38778.69590956425
 20
-5874.019295001016
  0
VERTEX
  8
0
 10
38776.42772782822
 20
-5873.869598862379
  0
VERTEX
  8
0
 10
38774.16664905613
 20
-5873.725093660235
  0
VERTEX
  8
0
 10
38771.90564632453
 20
-5873.581502578579
  0
VERTEX
  8
0
 10
38769.644763259
 20
-5873.439350062271
  0
VERTEX
  8
0
 10
38767.38404348512
 20
-5873.299160556177
  0
VERTEX
  8
0
 10
38765.12353062847
 20
-5873.161458505157
  0
VERTEX
  8
0
 10
38762.86326831464
 20
-5873.026768354072
  0
VERTEX
  8
0
 10
38760.6033001692
 20
-5872.895614547789
  0
VERTEX
  8
0
 10
38758.34366981776
 20
-5872.768521531166
  0
VERTEX
  8
0
 10
38756.08442088589
 20
-5872.646013749069
  0
VERTEX
  8
0
 10
38753.82559699917
 20
-5872.528615646357
  0
VERTEX
  8
0
 10
38751.56724178318
 20
-5872.416851667896
  0
VERTEX
  8
0
 10
38749.30939886352
 20
-5872.311246258546
  0
VERTEX
  8
0
 10
38747.05211186576
 20
-5872.212323863172
  0
VERTEX
  8
0
 10
38744.7954244155
 20
-5872.120608926632
  0
VERTEX
  8
0
 10
38742.5393801383
 20
-5872.036625893794
  0
VERTEX
  8
0
 10
38740.28402265976
 20
-5871.960899209516
  0
VERTEX
  8
0
 10
38738.02939560547
 20
-5871.893953318664
  0
VERTEX
  8
0
 10
38735.775542601
 20
-5871.836312666098
  0
VERTEX
  8
0
 10
38733.52250727194
 20
-5871.78850169668
  0
VERTEX
  8
0
 10
38731.27033324387
 20
-5871.751044855275
  0
VERTEX
  8
0
 10
38729.01906414237
 20
-5871.724466586745
  0
VERTEX
  8
0
 10
38726.76874359304
 20
-5871.70929133595
  0
VERTEX
  8
0
 10
38724.51941522146
 20
-5871.706043547755
  0
VERTEX
  8
0
 10
38722.2711226532
 20
-5871.715247667021
  0
VERTEX
  8
0
 10
38720.02390951385
 20
-5871.737428138612
  0
VERTEX
  8
0
 10
38717.777819429
 20
-5871.773109407389
  0
VERTEX
  8
0
 10
38715.53289602423
 20
-5871.822815918215
  0
VERTEX
  8
0
 10
38713.28918292513
 20
-5871.887072115954
  0
VERTEX
  8
0
 10
38711.04672375728
 20
-5871.966402445465
  0
VERTEX
  8
0
 10
38708.80556214626
 20
-5872.061331351614
  0
VERTEX
  8
0
 10
38706.56574171765
 20
-5872.172383279261
  0
VERTEX
  8
0
 10
38704.32730609705
 20
-5872.30008267327
  0
VERTEX
  8
0
 10
38702.09029891002
 20
-5872.444953978503
  0
VERTEX
  8
0
 10
38699.85476378217
 20
-5872.607521639823
  0
VERTEX
  8
0
 10
38697.62074433907
 20
-5872.788310102092
  0
VERTEX
  8
0
 10
38695.3882842063
 20
-5872.987843810171
  0
VERTEX
  8
0
 10
38693.15742700946
 20
-5873.206647208925
  0
VERTEX
  8
0
 10
38690.56067601576
 20
-5873.507298306254
  0
VERTEX
  8
0
 10
38672.74084407851
 20
-6440.36431855632
  0
SEQEND
  8
0
  0
DIMENSION
  8
1DIM
  2
*D426
 10
39323.26190446367
 20
-6814.82651730407
 11
38672.78825656655
 21
-6765.82651730407
 70
    32
  1
1300
 13
38022.31460866944
 23
-6664.82651730407
 33
0.0
 14
39323.26190446367
 24
-6664.82651730407
 34
0.0
  0
DIMENSION
  8
1DIM
  2
*D427
 10
39192.90940621212
 20
-5721.841222201911
 11
38672.59078038242
 21
-5672.841222201911
 70
    32
  1
1040
 13
38152.27215455271
 23
-5872.499168020363
 33
0.0
 14
39192.90940621212
 24
-5872.470894332817
 34
0.0
  0
POLYLINE
  8
0
 66
     1
  0
VERTEX
  8
0
 10
38672.92174183491
 20
-4990.67722133548
  0
VERTEX
  8
0
 10
38672.12842971322
 20
-4991.572618799629
  0
VERTEX
  8
0
 10
38671.31153112733
 20
-4992.449308730655
  0
VERTEX
  8
0
 10
38670.47145313099
 20
-4993.30761398203
  0
VERTEX
  8
0
 10
38669.608602778
 20
-4994.147857407233
  0
VERTEX
  8
0
 10
38668.72338712213
 20
-4994.970361859738
  0
VERTEX
  8
0
 10
38667.81621321712
 20
-4995.775450193019
  0
VERTEX
  8
0
 10
38666.88748811678
 20
-4996.563445260555
  0
VERTEX
  8
0
 10
38665.93761887487
 20
-4997.33466991582
  0
VERTEX
  8
0
 10
38664.96701254517
 20
-4998.08944701229
  0
VERTEX
  8
0
 10
38663.97607618143
 20
-4998.828099403439
  0
VERTEX
  8
0
 10
38662.96521683746
 20
-4999.550949942744
  0
VERTEX
  8
0
 10
38661.934841567
 20
-5000.258321483682
  0
VERTEX
  8
0
 10
38660.88535742384
 20
-5000.950536879725
  0
VERTEX
  8
0
 10
38659.81717146175
 20
-5001.627918984353
  0
VERTEX
  8
0
 10
38658.73069073451
 20
-5002.290790651037
  0
VERTEX
  8
0
 10
38657.62632229588
 20
-5002.939474733256
  0
VERTEX
  8
0
 10
38656.50447319964
 20
-5003.574294084485
  0
VERTEX
  8
0
 10
38655.36555049957
 20
-5004.195571558197
  0
VERTEX
  8
0
 10
38654.20996124943
 20
-5004.803630007871
  0
VERTEX
  8
0
 10
38653.038112503
 20
-5005.398792286981
  0
VERTEX
  8
0
 10
38651.85041131405
 20
-5005.981381249002
  0
VERTEX
  8
0
 10
38650.64726473636
 20
-5006.551719747411
  0
VERTEX
  8
0
 10
38649.42907982371
 20
-5007.110130635683
  0
VERTEX
  8
0
 10
38648.19626362985
 20
-5007.656936767295
  0
VERTEX
  8
0
 10
38646.94922320857
 20
-5008.19246099572
  0
VERTEX
  8
0
 10
38645.68836561364
 20
-5008.717026174435
  0
VERTEX
  8
0
 10
38644.41409789883
 20
-5009.230955156915
  0
VERTEX
  8
0
 10
38643.12682711791
 20
-5009.734570796637
  0
VERTEX
  8
0
 10
38641.82696032467
 20
-5010.228195947075
  0
VERTEX
  8
0
 10
38640.51490457288
 20
-5010.712153461705
  0
VERTEX
  8
0
 10
38639.19106691629
 20
-5011.186766194003
  0
VERTEX
  8
0
 10
38637.8558544087
 20
-5011.652356997445
  0
VERTEX
  8
0
 10
38636.50967410387
 20
-5012.109248725505
  0
VERTEX
  8
0
 10
38635.15293305556
 20
-5012.557764231661
  0
VERTEX
  8
0
 10
38633.78603831758
 20
-5012.998226369386
  0
VERTEX
  8
0
 10
38632.40939694367
 20
-5013.430957992157
  0
VERTEX
  8
0
 10
38631.02341598763
 20
-5013.85628195345
  0
VERTEX
  8
0
 10
38629.6285025032
 20
-5014.274521106739
  0
VERTEX
  8
0
 10
38628.22506354419
 20
-5014.685998305502
  0
VERTEX
  8
0
 10
38626.81350616434
 20
-5015.091036403213
  0
VERTEX
  8
0
 10
38625.39423741744
 20
-5015.489958253347
  0
VERTEX
  8
0
 10
38623.96766435727
 20
-5015.883086709382
  0
VERTEX
  8
0
 10
38622.53419403759
 20
-5016.27074462479
  0
VERTEX
  8
0
 10
38621.09423351219
 20
-5016.65325485305
  0
VERTEX
  8
0
 10
38619.64818983482
 20
-5017.030940247637
  0
VERTEX
  8
0
 10
38618.19647005927
 20
-5017.404123662025
  0
VERTEX
  8
0
 10
38616.7394812393
 20
-5017.77312794969
  0
VERTEX
  8
0
 10
38615.2776304287
 20
-5018.138275964108
  0
VERTEX
  8
0
 10
38613.81132468124
 20
-5018.499890558754
  0
VERTEX
  8
0
 10
38612.34097105067
 20
-5018.858294587106
  0
VERTEX
  8
0
 10
38610.8669765908
 20
-5019.213810902636
  0
VERTEX
  8
0
 10
38609.38974835537
 20
-5019.566762358823
  0
VERTEX
  8
0
 10
38607.90969339817
 20
-5019.917471809141
  0
VERTEX
  8
0
 10
38606.42721877298
 20
-5020.266262107066
  0
VERTEX
  8
0
 10
38604.94273153356
 20
-5020.613456106072
  0
VERTEX
  8
0
 10
38603.4566387337
 20
-5020.959376659636
  0
VERTEX
  8
0
 10
38601.96934742713
 20
-5021.304346621235
  0
VERTEX
  8
0
 10
38600.48126466769
 20
-5021.648688844341
  0
VERTEX
  8
0
 10
38580.15789814187
 20
-5021.973581244293
  0
VERTEX
  8
0
 10
38284.51491603387
 20
-5022.308907733673
  0
VERTEX
  8
0
 10
38156.72157615249
 20
-5013.623583869342
  0
VERTEX
  8
0
 10
38152.93691448052
 20
-5005.541533501475
  0
VERTEX
  8
0
 10
38152.97424165357
 20
-5004.218172091461
  0
VERTEX
  8
0
 10
38153.0014563271
 20
-5002.89456745572
  0
VERTEX
  8
0
 10
38153.0186653183
 20
-5001.570722163412
  0
VERTEX
  8
0
 10
38153.02597544433
 20
-5000.246638783707
  0
VERTEX
  8
0
 10
38153.02349352239
 20
-4998.922319885768
  0
VERTEX
  8
0
 10
38153.01132636964
 20
-4997.597768038761
  0
VERTEX
  8
0
 10
38152.98958080327
 20
-4996.272985811855
  0
VERTEX
  8
0
 10
38152.95836364045
 20
-4994.94797577421
  0
VERTEX
  8
0
 10
38152.91778169835
 20
-4993.622740494995
  0
VERTEX
  8
0
 10
38152.86794179416
 20
-4992.297282543375
  0
VERTEX
  8
0
 10
38152.80895074506
 20
-4990.971604488515
  0
VERTEX
  8
0
 10
38152.7409153682
 20
-4989.645708899583
  0
VERTEX
  8
0
 10
38152.66394248079
 20
-4988.319598345742
  0
VERTEX
  8
0
 10
38152.5781389
 20
-4986.993275396158
  0
VERTEX
  8
0
 10
38152.48361144299
 20
-4985.666742619997
  0
VERTEX
  8
0
 10
38152.38046692694
 20
-4984.340002586425
  0
VERTEX
  8
0
 10
38152.26881216904
 20
-4983.013057864608
  0
VERTEX
  8
0
 10
38152.14875398648
 20
-4981.685911023709
  0
VERTEX
  8
0
 10
38152.0203991964
 20
-4980.358564632896
  0
VERTEX
  8
0
 10
38151.883854616
 20
-4979.031021261334
  0
VERTEX
  8
0
 10
38151.73922706246
 20
-4977.703283478188
  0
VERTEX
  8
0
 10
38151.58662335295
 20
-4976.375353852624
  0
VERTEX
  8
0
 10
38151.42615030464
 20
-4975.047234953809
  0
VERTEX
  8
0
 10
38151.25791473473
 20
-4973.718929350906
  0
VERTEX
  8
0
 10
38151.08202346037
 20
-4972.390439613084
  0
VERTEX
  8
0
 10
38150.89858329875
 20
-4971.061768309505
  0
VERTEX
  8
0
 10
38150.70770106705
 20
-4969.732918009336
  0
VERTEX
  8
0
 10
38150.50948358244
 20
-4968.403891281744
  0
VERTEX
  8
0
 10
38150.30403766211
 20
-4967.074690695892
  0
VERTEX
  8
0
 10
38150.09147012322
 20
-4965.745318820948
  0
VERTEX
  8
0
 10
38149.87188778295
 20
-4964.415778226076
  0
VERTEX
  8
0
 10
38149.64539745849
 20
-4963.086071480442
  0
VERTEX
  8
0
 10
38149.41210596701
 20
-4961.756201153213
  0
VERTEX
  8
0
 10
38149.17212012569
 20
-4960.426169813552
  0
VERTEX
  8
0
 10
38148.92554675169
 20
-4959.095980030627
  0
VERTEX
  8
0
 10
38148.67249266222
 20
-4957.765634373602
  0
VERTEX
  8
0
 10
38148.41306467442
 20
-4956.435135411643
  0
VERTEX
  8
0
 10
38148.1473696055
 20
-4955.104485713916
  0
VERTEX
  8
0
 10
38147.87551427261
 20
-4953.773687849586
  0
VERTEX
  8
0
 10
38147.59760549295
 20
-4952.442744387819
  0
VERTEX
  8
0
 10
38147.31375008368
 20
-4951.111657897781
  0
VERTEX
  8
0
 10
38147.02405486198
 20
-4949.780430948637
  0
VERTEX
  8
0
 10
38146.72862664505
 20
-4948.449066109553
  0
VERTEX
  8
0
 10
38146.42757225002
 20
-4947.117565949694
  0
VERTEX
  8
0
 10
38146.12099849412
 20
-4945.785933038226
  0
VERTEX
  8
0
 10
38145.80901219449
 20
-4944.454169944314
  0
VERTEX
  8
0
 10
38145.49172016832
 20
-4943.122279237125
  0
VERTEX
  8
0
 10
38145.16922923279
 20
-4941.790263485824
  0
VERTEX
  8
0
 10
38144.84164620507
 20
-4940.458125259575
  0
VERTEX
  8
0
 10
38144.50907790235
 20
-4939.125867127546
  0
VERTEX
  8
0
 10
38144.17163114179
 20
-4937.793491658902
  0
VERTEX
  8
0
 10
38143.82941274058
 20
-4936.461001422807
  0
VERTEX
  8
0
 10
38143.48252951589
 20
-4935.128398988429
  0
VERTEX
  8
0
 10
38143.1310882849
 20
-4933.795686924931
  0
VERTEX
  8
0
 10
38142.77519586479
 20
-4932.462867801481
  0
VERTEX
  8
0
 10
38142.41495907272
 20
-4931.129944187242
  0
VERTEX
  8
0
 10
38142.0504847259
 20
-4929.796918651383
  0
VERTEX
  8
0
 10
38141.68187964147
 20
-4928.463793763067
  0
VERTEX
  8
0
 10
38141.30925063664
 20
-4927.13057209146
  0
VERTEX
  8
0
 10
38140.93270452858
 20
-4925.797256205728
  0
VERTEX
  8
0
 10
38140.55234813444
 20
-4924.463848675037
  0
VERTEX
  8
0
 10
38140.16828827143
 20
-4923.130352068552
  0
VERTEX
  8
0
 10
38139.7806317567
 20
-4921.796768955439
  0
VERTEX
  8
0
 10
38139.38948540745
 20
-4920.463101904863
  0
VERTEX
  8
0
 10
38138.99495604085
 20
-4919.12935348599
  0
VERTEX
  8
0
 10
38138.59715047407
 20
-4917.795526267985
  0
VERTEX
  8
0
 10
38138.1961755243
 20
-4916.461622820015
  0
VERTEX
  8
0
 10
38137.79213800871
 20
-4915.127645711244
  0
VERTEX
  8
0
 10
38137.38514474448
 20
-4913.793597510838
  0
VERTEX
  8
0
 10
38136.97530254877
 20
-4912.459480787964
  0
VERTEX
  8
0
 10
38136.56271823878
 20
-4911.125298111787
  0
VERTEX
  8
0
 10
38136.14749863167
 20
-4909.791052051471
  0
VERTEX
  8
0
 10
38135.72975054463
 20
-4908.456745176182
  0
VERTEX
  8
0
 10
38135.30958079485
 20
-4907.122380055088
  0
VERTEX
  8
0
 10
38134.88709619947
 20
-4905.787959257353
  0
VERTEX
  8
0
 10
38134.46240357569
 20
-4904.453485352141
  0
VERTEX
  8
0
 10
38134.03560974068
 20
-4903.11896090862
  0
VERTEX
  8
0
 10
38133.60682151163
 20
-4901.784388495955
  0
VERTEX
  8
0
 10
38133.1761457057
 20
-4900.449770683311
  0
VERTEX
  8
0
 10
38132.74368914009
 20
-4899.115110039854
  0
VERTEX
  8
0
 10
38132.30955863196
 20
-4897.780409134749
  0
VERTEX
  8
0
 10
38131.87386099848
 20
-4896.445670537163
  0
VERTEX
  8
0
 10
38131.43670305685
 20
-4895.11089681626
  0
VERTEX
  8
0
 10
38130.99819162421
 20
-4893.776090541207
  0
VERTEX
  8
0
 10
38130.55843351778
 20
-4892.441254281169
  0
VERTEX
  8
0
 10
38130.11753555471
 20
-4891.10639060531
  0
VERTEX
  8
0
 10
38129.6756045522
 20
-4889.771502082799
  0
VERTEX
  8
0
 10
38129.23274732741
 20
-4888.436591282799
  0
VERTEX
  8
0
 10
38128.7890706975
 20
-4887.101660774476
  0
VERTEX
  8
0
 10
38128.34468147969
 20
-4885.766713126996
  0
VERTEX
  8
0
 10
38127.89968649112
 20
-4884.431750909524
  0
VERTEX
  8
0
 10
38127.45419254899
 20
-4883.096776691227
  0
VERTEX
  8
0
 10
38127.00830647046
 20
-4881.76179304127
  0
VERTEX
  8
0
 10
38126.56213507272
 20
-4880.426802528818
  0
VERTEX
  8
0
 10
38126.11578517296
 20
-4879.091807723036
  0
VERTEX
  8
0
 10
38125.65362687206
 20
-4877.770260728924
  0
VERTEX
  8
0
 10
38125.16123382991
 20
-4876.475910283605
  0
VERTEX
  8
0
 10
38124.67564112792
 20
-4875.180669059251
  0
VERTEX
  8
0
 10
38124.20196603082
 20
-4873.883866743493
  0
VERTEX
  8
0
 10
38123.74532580333
 20
-4872.58483302396
  0
VERTEX
  8
0
 10
38123.31083771017
 20
-4871.282897588282
  0
VERTEX
  8
0
 10
38122.90361901608
 20
-4869.977390124089
  0
VERTEX
  8
0
 10
38122.52878698576
 20
-4868.667640319011
  0
VERTEX
  8
0
 10
38122.19145888396
 20
-4867.352977860679
  0
VERTEX
  8
0
 10
38121.89675197539
 20
-4866.032732436721
  0
VERTEX
  8
0
 10
38121.64978352477
 20
-4864.70623373477
  0
VERTEX
  8
0
 10
38121.45567079684
 20
-4863.372811442453
  0
VERTEX
  8
0
 10
38121.3195310563
 20
-4862.031795247402
  0
VERTEX
  8
0
 10
38121.24417021753
 20
-4860.682817601871
  0
VERTEX
  8
0
 10
38121.22127644348
 20
-4859.326967276425
  0
VERTEX
  8
0
 10
38121.23919928363
 20
-4857.965770367814
  0
VERTEX
  8
0
 10
38121.28628764256
 20
-4856.60075305728
  0
VERTEX
  8
0
 10
38121.35089042477
 20
-4855.23344152606
  0
VERTEX
  8
0
 10
38121.59293689149
 20
-4854.004726523287
  0
VERTEX
  8
0
 10
38122.06772668513
 20
-4852.949124135406
  0
VERTEX
  8
0
 10
38122.6227159003
 20
-4851.934852690577
  0
VERTEX
  8
0
 10
38123.25967531665
 20
-4850.960309441771
  0
VERTEX
  8
0
 10
38123.98037571389
 20
-4850.023891641961
  0
VERTEX
  8
0
 10
38124.78658787167
 20
-4849.123996544124
  0
VERTEX
  8
0
 10
38125.68008256968
 20
-4848.25902140123
  0
VERTEX
  8
0
 10
38126.6626305876
 20
-4847.427363466253
  0
VERTEX
  8
0
 10
38127.7360027051
 20
-4846.627419992168
  0
VERTEX
  8
0
 10
38128.90196970187
 20
-4845.857588231947
  0
VERTEX
  8
0
 10
38130.16230235758
 20
-4845.116265438565
  0
VERTEX
  8
0
 10
38131.51877145191
 20
-4844.401848864994
  0
VERTEX
  8
0
 10
38132.97314776453
 20
-4843.712735764209
  0
VERTEX
  8
0
 10
38134.52720207513
 20
-4843.047323389183
  0
VERTEX
  8
0
 10
38136.18270516337
 20
-4842.404008992888
  0
VERTEX
  8
0
 10
38137.94142780895
 20
-4841.781189828298
  0
VERTEX
  8
0
 10
38139.46266766803
 20
-4841.335546435218
  0
VERTEX
  8
0
 10
38140.78500567873
 20
-4840.99500341865
  0
VERTEX
  8
0
 10
38142.10737126498
 20
-4840.654649031295
  0
VERTEX
  8
0
 10
38143.42978156164
 20
-4840.314600483358
  0
VERTEX
  8
0
 10
38144.75225370354
 20
-4839.974974985045
  0
VERTEX
  8
0
 10
38146.07480482558
 20
-4839.635889746564
  0
VERTEX
  8
0
 10
38147.3974520626
 20
-4839.297461978122
  0
VERTEX
  8
0
 10
38148.72021254944
 20
-4838.959808889924
  0
VERTEX
  8
0
 10
38150.04310342101
 20
-4838.623047692176
  0
VERTEX
  8
0
 10
38151.36614181213
 20
-4838.287295595086
  0
VERTEX
  8
0
 10
38152.68934485767
 20
-4837.952669808859
  0
VERTEX
  8
0
 10
38154.01272969247
 20
-4837.619287543703
  0
VERTEX
  8
0
 10
38155.33631345142
 20
-4837.287266009824
  0
VERTEX
  8
0
 10
38156.66011326938
 20
-4836.956722417428
  0
VERTEX
  8
0
 10
38157.98414628118
 20
-4836.627773976723
  0
VERTEX
  8
0
 10
38159.30842962171
 20
-4836.300537897913
  0
VERTEX
  8
0
 10
38160.63298042581
 20
-4835.975131391207
  0
VERTEX
  8
0
 10
38161.95781582835
 20
-4835.651671666809
  0
VERTEX
  8
0
 10
38163.28295296418
 20
-4835.330275934928
  0
VERTEX
  8
0
 10
38164.60840896817
 20
-4835.011061405768
  0
VERTEX
  8
0
 10
38165.93420097518
 20
-4834.694145289538
  0
VERTEX
  8
0
 10
38167.26034612005
 20
-4834.379644796444
  0
VERTEX
  8
0
 10
38168.58686153766
 20
-4834.067677136691
  0
VERTEX
  8
0
 10
38169.91376436287
 20
-4833.758359520487
  0
VERTEX
  8
0
 10
38171.24107173052
 20
-4833.451809158037
  0
VERTEX
  8
0
 10
38172.56880077549
 20
-4833.148143259548
  0
VERTEX
  8
0
 10
38173.89696863264
 20
-4832.847479035227
  0
VERTEX
  8
0
 10
38175.22559243681
 20
-4832.549933695281
  0
VERTEX
  8
0
 10
38176.55468932288
 20
-4832.255624449916
  0
VERTEX
  8
0
 10
38177.8842764257
 20
-4831.964668509338
  0
VERTEX
  8
0
 10
38179.21437088013
 20
-4831.677183083753
  0
VERTEX
  8
0
 10
38180.54498982102
 20
-4831.393285383369
  0
VERTEX
  8
0
 10
38181.87615038326
 20
-4831.113092618392
  0
VERTEX
  8
0
 10
38183.20786970167
 20
-4830.83672199903
  0
VERTEX
  8
0
 10
38184.54016491114
 20
-4830.564290735484
  0
VERTEX
  8
0
 10
38185.87305314651
 20
-4830.295916037967
  0
VERTEX
  8
0
 10
38187.20655154265
 20
-4830.031715116683
  0
VERTEX
  8
0
 10
38188.54067723442
 20
-4829.771805181837
  0
VERTEX
  8
0
 10
38189.87544735667
 20
-4829.516303443637
  0
VERTEX
  8
0
 10
38191.21087904429
 20
-4829.26532711229
  0
VERTEX
  8
0
 10
38192.54698943209
 20
-4829.018993398002
  0
VERTEX
  8
0
 10
38193.88379565497
 20
-4828.777419510979
  0
VERTEX
  8
0
 10
38195.22131484777
 20
-4828.540722661427
  0
VERTEX
  8
0
 10
38196.55956414535
 20
-4828.309020059554
  0
VERTEX
  8
0
 10
38197.89856068258
 20
-4828.082428915566
  0
VERTEX
  8
0
 10
38199.23832159432
 20
-4827.861066439669
  0
VERTEX
  8
0
 10
38200.57886401541
 20
-4827.64504984207
  0
VERTEX
  8
0
 10
38201.92020508073
 20
-4827.434496332975
  0
VERTEX
  8
0
 10
38203.26236192513
 20
-4827.229523122591
  0
VERTEX
  8
0
 10
38204.60535168348
 20
-4827.030247421124
  0
VERTEX
  8
0
 10
38205.94919149062
 20
-4826.836786438782
  0
VERTEX
  8
0
 10
38207.29389848143
 20
-4826.649257385769
  0
VERTEX
  8
0
 10
38208.63948979077
 20
-4826.467777472293
  0
VERTEX
  8
0
 10
38234.46003073254
 20
-4822.896033309889
  0
VERTEX
  8
0
 10
38249.7466002692
 20
-4820.865874895139
  0
VERTEX
  8
0
 10
38251.50745140321
 20
-4820.743362115489
  0
VERTEX
  8
0
 10
38253.13605010334
 20
-4820.638787534884
  0
VERTEX
  8
0
 10
38254.75903958422
 20
-4820.534315607941
  0
VERTEX
  8
0
 10
38256.37644623804
 20
-4820.429975689948
  0
VERTEX
  8
0
 10
38257.98829645704
 20
-4820.325797136195
  0
VERTEX
  8
0
 10
38259.59461663342
 20
-4820.221809301969
  0
VERTEX
  8
0
 10
38261.1954331594
 20
-4820.118041542562
  0
VERTEX
  8
0
 10
38262.79077242718
 20
-4820.014523213261
  0
VERTEX
  8
0
 10
38264.38066082898
 20
-4819.911283669355
  0
VERTEX
  8
0
 10
38265.96512475701
 20
-4819.808352266134
  0
VERTEX
  8
0
 10
38267.54419060349
 20
-4819.705758358884
  0
VERTEX
  8
0
 10
38269.11788476063
 20
-4819.603531302898
  0
VERTEX
  8
0
 10
38270.68623362063
 20
-4819.501700453463
  0
VERTEX
  8
0
 10
38272.24926357572
 20
-4819.400295165869
  0
VERTEX
  8
0
 10
38273.8070010181
 20
-4819.299344795402
  0
VERTEX
  8
0
 10
38275.35947233999
 20
-4819.198878697354
  0
VERTEX
  8
0
 10
38276.90670393361
 20
-4819.098926227013
  0
VERTEX
  8
0
 10
38278.44872219115
 20
-4818.999516739667
  0
VERTEX
  8
0
 10
38279.98555350485
 20
-4818.900679590608
  0
VERTEX
  8
0
 10
38281.5172242669
 20
-4818.802444135122
  0
VERTEX
  8
0
 10
38283.04376086952
 20
-4818.704839728499
  0
VERTEX
  8
0
 10
38284.56518970493
 20
-4818.607895726027
  0
VERTEX
  8
0
 10
38286.08153716534
 20
-4818.511641482996
  0
VERTEX
  8
0
 10
38287.59282964296
 20
-4818.416106354695
  0
VERTEX
  8
0
 10
38289.09909352999
 20
-4818.321319696413
  0
VERTEX
  8
0
 10
38290.60035521866
 20
-4818.227310863438
  0
VERTEX
  8
0
 10
38292.09664110118
 20
-4818.13410921106
  0
VERTEX
  8
0
 10
38293.58797756976
 20
-4818.041744094568
  0
VERTEX
  8
0
 10
38295.07439101661
 20
-4817.950244869249
  0
VERTEX
  8
0
 10
38296.55590783395
 20
-4817.859640890396
  0
VERTEX
  8
0
 10
38298.03255441398
 20
-4817.769961513293
  0
VERTEX
  8
0
 10
38299.50435714893
 20
-4817.681236093233
  0
VERTEX
  8
0
 10
38300.971342431
 20
-4817.593493985502
  0
VERTEX
  8
0
 10
38302.43353665241
 20
-4817.506764545392
  0
VERTEX
  8
0
 10
38303.89096620536
 20
-4817.42107712819
  0
VERTEX
  8
0
 10
38305.34365748208
 20
-4817.336461089184
  0
VERTEX
  8
0
 10
38306.79163687478
 20
-4817.252945783665
  0
VERTEX
  8
0
 10
38308.23493077565
 20
-4817.170560566921
  0
VERTEX
  8
0
 10
38309.67356557693
 20
-4817.089334794242
  0
VERTEX
  8
0
 10
38311.10756767082
 20
-4817.009297820916
  0
VERTEX
  8
0
 10
38312.53696344954
 20
-4816.930479002232
  0
VERTEX
  8
0
 10
38313.9617793053
 20
-4816.852907693478
  0
VERTEX
  8
0
 10
38315.3820416303
 20
-4816.776613249945
  0
VERTEX
  8
0
 10
38316.79777681677
 20
-4816.701625026921
  0
VERTEX
  8
0
 10
38318.20901125691
 20
-4816.627972379694
  0
VERTEX
  8
0
 10
38319.61577134294
 20
-4816.555684663555
  0
VERTEX
  8
0
 10
38321.01808346707
 20
-4816.484791233791
  0
VERTEX
  8
0
 10
38322.41597402152
 20
-4816.415321445693
  0
VERTEX
  8
0
 10
38323.80946939849
 20
-4816.347304654548
  0
VERTEX
  8
0
 10
38325.1985959902
 20
-4816.280770215646
  0
VERTEX
  8
0
 10
38326.58338018887
 20
-4816.215747484276
  0
VERTEX
  8
0
 10
38327.96384838669
 20
-4816.152265815726
  0
VERTEX
  8
0
 10
38329.34002697589
 20
-4816.090354565285
  0
VERTEX
  8
0
 10
38330.71194234869
 20
-4816.030043088245
  0
VERTEX
  8
0
 10
38332.07962089729
 20
-4815.97136073989
  0
VERTEX
  8
0
 10
38333.4430890139
 20
-4815.914336875513
  0
VERTEX
  8
0
 10
38334.80237309074
 20
-4815.859000850401
  0
VERTEX
  8
0
 10
38336.15749952001
 20
-4815.805382019845
  0
VERTEX
  8
0
 10
38337.50849469395
 20
-4815.75350973913
  0
VERTEX
  8
0
 10
38338.85538500475
 20
-4815.703413363549
  0
VERTEX
  8
0
 10
38340.19819684463
 20
-4815.655122248389
  0
VERTEX
  8
0
 10
38341.5369566058
 20
-4815.608665748939
  0
VERTEX
  8
0
 10
38342.87169068047
 20
-4815.564073220487
  0
VERTEX
  8
0
 10
38344.20242546086
 20
-4815.521374018325
  0
VERTEX
  8
0
 10
38345.52918733918
 20
-4815.480597497741
  0
VERTEX
  8
0
 10
38346.85200270764
 20
-4815.441773014022
  0
VERTEX
  8
0
 10
38348.17089795845
 20
-4815.404929922458
  0
VERTEX
  8
0
 10
38349.48589948384
 20
-4815.370097578338
  0
VERTEX
  8
0
 10
38350.79703367599
 20
-4815.337305336951
  0
VERTEX
  8
0
 10
38352.10432692715
 20
-4815.306582553587
  0
VERTEX
  8
0
 10
38353.4078056295
 20
-4815.277958583532
  0
VERTEX
  8
0
 10
38354.70749617529
 20
-4815.251462782078
  0
VERTEX
  8
0
 10
38356.00342495669
 20
-4815.227124504514
  0
VERTEX
  8
0
 10
38366.30618616109
 20
-4815.232122571778
  0
VERTEX
  8
0
 10
38455.78124569289
 20
-4815.297049129165
  0
VERTEX
  8
0
 10
38489.49616596988
 20
-4815.221028876846
  0
VERTEX
  8
0
 10
38490.79110043784
 20
-4815.244789400983
  0
VERTEX
  8
0
 10
38492.08978966303
 20
-4815.270715242829
  0
VERTEX
  8
0
 10
38493.39226003769
 20
-4815.298777047095
  0
VERTEX
  8
0
 10
38494.69853795401
 20
-4815.328945458491
  0
VERTEX
  8
0
 10
38496.00864980422
 20
-4815.361191121729
  0
VERTEX
  8
0
 10
38497.32262198052
 20
-4815.395484681521
  0
VERTEX
  8
0
 10
38498.64048087514
 20
-4815.431796782575
  0
VERTEX
  8
0
 10
38499.96225288028
 20
-4815.470098069604
  0
VERTEX
  8
0
 10
38501.28796438815
 20
-4815.510359187319
  0
VERTEX
  8
0
 10
38502.61764179096
 20
-4815.552550780431
  0
VERTEX
  8
0
 10
38503.95131148094
 20
-4815.596643493653
  0
VERTEX
  8
0
 10
38505.28899985029
 20
-4815.64260797169
  0
VERTEX
  8
0
 10
38506.63073329123
 20
-4815.690414859259
  0
VERTEX
  8
0
 10
38507.97653819595
 20
-4815.74003480107
  0
VERTEX
  8
0
 10
38509.32644095669
 20
-4815.791438441832
  0
VERTEX
  8
0
 10
38510.68046796566
 20
-4815.844596426256
  0
VERTEX
  8
0
 10
38512.03864561506
 20
-4815.899479399055
  0
VERTEX
  8
0
 10
38513.4010002971
 20
-4815.956058004939
  0
VERTEX
  8
0
 10
38514.76755840403
 20
-4816.01430288862
  0
VERTEX
  8
0
 10
38516.13834632801
 20
-4816.074184694807
  0
VERTEX
  8
0
 10
38517.51339046128
 20
-4816.135674068213
  0
VERTEX
  8
0
 10
38518.89271719605
 20
-4816.198741653548
  0
VERTEX
  8
0
 10
38520.27635292453
 20
-4816.263358095524
  0
VERTEX
  8
0
 10
38521.66432403893
 20
-4816.32949403885
  0
VERTEX
  8
0
 10
38523.05665693148
 20
-4816.39712012824
  0
VERTEX
  8
0
 10
38524.45337799437
 20
-4816.466207008402
  0
VERTEX
  8
0
 10
38525.85451361982
 20
-4816.53672532405
  0
VERTEX
  8
0
 10
38527.26009020005
 20
-4816.608645719893
  0
VERTEX
  8
0
 10
38528.67013412727
 20
-4816.681938840642
  0
VERTEX
  8
0
 10
38530.08467179369
 20
-4816.756575331009
  0
VERTEX
  8
0
 10
38531.50372959152
 20
-4816.832525835704
  0
VERTEX
  8
0
 10
38532.92733391298
 20
-4816.909760999439
  0
VERTEX
  8
0
 10
38534.35551115027
 20
-4816.988251466925
  0
VERTEX
  8
0
 10
38535.78828769562
 20
-4817.067967882873
  0
VERTEX
  8
0
 10
38537.22568994123
 20
-4817.148880891994
  0
VERTEX
  8
0
 10
38538.66774427932
 20
-4817.230961138998
  0
VERTEX
  8
0
 10
38540.11447710209
 20
-4817.314179268596
  0
VERTEX
  8
0
 10
38541.56591480177
 20
-4817.398505925502
  0
VERTEX
  8
0
 10
38543.02208377056
 20
-4817.483911754423
  0
VERTEX
  8
0
 10
38544.48301040068
 20
-4817.570367400073
  0
VERTEX
  8
0
 10
38545.94872108434
 20
-4817.657843507162
  0
VERTEX
  8
0
 10
38547.41924221376
 20
-4817.746310720401
  0
VERTEX
  8
0
 10
38548.89460018113
 20
-4817.835739684501
  0
VERTEX
  8
0
 10
38550.37482137869
 20
-4817.926101044173
  0
VERTEX
  8
0
 10
38551.85993219863
 20
-4818.01736544413
  0
VERTEX
  8
0
 10
38553.34995903318
 20
-4818.109503529078
  0
VERTEX
  8
0
 10
38554.84492827455
 20
-4818.202485943733
  0
VERTEX
  8
0
 10
38556.34486631494
 20
-4818.296283332804
  0
VERTEX
  8
0
 10
38557.84979954657
 20
-4818.390866341003
  0
VERTEX
  8
0
 10
38559.35975436166
 20
-4818.486205613039
  0
VERTEX
  8
0
 10
38560.87475715242
 20
-4818.582271793624
  0
VERTEX
  8
0
 10
38562.39483431105
 20
-4818.679035527472
  0
VERTEX
  8
0
 10
38563.92001222977
 20
-4818.77646745929
  0
VERTEX
  8
0
 10
38565.4503173008
 20
-4818.87453823379
  0
VERTEX
  8
0
 10
38566.98577591635
 20
-4818.973218495684
  0
VERTEX
  8
0
 10
38568.52641446863
 20
-4819.072478889682
  0
VERTEX
  8
0
 10
38570.07225934984
 20
-4819.172290060496
  0
VERTEX
  8
0
 10
38571.62333695222
 20
-4819.272622652838
  0
VERTEX
  8
0
 10
38573.17967366796
 20
-4819.373447311415
  0
VERTEX
  8
0
 10
38574.74129588929
 20
-4819.474734680943
  0
VERTEX
  8
0
 10
38576.30823000841
 20
-4819.57645540613
  0
VERTEX
  8
0
 10
38577.88050241753
 20
-4819.678580131687
  0
VERTEX
  8
0
 10
38579.45813950887
 20
-4819.781079502326
  0
VERTEX
  8
0
 10
38581.04116767464
 20
-4819.883924162759
  0
VERTEX
  8
0
 10
38582.62961330706
 20
-4819.987084757695
  0
VERTEX
  8
0
 10
38584.22350279833
 20
-4820.090531931846
  0
VERTEX
  8
0
 10
38585.82286254068
 20
-4820.194236329924
  0
VERTEX
  8
0
 10
38587.4277189263
 20
-4820.298168596638
  0
VERTEX
  8
0
 10
38589.03809834742
 20
-4820.4022993767
  0
VERTEX
  8
0
 10
38590.65402719624
 20
-4820.506599314822
  0
VERTEX
  8
0
 10
38592.27553186499
 20
-4820.611039055712
  0
VERTEX
  8
0
 10
38593.90263874587
 20
-4820.715589244086
  0
VERTEX
  8
0
 10
38595.53537423109
 20
-4820.820220524651
  0
VERTEX
  8
0
 10
38603.96758522868
 20
-4821.883472288339
  0
VERTEX
  8
0
 10
38636.84613640715
 20
-4826.420625708648
  0
VERTEX
  8
0
 10
38638.19196538132
 20
-4826.600479886834
  0
VERTEX
  8
0
 10
38639.53690548769
 20
-4826.786414323831
  0
VERTEX
  8
0
 10
38640.88097386108
 20
-4826.978311809428
  0
VERTEX
  8
0
 10
38642.22418763637
 20
-4827.17605513342
  0
VERTEX
  8
0
 10
38643.56656394842
 20
-4827.379527085602
  0
VERTEX
  8
0
 10
38644.90811993209
 20
-4827.588610455766
  0
VERTEX
  8
0
 10
38646.24887272224
 20
-4827.803188033707
  0
VERTEX
  8
0
 10
38647.58883945372
 20
-4828.023142609215
  0
VERTEX
  8
0
 10
38648.9280372614
 20
-4828.248356972087
  0
VERTEX
  8
0
 10
38650.26648328013
 20
-4828.478713912116
  0
VERTEX
  8
0
 10
38651.60419464479
 20
-4828.714096219095
  0
VERTEX
  8
0
 10
38652.94118849021
 20
-4828.954386682818
  0
VERTEX
  8
0
 10
38654.27748195128
 20
-4829.199468093077
  0
VERTEX
  8
0
 10
38655.61309216284
 20
-4829.449223239666
  0
VERTEX
  8
0
 10
38656.94803625975
 20
-4829.703534912379
  0
VERTEX
  8
0
 10
38658.28233137687
 20
-4829.962285901011
  0
VERTEX
  8
0
 10
38659.61599464906
 20
-4830.225358995352
  0
VERTEX
  8
0
 10
38660.94904321119
 20
-4830.492636985198
  0
VERTEX
  8
0
 10
38662.28149419811
 20
-4830.764002660343
  0
VERTEX
  8
0
 10
38663.61336474468
 20
-4831.039338810578
  0
VERTEX
  8
0
 10
38664.94467198576
 20
-4831.318528225698
  0
VERTEX
  8
0
 10
38666.27543305622
 20
-4831.601453695497
  0
VERTEX
  8
0
 10
38667.6056650909
 20
-4831.887998009768
  0
VERTEX
  8
0
 10
38668.93538522467
 20
-4832.178043958304
  0
VERTEX
  8
0
 10
38670.2646105924
 20
-4832.4714743309
  0
VERTEX
  8
0
 10
38671.59335832894
 20
-4832.768171917348
  0
VERTEX
  8
0
 10
38672.92164556913
 20
-4833.068019507442
  0
SEQEND
  8
0
  0
POLYLINE
  8
0
 66
     1
 70
     1
  0
VERTEX
  8
0
 10
38672.92164047917
 20
-4771.714043281894
  0
VERTEX
  8
0
 10
38672.92164047917
 20
-5521.841222201911
  0
SEQEND
  8
0
  0
POLYLINE
  8
0
 66
     1
  0
VERTEX
  8
0
 10
38672.92164047917
 20
-4771.714043281894
  0
VERTEX
  8
0
 10
38157.92152026167
 20
-4771.714043281894
 42
0.414390990641
  0
VERTEX
  8
0
 10
38152.92152503005
 20
-4776.714038513524
  0
VERTEX
  8
0
 10
38152.92152503005
 20
-4781.656648790275
  0
SEQEND
  8
0
  0
POLYLINE
  8
0
 66
     1
  0
VERTEX
  8
0
 10
38152.92152503005
 20
-5491.727178236684
  0
VERTEX
  8
0
 10
38152.92152503005
 20
-5506.841509081347
 42
0.414294029309
  0
VERTEX
  8
0
 10
38167.92151072493
 20
-5521.841222201911
  0
VERTEX
  8
0
 10
38672.92164047917
 20
-5521.841222201911
  0
SEQEND
  8
0
  0
POLYLINE
  8
0
 66
     1
  0
VERTEX
  8
0
 10
39193.28771693954
 20
-5005.766880176218
  0
VERTEX
  8
0
 10
39193.28771693954
 20
-5491.727178236684
 42
0.413965955855
  0
VERTEX
  8
0
 10
39208.28771118863
 20
-5506.714043281896
  0
VERTEX
  8
0
 10
39308.64014935954
 20
-5506.714043617172
 42
0.419950095054
  0
VERTEX
  8
0
 10
39323.64009483108
 20
-5491.714043952448
  0
VERTEX
  8
0
 10
39323.64009483108
 20
-4781.714033745152
 42
0.43772166494
  0
VERTEX
  8
0
 10
39313.64010436783
 20
-4771.714043281894
  0
VERTEX
  8
0
 10
39203.28771118863
 20
-4771.714043281894
 42
0.414154868071
  0
VERTEX
  8
0
 10
39193.28771693954
 20
-4781.656648790275
  0
VERTEX
  8
0
 10
39193.28771693954
 20
-4837.89467061721
  0
SEQEND
  8
0
  0
POLYLINE
  8
0
 66
     1
  0
VERTEX
  8
0
 10
38673.28750013468
 20
-4990.67722133548
  0
VERTEX
  8
0
 10
38674.08081225636
 20
-4991.572618799629
  0
VERTEX
  8
0
 10
38674.89771084226
 20
-4992.449308730655
  0
VERTEX
  8
0
 10
38675.73778883859
 20
-4993.30761398203
  0
VERTEX
  8
0
 10
38676.60063919158
 20
-4994.147857407233
  0
VERTEX
  8
0
 10
38677.48585484746
 20
-4994.970361859738
  0
VERTEX
  8
0
 10
38678.39302875246
 20
-4995.775450193019
  0
VERTEX
  8
0
 10
38679.3217538528
 20
-4996.563445260555
  0
VERTEX
  8
0
 10
38680.27162309471
 20
-4997.33466991582
  0
VERTEX
  8
0
 10
38681.24222942442
 20
-4998.08944701229
  0
VERTEX
  8
0
 10
38682.23316578815
 20
-4998.828099403439
  0
VERTEX
  8
0
 10
38683.24402513212
 20
-4999.550949942744
  0
VERTEX
  8
0
 10
38684.27440040259
 20
-5000.258321483682
  0
VERTEX
  8
0
 10
38685.32388454575
 20
-5000.950536879725
  0
VERTEX
  8
0
 10
38686.39207050783
 20
-5001.627918984353
  0
VERTEX
  8
0
 10
38687.47855123507
 20
-5002.290790651037
  0
VERTEX
  8
0
 10
38688.5829196737
 20
-5002.939474733256
  0
VERTEX
  8
0
 10
38689.70476876995
 20
-5003.574294084485
  0
VERTEX
  8
0
 10
38690.84369147001
 20
-5004.195571558197
  0
VERTEX
  8
0
 10
38691.99928072016
 20
-5004.803630007871
  0
VERTEX
  8
0
 10
38693.17112946659
 20
-5005.398792286981
  0
VERTEX
  8
0
 10
38694.35883065553
 20
-5005.981381249002
  0
VERTEX
  8
0
 10
38695.56197723322
 20
-5006.551719747411
  0
VERTEX
  8
0
 10
38696.78016214588
 20
-5007.110130635683
  0
VERTEX
  8
0
 10
38698.01297833974
 20
-5007.656936767295
  0
VERTEX
  8
0
 10
38699.26001876102
 20
-5008.19246099572
  0
VERTEX
  8
0
 10
38700.52087635594
 20
-5008.717026174435
  0
VERTEX
  8
0
 10
38701.79514407075
 20
-5009.230955156915
  0
VERTEX
  8
0
 10
38703.08241485167
 20
-5009.734570796637
  0
VERTEX
  8
0
 10
38704.38228164491
 20
-5010.228195947075
  0
VERTEX
  8
0
 10
38705.69433739671
 20
-5010.712153461705
  0
VERTEX
  8
0
 10
38707.01817505329
 20
-5011.186766194003
  0
VERTEX
  8
0
 10
38708.35338756088
 20
-5011.652356997445
  0
VERTEX
  8
0
 10
38709.69956786572
 20
-5012.109248725505
  0
VERTEX
  8
0
 10
38711.05630891402
 20
-5012.557764231661
  0
VERTEX
  8
0
 10
38712.423203652
 20
-5012.998226369386
  0
VERTEX
  8
0
 10
38713.79984502591
 20
-5013.430957992157
  0
VERTEX
  8
0
 10
38715.18582598196
 20
-5013.85628195345
  0
VERTEX
  8
0
 10
38716.58073946638
 20
-5014.274521106739
  0
VERTEX
  8
0
 10
38717.98417842539
 20
-5014.685998305502
  0
VERTEX
  8
0
 10
38719.39573580524
 20
-5015.091036403213
  0
VERTEX
  8
0
 10
38720.81500455214
 20
-5015.489958253347
  0
VERTEX
  8
0
 10
38722.24157761231
 20
-5015.883086709382
  0
VERTEX
  8
0
 10
38723.67504793199
 20
-5016.27074462479
  0
VERTEX
  8
0
 10
38725.11500845739
 20
-5016.65325485305
  0
VERTEX
  8
0
 10
38726.56105213476
 20
-5017.030940247637
  0
VERTEX
  8
0
 10
38728.01277191032
 20
-5017.404123662025
  0
VERTEX
  8
0
 10
38729.46976073028
 20
-5017.77312794969
  0
VERTEX
  8
0
 10
38730.93161154089
 20
-5018.138275964108
  0
VERTEX
  8
0
 10
38732.39791728835
 20
-5018.499890558754
  0
VERTEX
  8
0
 10
38733.86827091892
 20
-5018.858294587106
  0
VERTEX
  8
0
 10
38735.34226537879
 20
-5019.213810902636
  0
VERTEX
  8
0
 10
38736.81949361421
 20
-5019.566762358823
  0
VERTEX
  8
0
 10
38738.29954857141
 20
-5019.917471809141
  0
VERTEX
  8
0
 10
38739.7820231966
 20
-5020.266262107066
  0
VERTEX
  8
0
 10
38741.26651043603
 20
-5020.613456106072
  0
VERTEX
  8
0
 10
38742.75260323589
 20
-5020.959376659636
  0
VERTEX
  8
0
 10
38744.23989454245
 20
-5021.304346621235
  0
VERTEX
  8
0
 10
38745.7279773019
 20
-5021.648688844341
  0
VERTEX
  8
0
 10
38766.05134382771
 20
-5021.973581244293
  0
VERTEX
  8
0
 10
39061.69432593571
 20
-5022.308907733673
  0
VERTEX
  8
0
 10
39189.48766581708
 20
-5013.623583869342
  0
VERTEX
  8
0
 10
39193.27232748906
 20
-5005.541533501475
  0
VERTEX
  8
0
 10
39193.23500031601
 20
-5004.218172091461
  0
VERTEX
  8
0
 10
39193.20778564248
 20
-5002.89456745572
  0
VERTEX
  8
0
 10
39193.19057665129
 20
-5001.570722163412
  0
VERTEX
  8
0
 10
39193.18326652525
 20
-5000.246638783707
  0
VERTEX
  8
0
 10
39193.18574844719
 20
-4998.922319885768
  0
VERTEX
  8
0
 10
39193.19791559994
 20
-4997.597768038761
  0
VERTEX
  8
0
 10
39193.21966116632
 20
-4996.272985811855
  0
VERTEX
  8
0
 10
39193.25087832913
 20
-4994.94797577421
  0
VERTEX
  8
0
 10
39193.29146027123
 20
-4993.622740494995
  0
VERTEX
  8
0
 10
39193.34130017542
 20
-4992.297282543375
  0
VERTEX
  8
0
 10
39193.40029122453
 20
-4990.971604488515
  0
VERTEX
  8
0
 10
39193.46832660138
 20
-4989.645708899583
  0
VERTEX
  8
0
 10
39193.54529948879
 20
-4988.319598345742
  0
VERTEX
  8
0
 10
39193.63110306959
 20
-4986.993275396158
  0
VERTEX
  8
0
 10
39193.7256305266
 20
-4985.666742619997
  0
VERTEX
  8
0
 10
39193.82877504265
 20
-4984.340002586425
  0
VERTEX
  8
0
 10
39193.94042980054
 20
-4983.013057864608
  0
VERTEX
  8
0
 10
39194.06048798311
 20
-4981.685911023709
  0
VERTEX
  8
0
 10
39194.18884277318
 20
-4980.358564632896
  0
VERTEX
  8
0
 10
39194.32538735358
 20
-4979.031021261334
  0
VERTEX
  8
0
 10
39194.47001490712
 20
-4977.703283478188
  0
VERTEX
  8
0
 10
39194.62261861663
 20
-4976.375353852624
  0
VERTEX
  8
0
 10
39194.78309166494
 20
-4975.047234953809
  0
VERTEX
  8
0
 10
39194.95132723486
 20
-4973.718929350906
  0
VERTEX
  8
0
 10
39195.12721850921
 20
-4972.390439613084
  0
VERTEX
  8
0
 10
39195.31065867083
 20
-4971.061768309505
  0
VERTEX
  8
0
 10
39195.50154090254
 20
-4969.732918009336
  0
VERTEX
  8
0
 10
39195.69975838714
 20
-4968.403891281744
  0
VERTEX
  8
0
 10
39195.90520430748
 20
-4967.074690695892
  0
VERTEX
  8
0
 10
39196.11777184637
 20
-4965.745318820948
  0
VERTEX
  8
0
 10
39196.33735418663
 20
-4964.415778226076
  0
VERTEX
  8
0
 10
39196.56384451109
 20
-4963.086071480442
  0
VERTEX
  8
0
 10
39196.79713600257
 20
-4961.756201153213
  0
VERTEX
  8
0
 10
39197.0371218439
 20
-4960.426169813552
  0
VERTEX
  8
0
 10
39197.28369521789
 20
-4959.095980030627
  0
VERTEX
  8
0
 10
39197.53674930736
 20
-4957.765634373602
  0
VERTEX
  8
0
 10
39197.79617729516
 20
-4956.435135411643
  0
VERTEX
  8
0
 10
39198.06187236409
 20
-4955.104485713916
  0
VERTEX
  8
0
 10
39198.33372769697
 20
-4953.773687849586
  0
VERTEX
  8
0
 10
39198.61163647663
 20
-4952.442744387819
  0
VERTEX
  8
0
 10
39198.8954918859
 20
-4951.111657897781
  0
VERTEX
  8
0
 10
39199.1851871076
 20
-4949.780430948637
  0
VERTEX
  8
0
 10
39199.48061532454
 20
-4948.449066109553
  0
VERTEX
  8
0
 10
39199.78166971956
 20
-4947.117565949694
  0
VERTEX
  8
0
 10
39200.08824347547
 20
-4945.785933038226
  0
VERTEX
  8
0
 10
39200.40022977509
 20
-4944.454169944314
  0
VERTEX
  8
0
 10
39200.71752180126
 20
-4943.122279237125
  0
VERTEX
  8
0
 10
39201.04001273679
 20
-4941.790263485824
  0
VERTEX
  8
0
 10
39201.36759576451
 20
-4940.458125259575
  0
VERTEX
  8
0
 10
39201.70016406723
 20
-4939.125867127546
  0
VERTEX
  8
0
 10
39202.03761082779
 20
-4937.793491658902
  0
VERTEX
  8
0
 10
39202.379829229
 20
-4936.461001422807
  0
VERTEX
  8
0
 10
39202.7267124537
 20
-4935.128398988429
  0
VERTEX
  8
0
 10
39203.07815368468
 20
-4933.795686924931
  0
VERTEX
  8
0
 10
39203.4340461048
 20
-4932.462867801481
  0
VERTEX
  8
0
 10
39203.79428289686
 20
-4931.129944187242
  0
VERTEX
  8
0
 10
39204.15875724368
 20
-4929.796918651383
  0
VERTEX
  8
0
 10
39204.52736232811
 20
-4928.463793763067
  0
VERTEX
  8
0
 10
39204.89999133294
 20
-4927.13057209146
  0
VERTEX
  8
0
 10
39205.27653744101
 20
-4925.797256205728
  0
VERTEX
  8
0
 10
39205.65689383514
 20
-4924.463848675037
  0
VERTEX
  8
0
 10
39206.04095369815
 20
-4923.130352068552
  0
VERTEX
  8
0
 10
39206.42861021288
 20
-4921.796768955439
  0
VERTEX
  8
0
 10
39206.81975656213
 20
-4920.463101904863
  0
VERTEX
  8
0
 10
39207.21428592873
 20
-4919.12935348599
  0
VERTEX
  8
0
 10
39207.61209149551
 20
-4917.795526267985
  0
VERTEX
  8
0
 10
39208.01306644528
 20
-4916.461622820015
  0
VERTEX
  8
0
 10
39208.41710396088
 20
-4915.127645711244
  0
VERTEX
  8
0
 10
39208.82409722511
 20
-4913.793597510838
  0
VERTEX
  8
0
 10
39209.23393942082
 20
-4912.459480787964
  0
VERTEX
  8
0
 10
39209.6465237308
 20
-4911.125298111787
  0
VERTEX
  8
0
 10
39210.06174333792
 20
-4909.791052051471
  0
VERTEX
  8
0
 10
39210.47949142495
 20
-4908.456745176182
  0
VERTEX
  8
0
 10
39210.89966117474
 20
-4907.122380055088
  0
VERTEX
  8
0
 10
39211.32214577011
 20
-4905.787959257353
  0
VERTEX
  8
0
 10
39211.74683839389
 20
-4904.453485352141
  0
VERTEX
  8
0
 10
39212.1736322289
 20
-4903.11896090862
  0
VERTEX
  8
0
 10
39212.60242045795
 20
-4901.784388495955
  0
VERTEX
  8
0
 10
39213.03309626388
 20
-4900.449770683311
  0
VERTEX
  8
0
 10
39213.46555282949
 20
-4899.115110039854
  0
VERTEX
  8
0
 10
39213.89968333762
 20
-4897.780409134749
  0
VERTEX
  8
0
 10
39214.3353809711
 20
-4896.445670537163
  0
VERTEX
  8
0
 10
39214.77253891274
 20
-4895.11089681626
  0
VERTEX
  8
0
 10
39215.21105034537
 20
-4893.776090541207
  0
VERTEX
  8
0
 10
39215.6508084518
 20
-4892.441254281169
  0
VERTEX
  8
0
 10
39216.09170641487
 20
-4891.10639060531
  0
VERTEX
  8
0
 10
39216.53363741739
 20
-4889.771502082799
  0
VERTEX
  8
0
 10
39216.97649464218
 20
-4888.436591282799
  0
VERTEX
  8
0
 10
39217.42017127208
 20
-4887.101660774476
  0
VERTEX
  8
0
 10
39217.86456048989
 20
-4885.766713126996
  0
VERTEX
  8
0
 10
39218.30955547847
 20
-4884.431750909524
  0
VERTEX
  8
0
 10
39218.75504942059
 20
-4883.096776691227
  0
VERTEX
  8
0
 10
39219.20093549912
 20
-4881.76179304127
  0
VERTEX
  8
0
 10
39219.64710689686
 20
-4880.426802528818
  0
VERTEX
  8
0
 10
39220.09345679663
 20
-4879.091807723036
  0
VERTEX
  8
0
 10
39220.55561509752
 20
-4877.770260728924
  0
VERTEX
  8
0
 10
39221.04800813967
 20
-4876.475910283605
  0
VERTEX
  8
0
 10
39221.53360084166
 20
-4875.180669059251
  0
VERTEX
  8
0
 10
39222.00727593876
 20
-4873.883866743493
  0
VERTEX
  8
0
 10
39222.46391616626
 20
-4872.58483302396
  0
VERTEX
  8
0
 10
39222.89840425941
 20
-4871.282897588282
  0
VERTEX
  8
0
 10
39223.30562295351
 20
-4869.977390124089
  0
VERTEX
  8
0
 10
39223.68045498382
 20
-4868.667640319011
  0
VERTEX
  8
0
 10
39224.01778308562
 20
-4867.352977860679
  0
VERTEX
  8
0
 10
39224.31248999419
 20
-4866.032732436721
  0
VERTEX
  8
0
 10
39224.55945844481
 20
-4864.70623373477
  0
VERTEX
  8
0
 10
39224.75357117275
 20
-4863.372811442453
  0
VERTEX
  8
0
 10
39224.88971091328
 20
-4862.031795247402
  0
VERTEX
  8
0
 10
39224.96507175206
 20
-4860.682817601871
  0
VERTEX
  8
0
 10
39224.9879655261
 20
-4859.326967276425
  0
VERTEX
  8
0
 10
39224.97004268595
 20
-4857.965770367814
  0
VERTEX
  8
0
 10
39224.92295432703
 20
-4856.60075305728
  0
VERTEX
  8
0
 10
39224.85835154481
 20
-4855.23344152606
  0
VERTEX
  8
0
 10
39224.6163050781
 20
-4854.004726523287
  0
VERTEX
  8
0
 10
39224.14151528445
 20
-4852.949124135406
  0
VERTEX
  8
0
 10
39223.58652606929
 20
-4851.934852690577
  0
VERTEX
  8
0
 10
39222.94956665293
 20
-4850.960309441771
  0
VERTEX
  8
0
 10
39222.2288662557
 20
-4850.023891641961
  0
VERTEX
  8
0
 10
39221.42265409791
 20
-4849.123996544124
  0
VERTEX
  8
0
 10
39220.52915939991
 20
-4848.25902140123
  0
VERTEX
  8
0
 10
39219.54661138199
 20
-4847.427363466253
  0
VERTEX
  8
0
 10
39218.47323926448
 20
-4846.627419992168
  0
VERTEX
  8
0
 10
39217.30727226771
 20
-4845.857588231947
  0
VERTEX
  8
0
 10
39216.046939612
 20
-4845.116265438565
  0
VERTEX
  8
0
 10
39214.69047051768
 20
-4844.401848864994
  0
VERTEX
  8
0
 10
39213.23609420506
 20
-4843.712735764209
  0
VERTEX
  8
0
 10
39211.68203989445
 20
-4843.047323389183
  0
VERTEX
  8
0
 10
39210.02653680621
 20
-4842.404008992888
  0
VERTEX
  8
0
 10
39208.26781416063
 20
-4841.781189828298
  0
VERTEX
  8
0
 10
39206.74657430155
 20
-4841.335546435218
  0
VERTEX
  8
0
 10
39205.42423629086
 20
-4840.99500341865
  0
VERTEX
  8
0
 10
39204.1018707046
 20
-4840.654649031295
  0
VERTEX
  8
0
 10
39202.77946040795
 20
-4840.314600483358
  0
VERTEX
  8
0
 10
39201.45698826604
 20
-4839.974974985045
  0
VERTEX
  8
0
 10
39200.13443714401
 20
-4839.635889746564
  0
VERTEX
  8
0
 10
39198.81178990698
 20
-4839.297461978122
  0
VERTEX
  8
0
 10
39197.48902942014
 20
-4838.959808889924
  0
VERTEX
  8
0
 10
39196.16613854858
 20
-4838.623047692176
  0
VERTEX
  8
0
 10
39194.84310015746
 20
-4838.287295595086
  0
VERTEX
  8
0
 10
39193.51989711192
 20
-4837.952669808859
  0
VERTEX
  8
0
 10
39192.19651227711
 20
-4837.619287543703
  0
VERTEX
  8
0
 10
39190.87292851816
 20
-4837.287266009824
  0
VERTEX
  8
0
 10
39189.5491287002
 20
-4836.956722417428
  0
VERTEX
  8
0
 10
39188.2250956884
 20
-4836.627773976723
  0
VERTEX
  8
0
 10
39186.90081234788
 20
-4836.300537897913
  0
VERTEX
  8
0
 10
39185.57626154377
 20
-4835.975131391207
  0
VERTEX
  8
0
 10
39184.25142614124
 20
-4835.651671666809
  0
VERTEX
  8
0
 10
39182.9262890054
 20
-4835.330275934928
  0
VERTEX
  8
0
 10
39181.60083300142
 20
-4835.011061405768
  0
VERTEX
  8
0
 10
39180.27504099441
 20
-4834.694145289538
  0
VERTEX
  8
0
 10
39178.94889584953
 20
-4834.379644796444
  0
VERTEX
  8
0
 10
39177.62238043192
 20
-4834.067677136691
  0
VERTEX
  8
0
 10
39176.29547760671
 20
-4833.758359520487
  0
VERTEX
  8
0
 10
39174.96817023906
 20
-4833.451809158037
  0
VERTEX
  8
0
 10
39173.64044119409
 20
-4833.148143259548
  0
VERTEX
  8
0
 10
39172.31227333695
 20
-4832.847479035227
  0
VERTEX
  8
0
 10
39170.98364953277
 20
-4832.549933695281
  0
VERTEX
  8
0
 10
39169.6545526467
 20
-4832.255624449916
  0
VERTEX
  8
0
 10
39168.32496554388
 20
-4831.964668509338
  0
VERTEX
  8
0
 10
39166.99487108945
 20
-4831.677183083753
  0
VERTEX
  8
0
 10
39165.66425214856
 20
-4831.393285383369
  0
VERTEX
  8
0
 10
39164.33309158633
 20
-4831.113092618392
  0
VERTEX
  8
0
 10
39163.00137226791
 20
-4830.83672199903
  0
VERTEX
  8
0
 10
39161.66907705845
 20
-4830.564290735484
  0
VERTEX
  8
0
 10
39160.33618882307
 20
-4830.295916037967
  0
VERTEX
  8
0
 10
39159.00269042693
 20
-4830.031715116683
  0
VERTEX
  8
0
 10
39157.66856473516
 20
-4829.771805181837
  0
VERTEX
  8
0
 10
39156.33379461291
 20
-4829.516303443637
  0
VERTEX
  8
0
 10
39154.9983629253
 20
-4829.26532711229
  0
VERTEX
  8
0
 10
39153.66225253749
 20
-4829.018993398002
  0
VERTEX
  8
0
 10
39152.32544631461
 20
-4828.777419510979
  0
VERTEX
  8
0
 10
39150.98792712182
 20
-4828.540722661427
  0
VERTEX
  8
0
 10
39149.64967782423
 20
-4828.309020059554
  0
VERTEX
  8
0
 10
39148.310681287
 20
-4828.082428915566
  0
VERTEX
  8
0
 10
39146.97092037526
 20
-4827.861066439669
  0
VERTEX
  8
0
 10
39145.63037795417
 20
-4827.64504984207
  0
VERTEX
  8
0
 10
39144.28903688885
 20
-4827.434496332975
  0
VERTEX
  8
0
 10
39142.94688004445
 20
-4827.229523122591
  0
VERTEX
  8
0
 10
39141.6038902861
 20
-4827.030247421124
  0
VERTEX
  8
0
 10
39140.26005047896
 20
-4826.836786438782
  0
VERTEX
  8
0
 10
39138.91534348815
 20
-4826.649257385769
  0
VERTEX
  8
0
 10
39137.56975217882
 20
-4826.467777472293
  0
VERTEX
  8
0
 10
39111.74921123705
 20
-4822.896033309889
  0
VERTEX
  8
0
 10
39096.46264170038
 20
-4820.865874895139
  0
VERTEX
  8
0
 10
39094.70179056637
 20
-4820.743362115489
  0
VERTEX
  8
0
 10
39093.07319186624
 20
-4820.638787534884
  0
VERTEX
  8
0
 10
39091.45020238536
 20
-4820.534315607941
  0
VERTEX
  8
0
 10
39089.83279573154
 20
-4820.429975689948
  0
VERTEX
  8
0
 10
39088.22094551254
 20
-4820.325797136195
  0
VERTEX
  8
0
 10
39086.61462533617
 20
-4820.221809301969
  0
VERTEX
  8
0
 10
39085.01380881019
 20
-4820.118041542562
  0
VERTEX
  8
0
 10
39083.4184695424
 20
-4820.014523213261
  0
VERTEX
  8
0
 10
39081.8285811406
 20
-4819.911283669355
  0
VERTEX
  8
0
 10
39080.24411721257
 20
-4819.808352266134
  0
VERTEX
  8
0
 10
39078.66505136609
 20
-4819.705758358884
  0
VERTEX
  8
0
 10
39077.09135720896
 20
-4819.603531302898
  0
VERTEX
  8
0
 10
39075.52300834895
 20
-4819.501700453463
  0
VERTEX
  8
0
 10
39073.95997839387
 20
-4819.400295165869
  0
VERTEX
  8
0
 10
39072.40224095148
 20
-4819.299344795402
  0
VERTEX
  8
0
 10
39070.84976962959
 20
-4819.198878697354
  0
VERTEX
  8
0
 10
39069.30253803598
 20
-4819.098926227013
  0
VERTEX
  8
0
 10
39067.76051977843
 20
-4818.999516739667
  0
VERTEX
  8
0
 10
39066.22368846474
 20
-4818.900679590608
  0
VERTEX
  8
0
 10
39064.69201770268
 20
-4818.802444135122
  0
VERTEX
  8
0
 10
39063.16548110006
 20
-4818.704839728499
  0
VERTEX
  8
0
 10
39061.64405226465
 20
-4818.607895726027
  0
VERTEX
  8
0
 10
39060.12770480425
 20
-4818.511641482996
  0
VERTEX
  8
0
 10
39058.61641232663
 20
-4818.416106354695
  0
VERTEX
  8
0
 10
39057.11014843959
 20
-4818.321319696413
  0
VERTEX
  8
0
 10
39055.60888675092
 20
-4818.227310863438
  0
VERTEX
  8
0
 10
39054.11260086841
 20
-4818.13410921106
  0
VERTEX
  8
0
 10
39052.62126439982
 20
-4818.041744094568
  0
VERTEX
  8
0
 10
39051.13485095298
 20
-4817.950244869249
  0
VERTEX
  8
0
 10
39049.65333413563
 20
-4817.859640890396
  0
VERTEX
  8
0
 10
39048.17668755561
 20
-4817.769961513293
  0
VERTEX
  8
0
 10
39046.70488482065
 20
-4817.681236093233
  0
VERTEX
  8
0
 10
39045.23789953858
 20
-4817.593493985502
  0
VERTEX
  8
0
 10
39043.77570531717
 20
-4817.506764545392
  0
VERTEX
  8
0
 10
39042.31827576422
 20
-4817.42107712819
  0
VERTEX
  8
0
 10
39040.8655844875
 20
-4817.336461089184
  0
VERTEX
  8
0
 10
39039.41760509481
 20
-4817.252945783665
  0
VERTEX
  8
0
 10
39037.97431119393
 20
-4817.170560566921
  0
VERTEX
  8
0
 10
39036.53567639265
 20
-4817.089334794242
  0
VERTEX
  8
0
 10
39035.10167429876
 20
-4817.009297820916
  0
VERTEX
  8
0
 10
39033.67227852004
 20
-4816.930479002232
  0
VERTEX
  8
0
 10
39032.24746266429
 20
-4816.852907693478
  0
VERTEX
  8
0
 10
39030.82720033928
 20
-4816.776613249945
  0
VERTEX
  8
0
 10
39029.41146515281
 20
-4816.701625026921
  0
VERTEX
  8
0
 10
39028.00023071268
 20
-4816.627972379694
  0
VERTEX
  8
0
 10
39026.59347062664
 20
-4816.555684663555
  0
VERTEX
  8
0
 10
39025.19115850252
 20
-4816.484791233791
  0
VERTEX
  8
0
 10
39023.79326794807
 20
-4816.415321445693
  0
VERTEX
  8
0
 10
39022.39977257109
 20
-4816.347304654548
  0
VERTEX
  8
0
 10
39021.01064597938
 20
-4816.280770215646
  0
VERTEX
  8
0
 10
39019.62586178072
 20
-4816.215747484276
  0
VERTEX
  8
0
 10
39018.24539358289
 20
-4816.152265815726
  0
VERTEX
  8
0
 10
39016.86921499369
 20
-4816.090354565285
  0
VERTEX
  8
0
 10
39015.49729962089
 20
-4816.030043088245
  0
VERTEX
  8
0
 10
39014.12962107229
 20
-4815.97136073989
  0
VERTEX
  8
0
 10
39012.76615295569
 20
-4815.914336875513
  0
VERTEX
  8
0
 10
39011.40686887884
 20
-4815.859000850401
  0
VERTEX
  8
0
 10
39010.05174244957
 20
-4815.805382019845
  0
VERTEX
  8
0
 10
39008.70074727563
 20
-4815.75350973913
  0
VERTEX
  8
0
 10
39007.35385696484
 20
-4815.703413363549
  0
VERTEX
  8
0
 10
39006.01104512496
 20
-4815.655122248389
  0
VERTEX
  8
0
 10
39004.67228536378
 20
-4815.608665748939
  0
VERTEX
  8
0
 10
39003.33755128911
 20
-4815.564073220487
  0
VERTEX
  8
0
 10
39002.00681650872
 20
-4815.521374018325
  0
VERTEX
  8
0
 10
39000.6800546304
 20
-4815.480597497741
  0
VERTEX
  8
0
 10
38999.35723926195
 20
-4815.441773014022
  0
VERTEX
  8
0
 10
38998.03834401113
 20
-4815.404929922458
  0
VERTEX
  8
0
 10
38996.72334248575
 20
-4815.370097578338
  0
VERTEX
  8
0
 10
38995.41220829359
 20
-4815.337305336951
  0
VERTEX
  8
0
 10
38994.10491504244
 20
-4815.306582553587
  0
VERTEX
  8
0
 10
38992.80143634008
 20
-4815.277958583532
  0
VERTEX
  8
0
 10
38991.5017457943
 20
-4815.251462782078
  0
VERTEX
  8
0
 10
38990.20581701289
 20
-4815.227124504514
  0
VERTEX
  8
0
 10
38979.90305580849
 20
-4815.232122571778
  0
VERTEX
  8
0
 10
38890.4279962767
 20
-4815.297049129165
  0
VERTEX
  8
0
 10
38856.7130759997
 20
-4815.221028876846
  0
VERTEX
  8
0
 10
38855.41814153174
 20
-4815.244789400983
  0
VERTEX
  8
0
 10
38854.11945230655
 20
-4815.270715242829
  0
VERTEX
  8
0
 10
38852.81698193189
 20
-4815.298777047095
  0
VERTEX
  8
0
 10
38851.51070401557
 20
-4815.328945458491
  0
VERTEX
  8
0
 10
38850.20059216536
 20
-4815.361191121729
  0
VERTEX
  8
0
 10
38848.88661998906
 20
-4815.395484681521
  0
VERTEX
  8
0
 10
38847.56876109444
 20
-4815.431796782575
  0
VERTEX
  8
0
 10
38846.2469890893
 20
-4815.470098069604
  0
VERTEX
  8
0
 10
38844.92127758144
 20
-4815.510359187319
  0
VERTEX
  8
0
 10
38843.59160017862
 20
-4815.552550780431
  0
VERTEX
  8
0
 10
38842.25793048865
 20
-4815.596643493653
  0
VERTEX
  8
0
 10
38840.92024211929
 20
-4815.64260797169
  0
VERTEX
  8
0
 10
38839.57850867836
 20
-4815.690414859259
  0
VERTEX
  8
0
 10
38838.23270377363
 20
-4815.74003480107
  0
VERTEX
  8
0
 10
38836.88280101289
 20
-4815.791438441832
  0
VERTEX
  8
0
 10
38835.52877400392
 20
-4815.844596426256
  0
VERTEX
  8
0
 10
38834.17059635452
 20
-4815.899479399055
  0
VERTEX
  8
0
 10
38832.80824167248
 20
-4815.956058004939
  0
VERTEX
  8
0
 10
38831.44168356556
 20
-4816.01430288862
  0
VERTEX
  8
0
 10
38830.07089564158
 20
-4816.074184694807
  0
VERTEX
  8
0
 10
38828.6958515083
 20
-4816.135674068213
  0
VERTEX
  8
0
 10
38827.31652477354
 20
-4816.198741653548
  0
VERTEX
  8
0
 10
38825.93288904506
 20
-4816.263358095524
  0
VERTEX
  8
0
 10
38824.54491793065
 20
-4816.32949403885
  0
VERTEX
  8
0
 10
38823.15258503811
 20
-4816.39712012824
  0
VERTEX
  8
0
 10
38821.75586397522
 20
-4816.466207008402
  0
VERTEX
  8
0
 10
38820.35472834976
 20
-4816.53672532405
  0
VERTEX
  8
0
 10
38818.94915176954
 20
-4816.608645719893
  0
VERTEX
  8
0
 10
38817.53910784231
 20
-4816.681938840642
  0
VERTEX
  8
0
 10
38816.1245701759
 20
-4816.756575331009
  0
VERTEX
  8
0
 10
38814.70551237806
 20
-4816.832525835704
  0
VERTEX
  8
0
 10
38813.2819080566
 20
-4816.909760999439
  0
VERTEX
  8
0
 10
38811.85373081931
 20
-4816.988251466925
  0
VERTEX
  8
0
 10
38810.42095427396
 20
-4817.067967882873
  0
VERTEX
  8
0
 10
38808.98355202835
 20
-4817.148880891994
  0
VERTEX
  8
0
 10
38807.54149769027
 20
-4817.230961138998
  0
VERTEX
  8
0
 10
38806.09476486749
 20
-4817.314179268596
  0
VERTEX
  8
0
 10
38804.64332716781
 20
-4817.398505925502
  0
VERTEX
  8
0
 10
38803.18715819902
 20
-4817.483911754423
  0
VERTEX
  8
0
 10
38801.7262315689
 20
-4817.570367400073
  0
VERTEX
  8
0
 10
38800.26052088524
 20
-4817.657843507162
  0
VERTEX
  8
0
 10
38798.78999975583
 20
-4817.746310720401
  0
VERTEX
  8
0
 10
38797.31464178846
 20
-4817.835739684501
  0
VERTEX
  8
0
 10
38795.83442059089
 20
-4817.926101044173
  0
VERTEX
  8
0
 10
38794.34930977095
 20
-4818.01736544413
  0
VERTEX
  8
0
 10
38792.8592829364
 20
-4818.109503529078
  0
VERTEX
  8
0
 10
38791.36431369503
 20
-4818.202485943733
  0
VERTEX
  8
0
 10
38789.86437565464
 20
-4818.296283332804
  0
VERTEX
  8
0
 10
38788.35944242301
 20
-4818.390866341003
  0
VERTEX
  8
0
 10
38786.84948760792
 20
-4818.486205613039
  0
VERTEX
  8
0
 10
38785.33448481716
 20
-4818.582271793624
  0
VERTEX
  8
0
 10
38783.81440765854
 20
-4818.679035527472
  0
VERTEX
  8
0
 10
38782.28922973981
 20
-4818.77646745929
  0
VERTEX
  8
0
 10
38780.75892466879
 20
-4818.87453823379
  0
VERTEX
  8
0
 10
38779.22346605323
 20
-4818.973218495684
  0
VERTEX
  8
0
 10
38777.68282750095
 20
-4819.072478889682
  0
VERTEX
  8
0
 10
38776.13698261974
 20
-4819.172290060496
  0
VERTEX
  8
0
 10
38774.58590501736
 20
-4819.272622652838
  0
VERTEX
  8
0
 10
38773.02956830162
 20
-4819.373447311415
  0
VERTEX
  8
0
 10
38771.46794608029
 20
-4819.474734680943
  0
VERTEX
  8
0
 10
38769.90101196118
 20
-4819.57645540613
  0
VERTEX
  8
0
 10
38768.32873955205
 20
-4819.678580131687
  0
VERTEX
  8
0
 10
38766.75110246072
 20
-4819.781079502326
  0
VERTEX
  8
0
 10
38765.16807429494
 20
-4819.883924162759
  0
VERTEX
  8
0
 10
38763.57962866253
 20
-4819.987084757695
  0
VERTEX
  8
0
 10
38761.98573917125
 20
-4820.090531931846
  0
VERTEX
  8
0
 10
38760.38637942891
 20
-4820.194236329924
  0
VERTEX
  8
0
 10
38758.78152304328
 20
-4820.298168596638
  0
VERTEX
  8
0
 10
38757.17114362217
 20
-4820.4022993767
  0
VERTEX
  8
0
 10
38755.55521477334
 20
-4820.506599314822
  0
VERTEX
  8
0
 10
38753.9337101046
 20
-4820.611039055712
  0
VERTEX
  8
0
 10
38752.30660322371
 20
-4820.715589244086
  0
VERTEX
  8
0
 10
38750.67386773849
 20
-4820.820220524651
  0
VERTEX
  8
0
 10
38742.2416567409
 20
-4821.883472288339
  0
VERTEX
  8
0
 10
38709.36310556244
 20
-4826.420625708648
  0
VERTEX
  8
0
 10
38708.01727658826
 20
-4826.600479886834
  0
VERTEX
  8
0
 10
38706.6723364819
 20
-4826.786414323831
  0
VERTEX
  8
0
 10
38705.3282681085
 20
-4826.978311809428
  0
VERTEX
  8
0
 10
38703.98505433321
 20
-4827.17605513342
  0
VERTEX
  8
0
 10
38702.64267802116
 20
-4827.379527085602
  0
VERTEX
  8
0
 10
38701.30112203749
 20
-4827.588610455766
  0
VERTEX
  8
0
 10
38699.96036924735
 20
-4827.803188033707
  0
VERTEX
  8
0
 10
38698.62040251587
 20
-4828.023142609215
  0
VERTEX
  8
0
 10
38697.28120470818
 20
-4828.248356972087
  0
VERTEX
  8
0
 10
38695.94275868945
 20
-4828.478713912116
  0
VERTEX
  8
0
 10
38694.6050473248
 20
-4828.714096219095
  0
VERTEX
  8
0
 10
38693.26805347937
 20
-4828.954386682818
  0
VERTEX
  8
0
 10
38691.93176001831
 20
-4829.199468093077
  0
VERTEX
  8
0
 10
38690.59614980675
 20
-4829.449223239666
  0
VERTEX
  8
0
 10
38689.26120570984
 20
-4829.703534912379
  0
VERTEX
  8
0
 10
38687.92691059272
 20
-4829.962285901011
  0
VERTEX
  8
0
 10
38686.59324732052
 20
-4830.225358995352
  0
VERTEX
  8
0
 10
38685.2601987584
 20
-4830.492636985198
  0
VERTEX
  8
0
 10
38683.92774777148
 20
-4830.764002660343
  0
VERTEX
  8
0
 10
38682.5958772249
 20
-4831.039338810578
  0
VERTEX
  8
0
 10
38681.26456998382
 20
-4831.318528225698
  0
VERTEX
  8
0
 10
38679.93380891337
 20
-4831.601453695497
  0
VERTEX
  8
0
 10
38678.60357687868
 20
-4831.887998009768
  0
VERTEX
  8
0
 10
38677.27385674491
 20
-4832.178043958304
  0
VERTEX
  8
0
 10
38675.94463137718
 20
-4832.4714743309
  0
VERTEX
  8
0
 10
38674.61588364065
 20
-4832.768171917348
  0
VERTEX
  8
0
 10
38673.28759640045
 20
-4833.068019507442
  0
SEQEND
  8
0
  0
POLYLINE
  8
0
 66
     1
  0
VERTEX
  8
0
 10
38672.92164047917
 20
-4771.714043281894
  0
VERTEX
  8
0
 10
39188.28772170791
 20
-4771.714043281894
 42
-0.414390990641
  0
VERTEX
  8
0
 10
39193.28771693954
 20
-4776.714038513524
  0
VERTEX
  8
0
 10
39193.28771693954
 20
-4781.656648790275
  0
SEQEND
  8
0
  0
POLYLINE
  8
0
 66
     1
  0
VERTEX
  8
0
 10
39193.28771693954
 20
-5491.727178236684
  0
VERTEX
  8
0
 10
39193.28771693954
 20
-5506.841509081347
 42
-0.414294029309
  0
VERTEX
  8
0
 10
39178.28773124466
 20
-5521.841222201911
  0
VERTEX
  8
0
 10
38673.28760149042
 20
-5521.841222201911
  0
SEQEND
  8
0
  0
LINE
  8
0
 62
     3
 10
38932.5249614936
 20
-6264.82651730407
 11
39016.90343452438
 21
-6264.82651730407
  0
LINE
  8
0
 10
39235.07228214258
 20
-6664.82651730407
 11
39270.07228214258
 21
-6664.82651730407
  0
POLYLINE
  8
0
 10
0.0
 20
0.0
 30
0.0
 66
     1
 70
     8
  0
VERTEX
  8
0
 10
39192.57228210574
 20
-6244.388639603913
 30
0.0
 70
    32
  0
VERTEX
  8
0
 10
39192.57228210736
 20
-6244.388639700802
 30
0.0
 70
    32
  0
VERTEX
  8
0
 10
39192.57228210897
 20
-6244.388639797693
 30
0.0
 70
    32
  0
VERTEX
  8
0
 10
39192.57228211057
 20
-6244.388639894582
 30
0.0
 70
    32
  0
VERTEX
  8
0
 10
39192.57228211218
 20
-6244.388639991473
 30
0.0
 70
    32
  0
VERTEX
  8
0
 10
39192.5722821138
 20
-6244.388640088361
 30
0.0
 70
    32
  0
VERTEX
  8
0
 10
39192.57228211541
 20
-6244.388640185251
 30
0.0
 70
    32
  0
VERTEX
  8
0
 10
39192.57228211701
 20
-6244.388640282141
 30
0.0
 70
    32
  0
VERTEX
  8
0
 10
39192.57228211862
 20
-6244.388640379029
 30
0.0
 70
    32
  0
VERTEX
  8
0
 10
39192.57228212024
 20
-6244.38864047592
 30
0.0
 70
    32
  0
VERTEX
  8
0
 10
39192.57228212185
 20
-6244.388640572809
 30
0.0
 70
    32
  0
VERTEX
  8
0
 10
39192.57228212344
 20
-6244.388640669699
 30
0.0
 70
    32
  0
VERTEX
  8
0
 10
39192.57228212506
 20
-6244.388640766589
 30
0.0
 70
    32
  0
VERTEX
  8
0
 10
39192.57228212668
 20
-6244.388640863477
 30
0.0
 70
    32
  0
VERTEX
  8
0
 10
39192.57228212829
 20
-6244.388640960367
 30
0.0
 70
    32
  0
VERTEX
  8
0
 10
39192.57228212988
 20
-6244.388641057257
 30
0.0
 70
    32
  0
VERTEX
  8
0
 10
39192.5722821315
 20
-6244.388641154146
 30
0.0
 70
    32
  0
VERTEX
  8
0
 10
39192.57228213311
 20
-6244.388641251036
 30
0.0
 70
    32
  0
VERTEX
  8
0
 10
39192.57228213473
 20
-6244.388641347926
 30
0.0
 70
    32
  0
VERTEX
  8
0
 10
39192.57228213632
 20
-6244.388641444814
 30
0.0
 70
    32
  0
VERTEX
  8
0
 10
39192.57228213794
 20
-6244.388641541705
 30
0.0
 70
    32
  0
VERTEX
  8
0
 10
39192.57228213955
 20
-6244.388641638594
 30
0.0
 70
    32
  0
VERTEX
  8
0
 10
39192.57228214117
 20
-6244.388641735482
 30
0.0
 70
    32
  0
VERTEX
  8
0
 10
39192.57228214276
 20
-6244.388641832374
 30
0.0
 70
    32
  0
VERTEX
  8
0
 10
39192.57228214437
 20
-6244.388641929262
 30
0.0
 70
    32
  0
SEQEND
  8
0
  0
POLYLINE
  8
0
 66
     1
 70
     1
  0
VERTEX
  8
0
 10
39192.5722821422
 20
-6198.368655828032
 42
-0.07026305415
  0
VERTEX
  8
0
 10
39195.82989813357
 20
-6170.144533049054
 42
-0.101618697399
  0
VERTEX
  8
0
 10
39231.44280652588
 20
-6097.990633328257
 42
-0.236601655473
  0
VERTEX
  8
0
 10
39278.80436260217
 20
-6074.826543530114
  0
VERTEX
  8
0
 10
39302.92469341272
 20
-6074.826543530114
 42
-0.523240917751
  0
VERTEX
  8
0
 10
39321.68900619407
 20
-6101.747636896952
 42
0.088362807038
  0
VERTEX
  8
0
 10
39292.57232028955
 20
-6264.826511343605
  0
VERTEX
  8
0
 10
39292.57232028955
 20
-6539.82651730407
 42
-0.398337629729
  0
VERTEX
  8
0
 10
39287.57232505792
 20
-6544.826519986281
  0
VERTEX
  8
0
 10
39197.57229069679
 20
-6544.826519986263
 42
-0.428549589901
  0
VERTEX
  8
0
 10
39192.57228214258
 20
-6539.82651730407
  0
VERTEX
  8
0
 10
39192.5722821422
 20
-6288.793305355087
  0
SEQEND
  8
0
  0
POLYLINE
  8
0
 66
     1
  0
VERTEX
  8
0
 10
39270.07228214258
 20
-6544.82651730407
  0
VERTEX
  8
0
 10
39270.07228214258
 20
-6664.82651730407
  0
VERTEX
  8
0
 10
39235.07228214258
 20
-6664.82651730407
  0
VERTEX
  8
0
 10
39235.07228214258
 20
-6664.82651730407
  0
VERTEX
  8
0
 10
39215.07228214258
 20
-6544.82651730407
  0
SEQEND
  8
0
  0
LINE
  8
0
 10
38148.02827214885
 20
-6544.827967303389
 11
39197.57229069679
 21
-6544.826519986263
  0
POLYLINE
  8
0
 66
     1
  0
VERTEX
  8
0
 10
39192.5742190473
 20
-6288.554314558532
 42
0.403088505769
  0
VERTEX
  8
0
 10
39178.640987912
 20
-6273.831424857625
  0
SEQEND
  8
0
  0
POLYLINE
  8
0
 66
     1
 70
   128
  0
VERTEX
  8
0
 10
38257.33120364474
 20
-6267.367817473335
  0
VERTEX
  8
0
 10
38166.84070024501
 20
-6273.831424857625
  0
VERTEX
  8
0
 10
38257.33120364473
 20
-6267.367817473335
 42
-0.014584366957
  0
VERTEX
  8
0
 10
38328.57825363264
 20
-6264.82651730407
  0
VERTEX
  8
0
 10
38422.97574601914
 20
-6264.82651730407
  0
VERTEX
  8
0
 10
38672.74084407851
 20
-6264.82651730407
  0
VERTEX
  8
0
 10
38922.50594213788
 20
-6264.82651730407
  0
VERTEX
  8
0
 10
39016.90343452437
 20
-6264.82651730407
 42
-0.014584366957
  0
VERTEX
  8
0
 10
39088.15048451228
 20
-6267.367817473335
  0
VERTEX
  8
0
 10
39178.640987912
 20
-6273.831424857625
  0
VERTEX
  8
0
 10
39088.15048451228
 20
-6267.367817473335
  0
SEQEND
  8
0
  0
POLYLINE
  8
0
 66
     1
  0
VERTEX
  8
0
 10
38152.90746910971
 20
-6288.554314558532
 42
-0.403088505769
  0
VERTEX
  8
0
 10
38166.84070024501
 20
-6273.831424857625
  0
SEQEND
  8
0
  0
POLYLINE
  8
0
 66
     1
  0
VERTEX
  8
0
 10
40521.42950585784
 20
-5986.225043351662
 42
0.108840099651
  0
VERTEX
  8
0
 10
40506.82080834478
 20
-5884.760649228034
 42
0.227334549542
  0
VERTEX
  8
0
 10
40405.4305886649
 20
-5950.308737143121
 42
0.043674001862
  0
VERTEX
  8
0
 10
40348.42134518576
 20
-6074.82654352678
  0
SEQEND
  8
0
  0
POLYLINE
  8
1HIDDEN
 66
     1
  0
VERTEX
  8
1HIDDEN
 10
40348.42134518576
 20
-6074.82654352678
 42
0.020384375839
  0
VERTEX
  8
1HIDDEN
 10
40329.42440017502
 20
-6135.95712969446
 42
0.198224624818
  0
VERTEX
  8
1HIDDEN
 10
40352.72259003911
 20
-6286.200232625161
 42
0.221445851776
  0
VERTEX
  8
1HIDDEN
 10
40440.69784833964
 20
-6196.538254744098
  0
SEQEND
  8
1HIDDEN
  0
ENDSEC
  0
EOF
