  0
SECTION
  2
HEADER
  9
$ACADVER
  1
AC1004
  9
$INSBASE
 10
0.0
 20
0.0
  9
$EXTMIN
 10
38288.55711322561
 20
-6834.82651730407
  9
$EXTMAX
 10
40743.38937028643
 20
-4771.706136419209
  9
$LIMMIN
 10
0.0
 20
0.0
  9
$LIMMAX
 10
12.0
 20
9.0
  9
$ORTHOMODE
 70
     0
  9
$REGENMODE
 70
     1
  9
$FILLMODE
 70
     1
  9
$QTEXTMODE
 70
     0
  9
$DRAGMODE
 70
     2
  9
$LTSCALE
 40
0.5
  9
$OSMODE
 70
  2175
  9
$ATTMODE
 70
     1
  9
$TEXTSIZE
 40
4.0
  9
$TRACEWID
 40
0.05
  9
$TEXTSTYLE
  7
STANDARD
  9
$CLAYER
  8
0
  9
$CELTYPE
  6
BYLAYER
  9
$CECOLOR
 62
   256
  9
$DIMSCALE
 40
20.0
  9
$DIMASZ
 40
2.0
  9
$DIMEXO
 40
0.0
  9
$DIMDLI
 40
7.0
  9
$DIMRND
 40
0.0
  9
$DIMDLE
 40
0.0
  9
$DIMEXE
 40
1.0
  9
$DIMTP
 40
0.0
  9
$DIMTM
 40
0.0
  9
$DIMTXT
 40
3.5
  9
$DIMCEN
 40
0.0
  9
$DIMTSZ
 40
0.0
  9
$DIMTOL
 70
     0
  9
$DIMLIM
 70
     0
  9
$DIMTIH
 70
     0
  9
$DIMTOH
 70
     0
  9
$DIMSE1
 70
     0
  9
$DIMSE2
 70
     0
  9
$DIMTAD
 70
     1
  9
$DIMZIN
 70
     8
  9
$DIMBLK
  1

  9
$DIMASO
 70
     1
  9
$DIMSHO
 70
     1
  9
$DIMPOST
  1
 
  9
$DIMAPOST
  1

  9
$DIMALT
 70
     0
  9
$DIMALTD
 70
     2
  9
$DIMALTF
 40
25.4
  9
$DIMLFAC
 40
1.0
  9
$DIMTOFL
 70
     1
  9
$DIMTVP
 40
0.0
  9
$DIMTIX
 70
     0
  9
$DIMSOXD
 70
     0
  9
$DIMSAH
 70
     1
  9
$DIMBLK1
  1
OPEN30
  9
$DIMBLK2
  1
OPEN30
  9
$LUNITS
 70
     2
  9
$LUPREC
 70
     4
  9
$SKETCHINC
 40
0.1
  9
$FILLETRAD
 40
5.8
  9
$AUNITS
 70
     0
  9
$AUPREC
 70
     2
  9
$MENU
  1
acad
  9
$ELEVATION
 40
0.0
  9
$THICKNESS
 40
0.0
  9
$LIMCHECK
 70
     0
  9
$CHAMFERA
 40
0.0
  9
$CHAMFERB
 40
0.0
  9
$SKPOLY
 70
     0
  9
$TDCREATE
 40
2448750.487089225
  9
$TDUPDATE
 40
2459428.67259169
  9
$TDINDWG
 40
2.4468198032
  9
$TDUSRTIMER
 40
2.4468198032
  9
$USRTIMER
 70
     1
  9
$ANGBASE
 50
0.0
  9
$ANGDIR
 70
     0
  9
$PDMODE
 70
     0
  9
$PDSIZE
 40
0.0
  9
$PLINEWID
 40
1.0
  9
$COORDS
 70
     2
  9
$SPLFRAME
 70
     0
  9
$SPLINETYPE
 70
     6
  9
$SPLINESEGS
 70
     8
  9
$ATTDIA
 70
     0
  9
$ATTREQ
 70
     1
  9
$SURFTAB1
 70
     6
  9
$SURFTAB2
 70
     6
  9
$SURFTYPE
 70
     6
  9
$SURFU
 70
     6
  9
$SURFV
 70
     6
  9
$UCSNAME
  2

  9
$UCSORG
 10
0.0
 20
0.0
 30
0.0
  9
$UCSXDIR
 10
1.0
 20
0.0
 30
0.0
  9
$UCSYDIR
 10
0.0
 20
1.0
 30
0.0
  9
$USERI1
 70
     0
  9
$USERI2
 70
     0
  9
$USERI3
 70
     0
  9
$USERI4
 70
     0
  9
$USERI5
 70
     0
  9
$USERR1
 40
0.0
  9
$USERR2
 40
0.0
  9
$USERR3
 40
0.0
  9
$USERR4
 40
0.0
  9
$USERR5
 40
0.0
  9
$WORLDVIEW
 70
     1
  0
ENDSEC
  0
SECTION
  2
TABLES
  0
TABLE
  2
LTYPE
 70
    12
  0
LTYPE
  2
CONTINUOUS
 70
     0
  3
Solid line
 72
    65
 73
     0
 40
0.0
  0
LTYPE
  2
HIDDEN
 70
     0
  3
Hidden __ __ __ __ __ __ __ __ __ __ __ __ __ _
 72
    65
 73
     2
 40
9.525
 49
6.35
 49
-3.175
  0
LTYPE
  2
PHANTOM2
 70
     0
  3
Phantom (0.5x) ___ _ _ ___ _ _ ___ _ _ ___ _ _
 72
    65
 73
     6
 40
31.75
 49
15.875
 49
-3.175
 49
3.175
 49
-3.175
 49
3.175
 49
-3.175
  0
LTYPE
  2
CENTER2
 70
     0
  3
Center (.5x) ___ _ ___ _ ___ _ ___ _ ___ _ ___
 72
    65
 73
     4
 40
28.575
 49
19.05
 49
-3.175
 49
3.175
 49
-3.175
  0
LTYPE
  2
HADAN
 70
     0
  3
Hadansen
 72
    65
 73
     4
 40
58.0
 49
50.0
 49
-2.0
 49
-4.0
 49
-2.0
  0
LTYPE
  2
BATTING
 70
     0
  3
Batting SSSSSSSSSSSSSSSSSSSSSSSSSSSSSSSSSSSSSSS
 72
    65
 73
     4
 40
10.16254
 49
0.00254
 49
-2.54
 49
-5.08
 49
-2.54
  0
LTYPE
  2
DASHED2
 70
     0
  3
Dashed (0.5x) _ _ _ _ _ _ _ _ _ _ _ _ _ _ _ _ _
 72
    65
 73
     2
 40
9.525
 49
6.35
 49
-3.175
  0
LTYPE
  2
FENCELINE1
 70
     0
  3
Fenceline circle -0-----0----0-----0----0-----0
 72
    65
 73
     4
 40
36.83
 49
3.81
 49
-2.54
 49
-2.54
 49
27.94
  0
LTYPE
  2
FENCELINE2
 70
     0
  3
Fenceline square -[]-----[]----[]-----[]----[]-
 72
    65
 73
     4
 40
36.83
 49
3.81
 49
-2.54
 49
-2.54
 49
27.94
  0
LTYPE
  2
TRACKS
 70
     0
  3
Tracks -|-|-|-|-|-|-|-|-|-|-|-|-|-|-|-|-|-|-|-|
 72
    65
 73
     2
 40
7.62
 49
3.81
 49
3.81
  0
LTYPE
  2
ZIGZAG
 70
     0
  3
Zig zag /\/\/\/\/\/\/\/\/\/\/\/\/\/\/\/\/\/\/\/
 72
    65
 73
     4
 40
20.32254
 49
0.00254
 49
-5.08
 49
-10.16
 49
-5.08
  0
LTYPE
  2
BORDER2
 70
     0
  3
Border (0.5x) __.__.__.__.__.__.__.__.__.__.__.
 72
    65
 73
     6
 40
22.225
 49
6.35
 49
-3.175
 49
6.35
 49
-3.175
 49
0.0
 49
-3.175
  0
ENDTAB
  0
TABLE
  2
LAYER
 70
    38
  0
LAYER
  2
0
 70
     0
 62
     7
  6
CONTINUOUS
  0
LAYER
  2
1DIM
 70
     0
 62
     8
  6
CONTINUOUS
  0
LAYER
  2
2VIEWPORT
 70
     0
 62
    -1
  6
CONTINUOUS
  0
LAYER
  2
01
 70
     0
 62
     1
  6
CONTINUOUS
  0
LAYER
  2
DEFPOINTS
 70
     0
 62
     7
  6
CONTINUOUS
  0
LAYER
  2
1HIDDEN
 70
     0
 62
     8
  6
HIDDEN
  0
LAYER
  2
1PHANTOM
 70
     0
 62
   254
  6
PHANTOM2
  0
LAYER
  2
03
 70
     0
 62
     3
  6
CONTINUOUS
  0
LAYER
  2
02
 70
     0
 62
     2
  6
CONTINUOUS
  0
LAYER
  2
1TEXT
 70
     0
 62
   201
  6
CONTINUOUS
  0
LAYER
  2
04
 70
     0
 62
     4
  6
CONTINUOUS
  0
LAYER
  2
POINT
 70
     0
 62
     7
  6
CONTINUOUS
  0
LAYER
  2
1HATCH
 70
     0
 62
     8
  6
CONTINUOUS
  0
LAYER
  2
05
 70
     0
 62
     5
  6
CONTINUOUS
  0
LAYER
  2
06
 70
     0
 62
     6
  6
CONTINUOUS
  0
LAYER
  2
07
 70
     0
 62
   143
  6
CONTINUOUS
  0
LAYER
  2
08
 70
     0
 62
    95
  6
CONTINUOUS
  0
LAYER
  2
09
 70
     0
 62
    15
  6
CONTINUOUS
  0
LAYER
  2
10
 70
     0
 62
   213
  6
CONTINUOUS
  0
LAYER
  2
11
 70
     0
 62
     7
  6
CONTINUOUS
  0
LAYER
  2
1CENTER
 70
     0
 62
   221
  6
CONTINUOUS
  0
LAYER
  2
1DIM1
 70
     0
 62
   221
  6
CONTINUOUS
  0
LAYER
  2
1DIM2
 70
     0
 62
   254
  6
CONTINUOUS
  0
LAYER
  2
1DIM3
 70
     0
 62
     8
  6
CONTINUOUS
  0
LAYER
  2
2BATTING
 70
     0
 62
     7
  6
BATTING
  0
LAYER
  2
2FENCELINE1
 70
     0
 62
     7
  6
FENCELINE1
  0
LAYER
  2
2FENCELINE2
 70
     0
 62
     7
  6
FENCELINE2
  0
LAYER
  2
2TRACKS
 70
     0
 62
     7
  6
TRACKS
  0
LAYER
  2
2ZIGZAG
 70
     0
 62
     7
  6
ZIGZAG
  0
LAYER
  2
2HADAN
 70
     0
 62
     7
  6
HADAN
  0
LAYER
  2
1TEXT2
 70
     0
 62
   221
  6
CONTINUOUS
  0
LAYER
  2
99WAKU
 70
     0
 62
   253
  6
CONTINUOUS
  0
LAYER
  2
MIDFINE
 70
     0
 62
     9
  6
CONTINUOUS
  0
LAYER
  2
THICK
 70
     0
 62
   252
  6
CONTINUOUS
  0
LAYER
  2
ZZ
 70
     0
 62
    -8
  6
CONTINUOUS
  0
LAYER
  2
ZZXX
 70
     0
 62
   243
  6
CONTINUOUS
  0
LAYER
  2
MAKE2D$VISIBLE$LINES
 70
     0
 62
     7
  6
CONTINUOUS
  0
LAYER
  2
MAKE2D$VISIBLE$TANGENTS
 70
     0
 62
     7
  6
CONTINUOUS
  0
ENDTAB
  0
TABLE
  2
STYLE
 70
     4
  0
STYLE
  2
STANDARD
 70
     0
 40
0.0
 41
1.0
 50
0.0
 71
     0
 42
4.0
  3
romans.shx
  4
extfont2.shx
  0
STYLE
  2
KAI
 70
     0
 40
0.0
 41
1.0
 50
0.0
 71
     0
 42
4.0
  3
HGSeikaishotaiPRO.ttf
  4

  0
STYLE
  2

 70
     1
 40
0.2
 41
1.0
 50
0.0
 71
     0
 42
4.0
  3
ltypeshp.shx
  4

  0
STYLE
  2
TATE2
 70
     4
 40
0.0
 41
1.0
 50
0.0
 71
     0
 42
4.0
  3
romans.shx
  4
@extfont2.shx
  0
ENDTAB
  0
TABLE
  2
VIEW
 70
     0
  0
ENDTAB
  0
ENDSEC
  0
SECTION
  2
BLOCKS
  0
BLOCK
  8
0
  2
_OPEN30
 70
     0
 10
0.0
 20
0.0
  0
LINE
  8
0
  6
BYBLOCK
 62
     0
 10
-1.0
 20
0.26794919
 11
0.0
 21
0.0
  0
LINE
  8
0
  6
BYBLOCK
 62
     0
 10
0.0
 20
0.0
 11
-1.0
 21
-0.26794919
  0
LINE
  8
0
  6
BYBLOCK
 62
     0
 10
0.0
 20
0.0
 11
-1.0
 21
0.0
  0
ENDBLK
  8
0
  0
BLOCK
  8
0
  2
NOCIRCLE
 70
     2
 10
0.0
 20
0.0
  0
CIRCLE
  8
0
  6
BYBLOCK
 62
     0
 10
0.0
 20
0.0
 40
4.2
  0
ATTDEF
  8
1TEXT
 10
-1.904761904762
 20
-2.0
 40
4.0
  1
0
 72
     4
 11
0.0
 21
0.0
  3
NO.
  2
NO
 70
     0
  0
ENDBLK
  8
0
  0
BLOCK
  8
0
  2
_OPEN
 70
     0
 10
0.0
 20
0.0
  0
LINE
  8
0
  6
BYBLOCK
 62
     0
 10
-1.0
 20
0.166667
 11
0.0
 21
0.0
  0
LINE
  8
0
  6
BYBLOCK
 62
     0
 10
-1.0
 20
-0.166667
 11
0.0
 21
0.0
  0
LINE
  8
0
  6
BYBLOCK
 62
     0
 10
0.0
 20
0.0
 11
-1.0
 21
0.0
  0
ENDBLK
  8
0
  0
BLOCK
  8
0
  2
YA__
 70
     0
 10
0.0
 20
0.0
  0
INSERT
  8
0
  2
YA_
 10
0.0
 20
0.0
 30
0.0
 50
180.0
  0
ENDBLK
  8
0
  0
BLOCK
  8
0
  2
YA_
 70
     0
 10
0.0
 20
0.0
  0
LINE
  8
0
 10
-5.598760219962
 20
0.622116757674
 11
-2.488360049962
 21
0.622116757674
  0
LINE
  8
0
 10
-5.598760219962
 20
-0.622043242326
 11
-2.488359989962
 21
-0.622043242326
  0
LINE
  8
0
 10
-5.598760219962
 20
0.622116757674
 11
-5.598760219962
 21
-0.622043242326
  0
LINE
  8
0
 10
-2.488360079962
 20
1.346879757674
 11
-2.488360049962
 21
0.622116757674
  0
LINE
  8
0
 10
0.155480482306
 20
-1.993947296099
 11
0.155480380551
 21
1.993947304034
  0
LINE
  8
0
 10
-0.000039515118
 20
-1.99999999961
 11
-0.000039719246
 21
1.999999999606
  0
LINE
  8
0
 10
-0.155559515297
 20
-1.993941131829
 11
-0.155559619962
 21
0.000036757674
  0
LINE
  8
0
 10
-0.155559619962
 20
0.000036757674
 11
-0.155559718965
 21
1.99394111594
  0
LINE
  8
0
 10
-2.488359989962
 20
-0.622043242326
 11
-2.488359959962
 21
-1.346806242326
  0
LINE
  8
0
 10
-0.155559619962
 20
0.000036757674
 11
-2.488360199962
 21
-1.346806242326
  0
LINE
  8
0
 10
-0.155559619962
 20
0.000036757674
 11
-2.488360079962
 21
1.346879757674
  0
POINT
  8
POINT
 10
0.0
 20
0.0
 30
0.0
  0
ENDBLK
  8
0
  0
BLOCK
  8
0
  2
金属脚
 70
     0
 10
0.0
 20
0.0
  0
LINE
  8
0
  6
BYBLOCK
 62
     0
 10
0.0
 20
0.0
 11
125.0
 21
0.0
  0
LINE
  8
0
  6
BYBLOCK
 62
     0
 10
7.011342610203
 20
-155.999982357025
 11
23.011342610203
 21
-155.999982357025
  0
LINE
  8
0
  6
BYBLOCK
 62
     0
 10
7.011342610203
 20
-155.999982357025
 11
7.011342610203
 21
-145.999982357025
  0
LINE
  8
0
  6
BYBLOCK
 62
     0
 10
23.011342610203
 20
-155.999982357025
 11
23.011342610218
 21
-145.999982357025
  0
LINE
  8
0
  6
BYBLOCK
 62
     0
 10
4.0
 20
-145.999982357025
 11
22.0
 21
-145.999982357025
  0
LINE
  8
0
  6
BYBLOCK
 62
     0
 10
4.0
 20
-5.999982357025
 11
4.0
 21
-145.999982357025
  0
LINE
  8
0
  6
BYBLOCK
 62
     0
 10
22.0
 20
-5.999982357025
 11
104.0
 21
-5.999982357025
  0
LINE
  8
0
  6
BYBLOCK
 62
     0
 10
22.0
 20
-145.999982357025
 11
26.0
 21
-145.999982357025
  0
ARC
  8
0
  6
BYBLOCK
 62
     0
 10
31.0
 20
-32.999982357025
 40
5.0
 50
90.0
 51
180.0
  0
LINE
  8
0
  6
BYBLOCK
 62
     0
 10
26.0
 20
-145.999982357025
 11
26.0
 21
-32.999982357025
  0
LINE
  8
0
  6
BYBLOCK
 62
     0
 10
31.0
 20
-27.999982357025
 11
104.0
 21
-27.999982357025
  0
LINE
  8
0
  6
BYBLOCK
 62
     0
 10
104.0
 20
-27.999982357025
 11
104.0
 21
-5.999982357025
  0
LINE
  8
0
  6
BYBLOCK
 62
     0
 10
125.0
 20
-5.999982357025
 11
119.999885559082
 21
-5.999982357025
  0
LINE
  8
0
  6
BYBLOCK
 62
     0
 10
125.0
 20
-5.999982357025
 11
125.0
 21
0.0
  0
LINE
  8
0
  6
BYBLOCK
 62
     0
 10
119.999885559082
 20
-5.999982357025
 11
0.0
 21
-5.999982357025
  0
LINE
  8
0
  6
BYBLOCK
 62
     0
 10
0.0
 20
-5.999982357025
 11
0.0
 21
0.0
  0
ENDBLK
  8
0
  0
BLOCK
  8
0
  2
A-A
 70
     0
 10
0.0
 20
0.0
  0
LINE
  8
0
 10
0.0
 20
0.0
 11
53.759996799999
 21
0.0
  0
LINE
  8
0
 10
8.0321632
 20
10.63999856
 11
11.2933376
 21
1.68
  0
LINE
  8
0
 10
3.36
 20
1.68000624
 11
6.6211696
 21
10.63998944
  0
LINE
  8
0
 10
9.8630848
 20
1.68
 11
11.2933392
 21
1.68
  0
LINE
  8
0
 10
8.905750399999
 20
4.31024896
 11
9.8630848
 21
1.67999952
  0
LINE
  8
0
 10
4.7902528
 20
1.68000016
 11
5.7475856
 21
4.31024864
  0
LINE
  8
0
 10
3.36
 20
1.68
 11
4.7902528
 21
1.68
  0
LINE
  8
0
 10
5.7475856
 20
4.31024928
 11
8.905750399999
 21
4.31024928
  0
LINE
  8
0
 10
6.171791999999
 20
5.47574928
 11
8.4815424
 21
5.47574928
  0
LINE
  8
0
 10
6.171791999999
 20
5.4757488
 11
7.3266672
 21
8.64873968
  0
LINE
  8
0
 10
7.326668799999
 20
8.64873888
 11
8.481544
 21
5.4757488
  0
LINE
  8
0
 10
12.678397759999
 20
5.57759664
 11
16.441594239999
 21
5.57759664
  0
LINE
  8
0
 10
12.678397759999
 20
6.65279616
 11
16.441594239999
 21
6.65279616
  0
ARC
  8
0
 10
12.678397759999
 20
5.93599664
 40
0.3583999840000001
 50
179.99994
 51
270.0
  0
ARC
  8
0
 10
12.678397759999
 20
6.29439616
 40
0.3583999840000001
 50
90.0
 51
179.99994
  0
LINE
  8
0
 10
12.319997759999
 20
6.29439616
 11
12.319997759999
 21
5.93599664
  0
ARC
  8
0
 10
16.441594239999
 20
6.29439616
 40
0.3583999840000001
 50
0.0
 51
90.0
  0
ARC
  8
0
 10
16.441594239999
 20
5.93599664
 40
0.3583999840000001
 50
270.0
 51
0.0
  0
LINE
  8
0
 10
16.79999424
 20
6.29439616
 11
16.79999424
 21
5.93599664
  0
LINE
  8
0
 10
6.621172799999
 20
10.63999856
 11
8.0321632
 21
10.63999856
  0
LINE
  8
0
 10
25.952162927999
 20
10.63999936
 11
29.21333792
 21
1.68000064
  0
LINE
  8
0
 10
21.279999519999
 20
1.68000528
 11
24.541168639999
 21
10.639988
  0
LINE
  8
0
 10
23.667586079999
 20
4.31024928
 11
26.8257509616
 21
4.31024928
  0
LINE
  8
0
 10
22.7102536
 20
1.67999904
 11
23.667586559999
 21
4.31024784
  0
LINE
  8
0
 10
21.28000064
 20
1.68
 11
22.71025168
 21
1.68
  0
LINE
  8
0
 10
24.09179248
 20
5.47574928
 11
26.401542576
 21
5.47574928
  0
LINE
  8
0
 10
24.091794239999
 20
5.475748
 11
25.24666896
 21
8.64873888
  0
LINE
  8
0
 10
25.2466664
 20
8.64873968
 11
26.401541424
 21
5.475748
  0
LINE
  8
0
 10
26.8257489648
 20
4.31024816
 11
27.783081824
 21
1.67999952
  0
LINE
  8
0
 10
27.783083439999
 20
1.68
 11
29.21333888
 21
1.68
  0
POINT
  8
0
 10
26.8799984
 20
0.0
 30
0.0
  0
POINT
  8
0
 10
26.8799984
 20
0.0
 30
0.0
  0
LINE
  8
0
 10
24.541171999999
 20
10.63999856
 11
25.952163024
 21
10.63999856
  0
TEXT
  8
0
 10
35.978853279999
 20
1.99199984
 40
8.0
  1
断面
 41
0.8643459
  0
ENDBLK
  8
0
  0
BLOCK
  8
0
  2
AA
 70
     0
 10
0.0
 20
0.0
  0
LINE
  8
0
 10
0.000001680067
 20
0.00000565232
 11
2.9117599
 21
7.9999905
  0
LINE
  8
0
 10
3.5416694
 20
6.2220893
 11
4.5728078
 21
3.3890617
  0
LINE
  8
0
 10
2.5105312
 20
3.3890617
 11
3.5416694
 21
6.2220888
  0
LINE
  8
0
 10
4.171576
 20
7.999999
 11
7.0833392
 21
0.000000048888
  0
LINE
  8
0
 10
2.1317739
 20
2.3484368
 11
4.9515643
 21
2.3484368
  0
LINE
  8
0
 10
2.5105309
 20
3.3890619
 11
4.5728073
 21
3.3890619
  0
LINE
  8
0
 10
0.000001907349
 20
0.0
 11
1.2770123
 21
0.0
  0
POINT
  8
0
 10
0.0
 20
0.0
 30
0.0
  0
LINE
  8
0
 10
1.2770127
 20
-0.000000009364
 11
2.1317742
 21
2.3484364
  0
LINE
  8
0
 10
5.8063259
 20
0.0
 11
7.0833392
 21
0.0
  0
LINE
  8
0
 10
4.9515648
 20
2.3484368
 11
5.8063259
 21
0.000000268506
  0
LINE
  8
0
 10
2.9117632
 20
7.999999
 11
4.171576
 21
7.999999
  0
ENDBLK
  8
0
  0
BLOCK
  8
0
  2
訂正1
 70
     0
 10
0.0
 20
0.0
  0
LINE
  8
1HATCH
 10
0.000000135843
 20
2.025
 11
2.33826804
 21
-2.0250009
  0
LINE
  8
1HATCH
 10
-2.33826867
 20
-2.025
 11
2.33826849
 21
-2.025
  0
TEXT
  8
1TEXT
 10
-0.434499620191
 20
-1.510450886077
 40
1.8
  1
1
 41
0.66666667
 72
     1
 11
0.051214667951
 21
-1.510450886077
  0
LINE
  8
1HATCH
 10
0.000000476316
 20
2.02500018
 11
-2.33826849
 21
-2.02499937
  0
ENDBLK
  8
0
  0
BLOCK
  8
0
  2
*D411
 70
     1
 10
0.0
 20
0.0
  0
LINE
  8
1DIM
 10
38522.55711322562
 20
-6764.82651730407
 11
38522.55711322562
 21
-6834.82651730407
  0
LINE
  8
1DIM
 10
39323.26190446367
 20
-6764.82651730407
 11
39323.26190446367
 21
-6834.82651730407
  0
LINE
  8
1DIM
 10
38562.55711322562
 20
-6814.82651730407
 11
39283.26190446367
 21
-6814.82651730407
  0
INSERT
  8
1DIM
  2
_OPEN30
 10
38522.55711322562
 20
-6814.82651730407
 30
0.0
 41
40.0
 42
40.0
 43
40.0
 50
180.0
  0
INSERT
  8
1DIM
  2
_OPEN30
 10
39323.26190446367
 20
-6814.82651730407
 30
0.0
 41
40.0
 42
40.0
 43
40.0
  0
TEXT
  8
1DIM
  6
CONTINUOUS
 62
   201
 10
38822.90950884464
 20
-6800.82651730407
 40
70.0
  1
800
  0
POINT
  8
DEFPOINTS
 62
     0
 10
38522.55711322562
 20
-6664.82651730407
 30
0.0
  0
POINT
  8
DEFPOINTS
 62
     0
 10
39323.26190446367
 20
-6664.82651730407
 30
0.0
  0
POINT
  8
DEFPOINTS
 62
     0
 10
39323.26190446367
 20
-6814.82651730407
 30
0.0
  0
ENDBLK
  8
0
  0
BLOCK
  8
0
  2
*D412
 70
     1
 10
0.0
 20
0.0
  0
LINE
  8
1DIM
 10
38422.55711322562
 20
-6264.82651730407
 11
38352.55711322562
 21
-6264.82651730407
  0
LINE
  8
1DIM
 10
38422.55711322562
 20
-6664.82651730407
 11
38352.55711322562
 21
-6664.82651730407
  0
LINE
  8
1DIM
 10
38372.55711322562
 20
-6304.82651730407
 11
38372.55711322562
 21
-6624.82651730407
  0
INSERT
  8
1DIM
  2
_OPEN30
 10
38372.55711322562
 20
-6264.82651730407
 30
0.0
 41
40.0
 42
40.0
 43
40.0
 50
90.0
  0
INSERT
  8
1DIM
  2
_OPEN30
 10
38372.55711322562
 20
-6664.82651730407
 30
0.0
 41
40.0
 42
40.0
 43
40.0
 50
270.0
  0
TEXT
  8
1DIM
  6
CONTINUOUS
 62
   201
 10
38358.55711322562
 20
-6564.826517304071
 40
70.0
  1
400
 50
90.0
  0
POINT
  8
DEFPOINTS
 62
     0
 10
38522.55711322562
 20
-6264.82651730407
 30
0.0
  0
POINT
  8
DEFPOINTS
 62
     0
 10
38522.55711322562
 20
-6664.82651730407
 30
0.0
  0
POINT
  8
DEFPOINTS
 62
     0
 10
38372.55711322562
 20
-6664.82651730407
 30
0.0
  0
ENDBLK
  8
0
  0
BLOCK
  8
0
  2
*D414
 70
     1
 10
0.0
 20
0.0
  0
LINE
  8
1DIM
 10
39723.26190446367
 20
-6074.826543530114
 11
39653.26190446367
 21
-6074.826543530114
  0
LINE
  8
1DIM
 10
39723.26190446367
 20
-6664.82651730407
 11
39653.26190446367
 21
-6664.82651730407
  0
LINE
  8
1DIM
 10
39673.26190446367
 20
-6114.826543530114
 11
39673.26190446367
 21
-6624.82651730407
  0
INSERT
  8
1DIM
  2
_OPEN30
 10
39673.26190446367
 20
-6074.826543530114
 30
0.0
 41
40.0
 42
40.0
 43
40.0
 50
90.0
  0
INSERT
  8
1DIM
  2
_OPEN30
 10
39673.26190446367
 20
-6664.82651730407
 30
0.0
 41
40.0
 42
40.0
 43
40.0
 50
270.0
  0
TEXT
  8
1DIM
  6
CONTINUOUS
 62
   201
 10
39659.26190446367
 20
-6469.826530417093
 40
70.0
  1
590
 50
90.0
  0
POINT
  8
DEFPOINTS
 62
     0
 10
39823.26190446367
 20
-6074.826543530114
 30
0.0
  0
POINT
  8
DEFPOINTS
 62
     0
 10
39823.26190446367
 20
-6664.82651730407
 30
0.0
  0
POINT
  8
DEFPOINTS
 62
     0
 10
39673.26190446367
 20
-6664.82651730407
 30
0.0
  0
ENDBLK
  8
0
  0
BLOCK
  8
0
  2
*D415
 70
     1
 10
0.0
 20
0.0
  0
LINE
  8
1DIM
 10
39823.26190446367
 20
-6764.82651730407
 11
39823.26190446367
 21
-6834.82651730407
  0
LINE
  8
1DIM
 10
40573.38937028643
 20
-6764.82651730407
 11
40573.38937028643
 21
-6834.82651730407
  0
LINE
  8
1DIM
 10
39863.26190446367
 20
-6814.82651730407
 11
40533.38937028643
 21
-6814.82651730407
  0
INSERT
  8
1DIM
  2
_OPEN30
 10
39823.26190446367
 20
-6814.82651730407
 30
0.0
 41
40.0
 42
40.0
 43
40.0
 50
180.0
  0
INSERT
  8
1DIM
  2
_OPEN30
 10
40573.38937028643
 20
-6814.82651730407
 30
0.0
 41
40.0
 42
40.0
 43
40.0
  0
TEXT
  8
1DIM
  6
CONTINUOUS
 62
   201
 10
40098.32563737505
 20
-6800.82651730407
 40
70.0
  1
750
  0
POINT
  8
DEFPOINTS
 62
     0
 10
39823.26190446367
 20
-6664.82651730407
 30
0.0
  0
POINT
  8
DEFPOINTS
 62
     0
 10
40573.38937028643
 20
-6664.82651730407
 30
0.0
  0
POINT
  8
DEFPOINTS
 62
     0
 10
40573.38937028643
 20
-6814.82651730407
 30
0.0
  0
ENDBLK
  8
0
  0
BLOCK
  8
0
  2
*D416
 70
     1
 10
0.0
 20
0.0
  0
LINE
  8
1DIM
 10
40673.38937028643
 20
-5871.841222201911
 11
40743.38937028643
 21
-5871.841222201911
  0
LINE
  8
1DIM
 10
40673.38937028643
 20
-6664.82651730407
 11
40743.38937028643
 21
-6664.82651730407
  0
LINE
  8
1DIM
 10
40723.38937028643
 20
-5911.841222201911
 11
40723.38937028643
 21
-6624.82651730407
  0
INSERT
  8
1DIM
  2
_OPEN30
 10
40723.38937028643
 20
-5871.841222201911
 30
0.0
 41
40.0
 42
40.0
 43
40.0
 50
90.0
  0
INSERT
  8
1DIM
  2
_OPEN30
 10
40723.38937028643
 20
-6664.82651730407
 30
0.0
 41
40.0
 42
40.0
 43
40.0
 50
270.0
  0
TEXT
  8
1DIM
  6
CONTINUOUS
 62
   201
 10
40709.38937028643
 20
-6368.333869752991
 40
70.0
  1
790
 50
90.0
  0
POINT
  8
DEFPOINTS
 62
     0
 10
40573.38937028643
 20
-5871.841222201911
 30
0.0
  0
POINT
  8
DEFPOINTS
 62
     0
 10
40573.38937028643
 20
-6664.82651730407
 30
0.0
  0
POINT
  8
DEFPOINTS
 62
     0
 10
40723.38937028643
 20
-6664.82651730407
 30
0.0
  0
ENDBLK
  8
0
  0
BLOCK
  8
0
  2
*D423
 70
     1
 10
0.0
 20
0.0
  0
LINE
  8
1DIM
 10
39823.26190446367
 20
-5771.841222201911
 11
39823.26190446367
 21
-5701.841222201911
  0
LINE
  8
1DIM
 10
40322.79713853126
 20
-5771.841222201911
 11
40322.79713853126
 21
-5701.841222201911
  0
LINE
  8
1DIM
 10
39863.26190446367
 20
-5721.841222201911
 11
40282.79713853126
 21
-5721.841222201911
  0
INSERT
  8
1DIM
  2
_OPEN30
 10
39823.26190446367
 20
-5721.841222201911
 30
0.0
 41
40.0
 42
40.0
 43
40.0
 50
180.0
  0
INSERT
  8
1DIM
  2
_OPEN30
 10
40322.79713853126
 20
-5721.841222201911
 30
0.0
 41
40.0
 42
40.0
 43
40.0
  0
TEXT
  8
1DIM
  6
CONTINUOUS
 62
   201
 10
39973.02952149746
 20
-5707.841222201911
 40
70.0
  1
500
  0
POINT
  8
DEFPOINTS
 62
     0
 10
39823.26190446367
 20
-5871.841222201911
 30
0.0
  0
POINT
  8
DEFPOINTS
 62
     0
 10
40322.79713853126
 20
-5871.841222201911
 30
0.0
  0
POINT
  8
DEFPOINTS
 62
     0
 10
40322.79713853126
 20
-5721.841222201911
 30
0.0
  0
ENDBLK
  8
0
  0
ENDSEC
  0
SECTION
  2
ENTITIES
  0
LINE
  8
0
 10
38653.1971318548
 20
-6287.268302532385
 11
38653.15191057061
 21
-6286.531244209516
  0
LINE
  8
0
 10
38653.19760096325
 20
-6287.623423255033
 11
38653.15191057061
 21
-6286.531244209516
  0
POLYLINE
  8
0
 66
     1
  0
VERTEX
  8
0
 10
40487.40639194247
 20
-6074.826543530114
  0
VERTEX
  8
0
 10
40532.92639955279
 20
-5956.242864330895
 42
-0.312728412941
  0
VERTEX
  8
0
 10
40542.26215585467
 20
-5949.826543530114
  0
VERTEX
  8
0
 10
40563.38937982317
 20
-5949.826543530114
 42
-0.421776386743
  0
VERTEX
  8
0
 10
40573.38937028643
 20
-5959.826533993371
  0
VERTEX
  8
0
 10
40573.38937028643
 20
-6084.826533993371
  0
SEQEND
  8
0
  0
POLYLINE
  8
0
 66
     1
  0
VERTEX
  8
0
 10
40550.8893917441
 20
-6544.826519986279
  0
VERTEX
  8
0
 10
40550.8893917441
 20
-6664.82651730407
  0
VERTEX
  8
0
 10
40515.88936551806
 20
-6664.82651730407
  0
VERTEX
  8
0
 10
40495.88938459154
 20
-6544.826519986279
  0
SEQEND
  8
0
  0
POLYLINE
  8
0
 66
     1
  0
VERTEX
  8
0
 10
39915.88937147852
 20
-6544.826519986279
  0
VERTEX
  8
0
 10
39895.88936820027
 20
-6664.82651730407
  0
VERTEX
  8
0
 10
39860.88937177655
 20
-6664.82651730407
  0
VERTEX
  8
0
 10
39860.88937177655
 20
-6544.826519986279
  0
SEQEND
  8
0
  0
POLYLINE
  8
0
 66
     1
 70
     1
  0
VERTEX
  8
0
 10
40573.38937028643
 20
-6084.826533993371
  0
VERTEX
  8
0
 10
40573.38937028643
 20
-6544.826519986279
  0
VERTEX
  8
0
 10
39837.43536156535
 20
-6544.826519986279
  0
VERTEX
  8
0
 10
39837.43536156535
 20
-6089.826339742542
 42
-0.425405565861
  0
VERTEX
  8
0
 10
39852.43536123008
 20
-6074.826543530114
  0
VERTEX
  8
0
 10
40562.43537143737
 20
-6074.826543530114
 42
-0.369841049831
  0
SEQEND
  8
0
  0
DIMENSION
  8
1DIM
  2
*D411
 10
39323.26190446367
 20
-6814.82651730407
 11
38922.90950884464
 21
-6765.82651730407
 70
    32
  1
800
 13
38522.55711322562
 23
-6664.82651730407
 33
0.0
 14
39323.26190446367
 24
-6664.82651730407
 34
0.0
  0
DIMENSION
  8
1DIM
  2
*D412
 10
38372.55711322562
 20
-6664.82651730407
 11
38323.55711322562
 21
-6464.82651730407
 70
    32
 13
38522.55711322562
 23
-6264.82651730407
 33
0.0
 14
38522.55711322562
 24
-6664.82651730407
 34
0.0
 50
90.0
  0
DIMENSION
  8
1DIM
  2
*D414
 10
39673.26190446367
 20
-6664.82651730407
 11
39624.26190446367
 21
-6369.826530417092
 70
    32
 13
39823.26190446367
 23
-6074.826543530114
 33
0.0
 14
39823.26190446367
 24
-6664.82651730407
 34
0.0
 50
90.0
  0
DIMENSION
  8
1DIM
  2
*D415
 10
40573.38937028643
 20
-6814.82651730407
 11
40198.32563737505
 21
-6765.82651730407
 70
    32
 13
39823.26190446367
 23
-6664.82651730407
 33
0.0
 14
40573.38937028643
 24
-6664.82651730407
 34
0.0
  0
DIMENSION
  8
1DIM
  2
*D416
 10
40723.38937028643
 20
-6664.82651730407
 11
40674.38937028643
 21
-6268.333869752991
 70
    32
  1
790
 13
40573.38937028643
 23
-5871.841222201911
 33
0.0
 14
40573.38937028643
 24
-6664.82651730407
 34
0.0
 50
90.0
  0
LINE
  8
1HIDDEN
 10
40399.38937177654
 20
-6304.118630102427
 11
40487.40635732988
 21
-6074.826543530113
  0
POLYLINE
  8
0
 66
     1
  0
VERTEX
  8
0
 10
39838.38936995115
 20
-6286.81771955736
 42
0.090047911554
  0
VERTEX
  8
0
 10
39827.86254206006
 20
-6313.810945945431
 42
0.10272389388
  0
VERTEX
  8
0
 10
39830.58565616687
 20
-6428.584568251775
 42
0.202008015793
  0
VERTEX
  8
0
 10
39837.43536156535
 20
-6438.002309022521
  0
SEQEND
  8
0
  0
POLYLINE
  8
1HIDDEN
 66
     1
  0
VERTEX
  8
1HIDDEN
 10
40399.38937177655
 20
-6304.118630102427
 42
0.021426023471
  0
VERTEX
  8
1HIDDEN
 10
40137.30043391467
 20
-6269.375514561693
 42
0.036028515946
  0
VERTEX
  8
1HIDDEN
 10
39873.70569985006
 20
-6271.426271763205
 42
0.046505347099
  0
VERTEX
  8
1HIDDEN
 10
39854.91607556077
 20
-6274.96536165102
 42
0.148815603418
  0
VERTEX
  8
1HIDDEN
 10
39838.38936995115
 20
-6286.81771955736
  0
SEQEND
  8
1HIDDEN
  0
DIMENSION
  8
1DIM
  2
*D423
 10
40322.79713853126
 20
-5721.841222201911
 11
40073.02952149746
 21
-5672.841222201911
 70
    32
 13
39823.26190446367
 23
-5871.841222201911
 33
0.0
 14
40322.79713853126
 24
-5871.841222201911
 34
0.0
  0
POLYLINE
  8
0
 10
0.0
 20
0.0
 30
0.0
 66
     1
 70
     8
  0
VERTEX
  8
0
 10
38653.15191060745
 20
-6244.388639603913
 30
0.0
 70
    32
  0
VERTEX
  8
0
 10
38653.15191060583
 20
-6244.388639700802
 30
0.0
 70
    32
  0
VERTEX
  8
0
 10
38653.15191060422
 20
-6244.388639797693
 30
0.0
 70
    32
  0
VERTEX
  8
0
 10
38653.15191060262
 20
-6244.388639894582
 30
0.0
 70
    32
  0
VERTEX
  8
0
 10
38653.15191060101
 20
-6244.388639991473
 30
0.0
 70
    32
  0
VERTEX
  8
0
 10
38653.15191059939
 20
-6244.388640088361
 30
0.0
 70
    32
  0
VERTEX
  8
0
 10
38653.15191059778
 20
-6244.388640185251
 30
0.0
 70
    32
  0
VERTEX
  8
0
 10
38653.15191059619
 20
-6244.388640282141
 30
0.0
 70
    32
  0
VERTEX
  8
0
 10
38653.15191059457
 20
-6244.388640379029
 30
0.0
 70
    32
  0
VERTEX
  8
0
 10
38653.15191059295
 20
-6244.38864047592
 30
0.0
 70
    32
  0
VERTEX
  8
0
 10
38653.15191059134
 20
-6244.388640572809
 30
0.0
 70
    32
  0
VERTEX
  8
0
 10
38653.15191058975
 20
-6244.388640669699
 30
0.0
 70
    32
  0
VERTEX
  8
0
 10
38653.15191058813
 20
-6244.388640766589
 30
0.0
 70
    32
  0
VERTEX
  8
0
 10
38653.15191058652
 20
-6244.388640863477
 30
0.0
 70
    32
  0
VERTEX
  8
0
 10
38653.1519105849
 20
-6244.388640960367
 30
0.0
 70
    32
  0
VERTEX
  8
0
 10
38653.15191058331
 20
-6244.388641057257
 30
0.0
 70
    32
  0
VERTEX
  8
0
 10
38653.15191058169
 20
-6244.388641154147
 30
0.0
 70
    32
  0
VERTEX
  8
0
 10
38653.15191058008
 20
-6244.388641251036
 30
0.0
 70
    32
  0
VERTEX
  8
0
 10
38653.15191057846
 20
-6244.388641347927
 30
0.0
 70
    32
  0
VERTEX
  8
0
 10
38653.15191057687
 20
-6244.388641444815
 30
0.0
 70
    32
  0
VERTEX
  8
0
 10
38653.15191057525
 20
-6244.388641541705
 30
0.0
 70
    32
  0
VERTEX
  8
0
 10
38653.15191057364
 20
-6244.388641638595
 30
0.0
 70
    32
  0
VERTEX
  8
0
 10
38653.15191057202
 20
-6244.388641735483
 30
0.0
 70
    32
  0
VERTEX
  8
0
 10
38653.15191057043
 20
-6244.388641832375
 30
0.0
 70
    32
  0
VERTEX
  8
0
 10
38653.15191056882
 20
-6244.388641929263
 30
0.0
 70
    32
  0
SEQEND
  8
0
  0
POLYLINE
  8
0
 66
     1
 70
     1
  0
VERTEX
  8
0
 10
38653.151910571
 20
-6198.368655828032
 42
0.07026305415
  0
VERTEX
  8
0
 10
38649.89429457962
 20
-6170.144533049054
 42
0.101618697399
  0
VERTEX
  8
0
 10
38614.28138618731
 20
-6097.990633328257
 42
0.236601655473
  0
VERTEX
  8
0
 10
38566.91983011102
 20
-6074.826543530114
  0
VERTEX
  8
0
 10
38542.79949930047
 20
-6074.826543530114
 42
0.523240917751
  0
VERTEX
  8
0
 10
38524.03518651912
 20
-6101.747636896953
 42
-0.088362807038
  0
VERTEX
  8
0
 10
38553.15187242364
 20
-6264.826511343605
  0
VERTEX
  8
0
 10
38553.15187242364
 20
-6539.82651730407
 42
0.398337629729
  0
VERTEX
  8
0
 10
38558.15186765527
 20
-6544.826519986281
  0
VERTEX
  8
0
 10
38648.1519020164
 20
-6544.826519986262
 42
0.428549589901
  0
VERTEX
  8
0
 10
38653.15191057061
 20
-6539.82651730407
  0
VERTEX
  8
0
 10
38653.151910571
 20
-6288.793305355087
  0
SEQEND
  8
0
  0
POLYLINE
  8
0
 66
     1
  0
VERTEX
  8
0
 10
39193.15191057061
 20
-6539.82651730407
 42
-0.414213562373
  0
VERTEX
  8
0
 10
39188.15191057061
 20
-6544.82651730407
  0
VERTEX
  8
0
 10
38923.15191057061
 20
-6544.82651730407
  0
VERTEX
  8
0
 10
38658.15191057061
 20
-6544.82651730407
 42
-0.414213562373
  0
VERTEX
  8
0
 10
38653.15191057061
 20
-6539.82651730407
  0
SEQEND
  8
0
  0
POLYLINE
  8
0
 66
     1
  0
VERTEX
  8
0
 10
38575.65191057061
 20
-6544.82651730407
  0
VERTEX
  8
0
 10
38575.65191057061
 20
-6664.82651730407
  0
VERTEX
  8
0
 10
38610.65191057061
 20
-6664.82651730407
  0
VERTEX
  8
0
 10
38610.65191057061
 20
-6664.82651730407
  0
VERTEX
  8
0
 10
38630.65191057061
 20
-6544.82651730407
  0
SEQEND
  8
0
  0
LINE
  8
0
 10
39193.10668928642
 20
-6287.268302532385
 11
39193.15191057061
 21
-6286.531244209516
  0
LINE
  8
0
 10
39193.15191057046
 20
-6440.364318556879
 11
38653.15191057076
 21
-6440.364318556879
  0
LINE
  8
0
 10
39193.10622017797
 20
-6287.623423255033
 11
39193.15191057061
 21
-6286.531244209516
  0
POLYLINE
  8
0
 66
     1
  0
VERTEX
  8
0
 10
38652.9205756098
 20
-6188.470186008296
  0
VERTEX
  8
0
 10
38652.85087480924
 20
-6186.084966261818
  0
VERTEX
  8
0
 10
38652.77574564881
 20
-6183.699925802791
  0
VERTEX
  8
0
 10
38652.69525649407
 20
-6181.315062373244
  0
VERTEX
  8
0
 10
38652.60947571056
 20
-6178.930373715203
  0
VERTEX
  8
0
 10
38652.5184716638
 20
-6176.5458575707
  0
VERTEX
  8
0
 10
38652.42231271936
 20
-6174.161511681759
  0
VERTEX
  8
0
 10
38652.32106724274
 20
-6171.777333790411
  0
VERTEX
  8
0
 10
38652.21480359953
 20
-6169.393321638682
  0
VERTEX
  8
0
 10
38652.10359015522
 20
-6167.009472968602
  0
VERTEX
  8
0
 10
38651.9874952754
 20
-6164.625785522199
  0
VERTEX
  8
0
 10
38651.86658732557
 20
-6162.242257041501
  0
VERTEX
  8
0
 10
38651.74093467128
 20
-6159.858885268535
  0
VERTEX
  8
0
 10
38651.61060567808
 20
-6157.475667945332
  0
VERTEX
  8
0
 10
38651.47566871152
 20
-6155.092602813917
  0
VERTEX
  8
0
 10
38651.3361921371
 20
-6152.70968761632
  0
VERTEX
  8
0
 10
38651.19224432039
 20
-6150.32692009457
  0
VERTEX
  8
0
 10
38651.04389362694
 20
-6147.944297990693
  0
VERTEX
  8
0
 10
38650.89120842228
 20
-6145.561819046718
  0
VERTEX
  8
0
 10
38650.73425707194
 20
-6143.179481004675
  0
VERTEX
  8
0
 10
38650.57310794147
 20
-6140.797281606589
  0
VERTEX
  8
0
 10
38650.4078293964
 20
-6138.41521859449
  0
VERTEX
  8
0
 10
38650.23848980228
 20
-6136.033289710407
  0
VERTEX
  8
0
 10
38650.06515752466
 20
-6133.651492696366
  0
VERTEX
  8
0
 10
38649.88790092905
 20
-6131.269825294398
  0
VERTEX
  8
0
 10
38649.70678838102
 20
-6128.88828524653
  0
VERTEX
  8
0
 10
38649.5218882461
 20
-6126.506870294788
  0
VERTEX
  8
0
 10
38649.33326888982
 20
-6124.125578181203
  0
VERTEX
  8
0
 10
38649.14099867774
 20
-6121.744406647803
  0
VERTEX
  8
0
 10
38648.94514597539
 20
-6119.363353436615
  0
VERTEX
  8
0
 10
38648.74577914831
 20
-6116.982416289668
  0
VERTEX
  8
0
 10
38648.54296656203
 20
-6114.60159294899
  0
VERTEX
  8
0
 10
38648.33677658212
 20
-6112.22088115661
  0
VERTEX
  8
0
 10
38648.12727757408
 20
-6109.840278654553
  0
VERTEX
  8
0
 10
38647.91453790348
 20
-6107.459783184851
  0
VERTEX
  8
0
 10
38647.69862593585
 20
-6105.079392489531
  0
VERTEX
  8
0
 10
38647.47961003675
 20
-6102.699104310621
  0
VERTEX
  8
0
 10
38647.25755857168
 20
-6100.318916390148
  0
VERTEX
  8
0
 10
38647.03253990621
 20
-6097.938826470142
  0
VERTEX
  8
0
 10
38646.80462240587
 20
-6095.558832292631
  0
VERTEX
  8
0
 10
38646.57387443621
 20
-6093.178931599642
  0
VERTEX
  8
0
 10
38646.34036436276
 20
-6090.799122133205
  0
VERTEX
  8
0
 10
38646.10416055107
 20
-6088.419401635347
  0
VERTEX
  8
0
 10
38645.86533136667
 20
-6086.039767848096
  0
VERTEX
  8
0
 10
38645.6239451751
 20
-6083.660218513481
  0
VERTEX
  8
0
 10
38645.3800703419
 20
-6081.280751373529
  0
VERTEX
  8
0
 10
38645.13377523263
 20
-6078.90136417027
  0
VERTEX
  8
0
 10
38644.8851282128
 20
-6076.52205464573
  0
VERTEX
  8
0
 10
38644.63419764797
 20
-6074.142820541939
  0
VERTEX
  8
0
 10
38644.38105190369
 20
-6071.763659600924
  0
VERTEX
  8
0
 10
38644.12575934547
 20
-6069.384569564715
  0
VERTEX
  8
0
 10
38643.86838833887
 20
-6067.005548175339
  0
VERTEX
  8
0
 10
38643.60900724943
 20
-6064.626593174824
  0
VERTEX
  8
0
 10
38643.34768444269
 20
-6062.247702305198
  0
VERTEX
  8
0
 10
38643.08448828418
 20
-6059.86887330849
  0
VERTEX
  8
0
 10
38642.81948713945
 20
-6057.490103926728
  0
VERTEX
  8
0
 10
38642.55274937404
 20
-6055.111391901939
  0
VERTEX
  8
0
 10
38642.28434335349
 20
-6052.732734976153
  0
VERTEX
  8
0
 10
38642.01433744334
 20
-6050.354130891397
  0
VERTEX
  8
0
 10
38641.74280000912
 20
-6047.9755773897
  0
VERTEX
  8
0
 10
38641.46979941638
 20
-6045.597072213091
  0
VERTEX
  8
0
 10
38641.19540403067
 20
-6043.218613103596
  0
VERTEX
  8
0
 10
38640.91968221751
 20
-6040.840197803243
  0
VERTEX
  8
0
 10
38640.64270234245
 20
-6038.461824054063
  0
VERTEX
  8
0
 10
38640.36453277103
 20
-6036.083489598082
  0
VERTEX
  8
0
 10
38640.0852418688
 20
-6033.70519217733
  0
VERTEX
  8
0
 10
38639.80489800129
 20
-6031.326929533834
  0
VERTEX
  8
0
 10
38639.52356953403
 20
-6028.948699409621
  0
VERTEX
  8
0
 10
38639.24132483258
 20
-6026.570499546721
  0
VERTEX
  8
0
 10
38638.95823226247
 20
-6024.192327687162
  0
VERTEX
  8
0
 10
38638.67436018924
 20
-6021.814181572971
  0
VERTEX
  8
0
 10
38638.38977697844
 20
-6019.436058946178
  0
VERTEX
  8
0
 10
38638.10455099559
 20
-6017.057957548812
  0
VERTEX
  8
0
 10
38637.81875060625
 20
-6014.679875122897
  0
VERTEX
  8
0
 10
38637.53244417596
 20
-6012.301809410465
  0
VERTEX
  8
0
 10
38637.24570007024
 20
-6009.923758153541
  0
VERTEX
  8
0
 10
38636.95858665465
 20
-6007.545719094157
  0
VERTEX
  8
0
 10
38636.67117229472
 20
-6005.167689974339
  0
VERTEX
  8
0
 10
38636.38352535601
 20
-6002.789668536116
  0
VERTEX
  8
0
 10
38636.09571420403
 20
-6000.411652521515
  0
VERTEX
  8
0
 10
38635.80780720434
 20
-5998.033639672565
  0
VERTEX
  8
0
 10
38625.67810409928
 20
-5926.659982361167
  0
VERTEX
  8
0
 10
38625.31694317628
 20
-5924.292379062997
  0
VERTEX
  8
0
 10
38624.95870265547
 20
-5921.924559450103
  0
VERTEX
  8
0
 10
38624.6058582703
 20
-5919.556340144458
  0
VERTEX
  8
0
 10
38624.2608857542
 20
-5917.187537768035
  0
VERTEX
  8
0
 10
38623.9262608406
 20
-5914.817968942807
  0
VERTEX
  8
0
 10
38623.60445926294
 20
-5912.447450290747
  0
VERTEX
  8
0
 10
38623.29795675465
 20
-5910.075798433826
  0
VERTEX
  8
0
 10
38623.00922904917
 20
-5907.702829994019
  0
VERTEX
  8
0
 10
38622.74075187994
 20
-5905.328361593298
  0
VERTEX
  8
0
 10
38622.49500098038
 20
-5902.952209853635
  0
VERTEX
  8
0
 10
38622.27445208394
 20
-5900.574191397003
  0
VERTEX
  8
0
 10
38622.08158092405
 20
-5898.194122845375
  0
VERTEX
  8
0
 10
38621.91886323415
 20
-5895.811820820724
  0
VERTEX
  8
0
 10
38621.788774265
 20
-5893.427101980774
  0
VERTEX
  8
0
 10
38621.69135956843
 20
-5891.039962951493
  0
VERTEX
  8
0
 10
38621.61858826542
 20
-5888.650998581554
  0
VERTEX
  8
0
 10
38621.56075348998
 20
-5886.260927860291
  0
VERTEX
  8
0
 10
38621.96849232281
 20
-5883.883606286843
  0
VERTEX
  8
0
 10
38622.95633544029
 20
-5881.57553662126
  0
VERTEX
  8
0
 10
38624.07627496935
 20
-5879.435726408958
  0
VERTEX
  8
0
 10
38625.41871106523
 20
-5877.579323976197
  0
VERTEX
  8
0
 10
38627.06673039466
 20
-5876.112162001947
  0
VERTEX
  8
0
 10
38629.01974379398
 20
-5875.033490031627
  0
VERTEX
  8
0
 10
38631.22380885371
 20
-5874.274598247781
  0
VERTEX
  8
0
 10
38633.62412187488
 20
-5873.765679754716
  0
VERTEX
  8
0
 10
38636.16587915855
 20
-5873.436927656734
  0
VERTEX
  8
0
 10
38638.79427700577
 20
-5873.218535058145
  0
VERTEX
  8
0
 10
38642.91417732694
 20
-5872.972869369008
  0
VERTEX
  8
0
 10
38648.94629804888
 20
-5872.664867006007
  0
VERTEX
  8
0
 10
38654.8228486251
 20
-5872.398676132729
  0
VERTEX
  8
0
 10
38660.54672960974
 20
-5872.172682964432
  0
VERTEX
  8
0
 10
38666.12084155696
 20
-5871.985273716368
  0
VERTEX
  8
0
 10
38671.54808502091
 20
-5871.834834603796
  0
VERTEX
  8
0
 10
38676.83136055572
 20
-5871.71975184197
  0
VERTEX
  8
0
 10
38681.97356871556
 20
-5871.638411646147
  0
VERTEX
  8
0
 10
38686.97761005458
 20
-5871.58920023158
  0
VERTEX
  8
0
 10
38691.84638512692
 20
-5871.570503813527
  0
VERTEX
  8
0
 10
38696.58279448674
 20
-5871.580708607245
  0
VERTEX
  8
0
 10
38701.18973868818
 20
-5871.618200827986
  0
VERTEX
  8
0
 10
38705.67011828541
 20
-5871.681366691007
  0
VERTEX
  8
0
 10
38710.02683383255
 20
-5871.768592411566
  0
VERTEX
  8
0
 10
38714.26278588378
 20
-5871.878264204916
  0
VERTEX
  8
0
 10
38718.38087499323
 20
-5872.008768286315
  0
VERTEX
  8
0
 10
38722.38400171505
 20
-5872.158490871017
  0
VERTEX
  8
0
 10
38726.27506660341
 20
-5872.325818174277
  0
VERTEX
  8
0
 10
38730.05697021244
 20
-5872.509136411352
  0
VERTEX
  8
0
 10
38733.73261309629
 20
-5872.706831797498
  0
VERTEX
  8
0
 10
38737.30489580912
 20
-5872.917290547971
  0
VERTEX
  8
0
 10
38740.77671890509
 20
-5873.138898878025
  0
VERTEX
  8
0
 10
38744.15098293832
 20
-5873.370043002917
  0
VERTEX
  8
0
 10
38747.43058846299
 20
-5873.609109137902
  0
VERTEX
  8
0
 10
38750.61843603323
 20
-5873.854483498237
  0
VERTEX
  8
0
 10
38753.71742620319
 20
-5874.104552299176
  0
VERTEX
  8
0
 10
38756.73045952704
 20
-5874.357701755976
  0
VERTEX
  8
0
 10
38759.66043655892
 20
-5874.612318083892
  0
VERTEX
  8
0
 10
38762.51025785296
 20
-5874.866787498179
  0
VERTEX
  8
0
 10
38765.28282396335
 20
-5875.119496214095
  0
VERTEX
  8
0
 10
38767.9810354442
 20
-5875.368830446894
  0
VERTEX
  8
0
 10
38770.60779284968
 20
-5875.613176411832
  0
VERTEX
  8
0
 10
38773.16599673394
 20
-5875.850920324165
  0
VERTEX
  8
0
 10
38775.65854765113
 20
-5876.080448399148
  0
VERTEX
  8
0
 10
38778.0883461554
 20
-5876.300146852037
  0
VERTEX
  8
0
 10
38780.47053141089
 20
-5876.521276791045
  0
VERTEX
  8
0
 10
38782.84984197332
 20
-5876.740329390469
  0
VERTEX
  8
0
 10
38785.22957927633
 20
-5876.953915598409
  0
VERTEX
  8
0
 10
38787.60973550154
 20
-5877.162135565679
  0
VERTEX
  8
0
 10
38789.99030283055
 20
-5877.365089443091
  0
VERTEX
  8
0
 10
38792.37127344496
 20
-5877.562877381455
  0
VERTEX
  8
0
 10
38794.75263952638
 20
-5877.755599531583
  0
VERTEX
  8
0
 10
38797.1343932564
 20
-5877.943356044286
  0
VERTEX
  8
0
 10
38799.51652681665
 20
-5878.126247070374
  0
VERTEX
  8
0
 10
38801.8990323887
 20
-5878.304372760659
  0
VERTEX
  8
0
 10
38804.28190215419
 20
-5878.477833265953
  0
VERTEX
  8
0
 10
38806.66512829468
 20
-5878.646728737068
  0
VERTEX
  8
0
 10
38809.04870299181
 20
-5878.811159324812
  0
VERTEX
  8
0
 10
38811.43261842717
 20
-5878.97122518
  0
VERTEX
  8
0
 10
38813.81686678236
 20
-5879.127026453441
  0
VERTEX
  8
0
 10
38816.20144023898
 20
-5879.278663295947
  0
VERTEX
  8
0
 10
38818.58633097865
 20
-5879.426235858328
  0
VERTEX
  8
0
 10
38820.97153118296
 20
-5879.569844291397
  0
VERTEX
  8
0
 10
38823.35703303352
 20
-5879.709588745965
  0
VERTEX
  8
0
 10
38825.74282871193
 20
-5879.845569372842
  0
VERTEX
  8
0
 10
38828.12891039979
 20
-5879.97788632284
  0
VERTEX
  8
0
 10
38830.51527027871
 20
-5880.106639746771
  0
VERTEX
  8
0
 10
38832.90190053029
 20
-5880.231929795445
  0
VERTEX
  8
0
 10
38835.28879333613
 20
-5880.353856619675
  0
VERTEX
  8
0
 10
38837.67594087785
 20
-5880.472520370269
  0
VERTEX
  8
0
 10
38840.06333533702
 20
-5880.588021198042
  0
VERTEX
  8
0
 10
38842.45096889528
 20
-5880.700459253803
  0
VERTEX
  8
0
 10
38844.83883373421
 20
-5880.809934688364
  0
VERTEX
  8
0
 10
38847.22692203543
 20
-5880.916547652536
  0
VERTEX
  8
0
 10
38849.61522598053
 20
-5881.02039829713
  0
VERTEX
  8
0
 10
38852.00373775112
 20
-5881.121586772958
  0
VERTEX
  8
0
 10
38854.3924495288
 20
-5881.22021323083
  0
VERTEX
  8
0
 10
38856.78135349517
 20
-5881.316377821558
  0
VERTEX
  8
0
 10
38859.17044183184
 20
-5881.410180695954
  0
VERTEX
  8
0
 10
38861.55970672041
 20
-5881.501722004829
  0
VERTEX
  8
0
 10
38863.94914034249
 20
-5881.591101898995
  0
VERTEX
  8
0
 10
38866.33873487968
 20
-5881.67842052926
  0
VERTEX
  8
0
 10
38868.72848251357
 20
-5881.763778046437
  0
VERTEX
  8
0
 10
38871.11837542579
 20
-5881.847274601339
  0
VERTEX
  8
0
 10
38873.50840579792
 20
-5881.929010344777
  0
VERTEX
  8
0
 10
38875.89856581157
 20
-5882.009085427559
  0
VERTEX
  8
0
 10
38878.28884764834
 20
-5882.087600000498
  0
VERTEX
  8
0
 10
38880.67924348985
 20
-5882.164654214406
  0
VERTEX
  8
0
 10
38883.06974551769
 20
-5882.240348220094
  0
VERTEX
  8
0
 10
38885.46034591347
 20
-5882.314782168375
  0
VERTEX
  8
0
 10
38887.85103685878
 20
-5882.388056210057
  0
VERTEX
  8
0
 10
38890.24181053524
 20
-5882.460270495952
  0
VERTEX
  8
0
 10
38892.63265912444
 20
-5882.531525176872
  0
VERTEX
  8
0
 10
38895.02357480799
 20
-5882.601920403627
  0
VERTEX
  8
0
 10
38897.4145497675
 20
-5882.671556327033
  0
VERTEX
  8
0
 10
38899.80557618456
 20
-5882.740533097895
  0
VERTEX
  8
0
 10
38902.19664624078
 20
-5882.808950867027
  0
VERTEX
  8
0
 10
38904.58775211777
 20
-5882.87690978524
  0
VERTEX
  8
0
 10
38906.97888599712
 20
-5882.944510003345
  0
VERTEX
  8
0
 10
38909.37004006044
 20
-5883.011851672157
  0
VERTEX
  8
0
 10
38911.76120648933
 20
-5883.079034942481
  0
VERTEX
  8
0
 10
38922.99513292371
 20
-5883.118075493087
  0
VERTEX
  8
0
 10
38934.54261465189
 20
-5883.079034942481
  0
VERTEX
  8
0
 10
38936.93378108078
 20
-5883.011851672157
  0
VERTEX
  8
0
 10
38939.3249351441
 20
-5882.944510003345
  0
VERTEX
  8
0
 10
38941.71606902346
 20
-5882.87690978524
  0
VERTEX
  8
0
 10
38944.10717490044
 20
-5882.808950867026
  0
VERTEX
  8
0
 10
38946.49824495666
 20
-5882.740533097895
  0
VERTEX
  8
0
 10
38948.88927137372
 20
-5882.671556327033
  0
VERTEX
  8
0
 10
38951.28024633323
 20
-5882.601920403627
  0
VERTEX
  8
0
 10
38953.67116201678
 20
-5882.531525176872
  0
VERTEX
  8
0
 10
38956.06201060598
 20
-5882.460270495952
  0
VERTEX
  8
0
 10
38958.45278428244
 20
-5882.388056210057
  0
VERTEX
  8
0
 10
38960.84347522775
 20
-5882.314782168374
  0
VERTEX
  8
0
 10
38963.23407562353
 20
-5882.240348220094
  0
VERTEX
  8
0
 10
38965.62457765137
 20
-5882.164654214406
  0
VERTEX
  8
0
 10
38968.01497349288
 20
-5882.087600000498
  0
VERTEX
  8
0
 10
38970.40525532966
 20
-5882.009085427559
  0
VERTEX
  8
0
 10
38972.79541534331
 20
-5881.929010344776
  0
VERTEX
  8
0
 10
38975.18544571544
 20
-5881.847274601339
  0
VERTEX
  8
0
 10
38977.57533862766
 20
-5881.763778046437
  0
VERTEX
  8
0
 10
38979.96508626155
 20
-5881.67842052926
  0
VERTEX
  8
0
 10
38982.35468079873
 20
-5881.591101898995
  0
VERTEX
  8
0
 10
38984.74411442081
 20
-5881.501722004829
  0
VERTEX
  8
0
 10
38987.13337930939
 20
-5881.410180695954
  0
VERTEX
  8
0
 10
38989.52246764606
 20
-5881.316377821558
  0
VERTEX
  8
0
 10
38991.91137161243
 20
-5881.22021323083
  0
VERTEX
  8
0
 10
38994.3000833901
 20
-5881.121586772958
  0
VERTEX
  8
0
 10
38996.68859516069
 20
-5881.020398297129
  0
VERTEX
  8
0
 10
38999.07689910579
 20
-5880.916547652535
  0
VERTEX
  8
0
 10
39001.46498740701
 20
-5880.809934688364
  0
VERTEX
  8
0
 10
39003.85285224594
 20
-5880.700459253803
  0
VERTEX
  8
0
 10
39006.2404858042
 20
-5880.588021198042
  0
VERTEX
  8
0
 10
39008.62788026338
 20
-5880.472520370269
  0
VERTEX
  8
0
 10
39011.01502780509
 20
-5880.353856619674
  0
VERTEX
  8
0
 10
39013.40192061093
 20
-5880.231929795445
  0
VERTEX
  8
0
 10
39015.78855086252
 20
-5880.106639746771
  0
VERTEX
  8
0
 10
39018.17491074144
 20
-5879.97788632284
  0
VERTEX
  8
0
 10
39020.56099242929
 20
-5879.845569372842
  0
VERTEX
  8
0
 10
39022.9467881077
 20
-5879.709588745965
  0
VERTEX
  8
0
 10
39025.33228995826
 20
-5879.569844291397
  0
VERTEX
  8
0
 10
39027.71749016258
 20
-5879.426235858328
  0
VERTEX
  8
0
 10
39030.10238090224
 20
-5879.278663295947
  0
VERTEX
  8
0
 10
39032.48695435886
 20
-5879.127026453441
  0
VERTEX
  8
0
 10
39034.87120271405
 20
-5878.97122518
  0
VERTEX
  8
0
 10
39037.25511814941
 20
-5878.811159324812
  0
VERTEX
  8
0
 10
39039.63869284654
 20
-5878.646728737068
  0
VERTEX
  8
0
 10
39042.02191898704
 20
-5878.477833265953
  0
VERTEX
  8
0
 10
39044.40478875252
 20
-5878.304372760659
  0
VERTEX
  8
0
 10
39046.78729432457
 20
-5878.126247070374
  0
VERTEX
  8
0
 10
39049.16942788482
 20
-5877.943356044285
  0
VERTEX
  8
0
 10
39051.55118161484
 20
-5877.755599531583
  0
VERTEX
  8
0
 10
39053.93254769626
 20
-5877.562877381455
  0
VERTEX
  8
0
 10
39056.31351831068
 20
-5877.365089443091
  0
VERTEX
  8
0
 10
39058.69408563968
 20
-5877.162135565679
  0
VERTEX
  8
0
 10
39061.0742418649
 20
-5876.953915598408
  0
VERTEX
  8
0
 10
39063.45397916791
 20
-5876.740329390468
  0
VERTEX
  8
0
 10
39065.83328973033
 20
-5876.521276791044
  0
VERTEX
  8
0
 10
39068.21547498582
 20
-5876.300146852037
  0
VERTEX
  8
0
 10
39070.64527349009
 20
-5876.080448399147
  0
VERTEX
  8
0
 10
39073.13782440728
 20
-5875.850920324164
  0
VERTEX
  8
0
 10
39075.69602829154
 20
-5875.613176411832
  0
VERTEX
  8
0
 10
39078.32278569703
 20
-5875.368830446894
  0
VERTEX
  8
0
 10
39081.02099717788
 20
-5875.119496214094
  0
VERTEX
  8
0
 10
39083.79356328826
 20
-5874.866787498179
  0
VERTEX
  8
0
 10
39086.64338458231
 20
-5874.612318083891
  0
VERTEX
  8
0
 10
39089.57336161419
 20
-5874.357701755976
  0
VERTEX
  8
0
 10
39092.58639493803
 20
-5874.104552299175
  0
VERTEX
  8
0
 10
39095.685385108
 20
-5873.854483498237
  0
VERTEX
  8
0
 10
39098.87323267824
 20
-5873.609109137902
  0
VERTEX
  8
0
 10
39102.1528382029
 20
-5873.370043002917
  0
VERTEX
  8
0
 10
39105.52710223613
 20
-5873.138898878025
  0
VERTEX
  8
0
 10
39108.9989253321
 20
-5872.917290547971
  0
VERTEX
  8
0
 10
39112.57120804493
 20
-5872.706831797498
  0
VERTEX
  8
0
 10
39116.24685092879
 20
-5872.509136411352
  0
VERTEX
  8
0
 10
39120.02875453782
 20
-5872.325818174277
  0
VERTEX
  8
0
 10
39123.91981942617
 20
-5872.158490871016
  0
VERTEX
  8
0
 10
39127.92294614799
 20
-5872.008768286315
  0
VERTEX
  8
0
 10
39132.04103525745
 20
-5871.878264204916
  0
VERTEX
  8
0
 10
39136.27698730867
 20
-5871.768592411566
  0
VERTEX
  8
0
 10
39140.63370285582
 20
-5871.681366691007
  0
VERTEX
  8
0
 10
39145.11408245304
 20
-5871.618200827986
  0
VERTEX
  8
0
 10
39149.72102665449
 20
-5871.580708607245
  0
VERTEX
  8
0
 10
39154.4574360143
 20
-5871.570503813527
  0
VERTEX
  8
0
 10
39159.32621108665
 20
-5871.58920023158
  0
VERTEX
  8
0
 10
39164.33025242567
 20
-5871.638411646147
  0
VERTEX
  8
0
 10
39169.47246058551
 20
-5871.71975184197
  0
VERTEX
  8
0
 10
39174.75573612032
 20
-5871.834834603796
  0
VERTEX
  8
0
 10
39180.18297958427
 20
-5871.985273716368
  0
VERTEX
  8
0
 10
39185.75709153148
 20
-5872.172682964432
  0
VERTEX
  8
0
 10
39191.48097251612
 20
-5872.39867613273
  0
VERTEX
  8
0
 10
39197.35752309234
 20
-5872.664867006007
  0
VERTEX
  8
0
 10
39203.38964381428
 20
-5872.972869369008
  0
VERTEX
  8
0
 10
39207.50954413546
 20
-5873.218535058145
  0
VERTEX
  8
0
 10
39210.13794198267
 20
-5873.436927656735
  0
VERTEX
  8
0
 10
39212.67969926634
 20
-5873.765679754716
  0
VERTEX
  8
0
 10
39215.08001228752
 20
-5874.274598247782
  0
VERTEX
  8
0
 10
39217.28407734725
 20
-5875.033490031628
  0
VERTEX
  8
0
 10
39219.23709074656
 20
-5876.112162001948
  0
VERTEX
  8
0
 10
39220.88511007599
 20
-5877.5793239762
  0
VERTEX
  8
0
 10
39222.22754617187
 20
-5879.43572640896
  0
VERTEX
  8
0
 10
39223.34748570093
 20
-5881.575536621262
  0
VERTEX
  8
0
 10
39224.33532881841
 20
-5883.883606286846
  0
VERTEX
  8
0
 10
39224.74306765124
 20
-5886.260927860294
  0
VERTEX
  8
0
 10
39224.6852328758
 20
-5888.650998581556
  0
VERTEX
  8
0
 10
39224.61246157279
 20
-5891.039962951496
  0
VERTEX
  8
0
 10
39224.51504687622
 20
-5893.427101980777
  0
VERTEX
  8
0
 10
39224.38495790707
 20
-5895.811820820727
  0
VERTEX
  8
0
 10
39224.22224021717
 20
-5898.194122845378
  0
VERTEX
  8
0
 10
39224.02936905728
 20
-5900.574191397006
  0
VERTEX
  8
0
 10
39223.80882016084
 20
-5902.952209853638
  0
VERTEX
  8
0
 10
39223.56306926128
 20
-5905.328361593301
  0
VERTEX
  8
0
 10
39223.29459209205
 20
-5907.702829994022
  0
VERTEX
  8
0
 10
39223.00586438657
 20
-5910.075798433829
  0
VERTEX
  8
0
 10
39222.69936187828
 20
-5912.44745029075
  0
VERTEX
  8
0
 10
39222.37756030062
 20
-5914.81796894281
  0
VERTEX
  8
0
 10
39222.04293538702
 20
-5917.187537768038
  0
VERTEX
  8
0
 10
39221.69796287092
 20
-5919.556340144461
  0
VERTEX
  8
0
 10
39221.34511848575
 20
-5921.924559450105
  0
VERTEX
  8
0
 10
39220.98687796494
 20
-5924.292379062999
  0
VERTEX
  8
0
 10
39220.62571704194
 20
-5926.65998236117
  0
VERTEX
  8
0
 10
39210.49601393688
 20
-5998.033639672568
  0
VERTEX
  8
0
 10
39210.20810693719
 20
-6000.411652521518
  0
VERTEX
  8
0
 10
39209.92029578521
 20
-6002.789668536118
  0
VERTEX
  8
0
 10
39209.6326488465
 20
-6005.167689974342
  0
VERTEX
  8
0
 10
39209.34523448657
 20
-6007.54571909416
  0
VERTEX
  8
0
 10
39209.05812107098
 20
-6009.923758153544
  0
VERTEX
  8
0
 10
39208.77137696526
 20
-6012.301809410467
  0
VERTEX
  8
0
 10
39208.48507053497
 20
-6014.6798751229
  0
VERTEX
  8
0
 10
39208.19927014563
 20
-6017.057957548815
  0
VERTEX
  8
0
 10
39207.91404416278
 20
-6019.436058946181
  0
VERTEX
  8
0
 10
39207.62946095198
 20
-6021.814181572974
  0
VERTEX
  8
0
 10
39207.34558887875
 20
-6024.192327687165
  0
VERTEX
  8
0
 10
39207.06249630864
 20
-6026.570499546724
  0
VERTEX
  8
0
 10
39206.78025160719
 20
-6028.948699409624
  0
VERTEX
  8
0
 10
39206.49892313993
 20
-6031.326929533837
  0
VERTEX
  8
0
 10
39206.21857927242
 20
-6033.705192177333
  0
VERTEX
  8
0
 10
39205.93928837019
 20
-6036.083489598085
  0
VERTEX
  8
0
 10
39205.66111879877
 20
-6038.461824054066
  0
VERTEX
  8
0
 10
39205.38413892371
 20
-6040.840197803246
  0
VERTEX
  8
0
 10
39205.10841711055
 20
-6043.218613103599
  0
VERTEX
  8
0
 10
39204.83402172484
 20
-6045.597072213093
  0
VERTEX
  8
0
 10
39204.5610211321
 20
-6047.975577389703
  0
VERTEX
  8
0
 10
39204.28948369788
 20
-6050.3541308914
  0
VERTEX
  8
0
 10
39204.01947778773
 20
-6052.732734976155
  0
VERTEX
  8
0
 10
39203.75107176718
 20
-6055.111391901942
  0
VERTEX
  8
0
 10
39203.48433400177
 20
-6057.49010392673
  0
VERTEX
  8
0
 10
39203.21933285704
 20
-6059.868873308493
  0
VERTEX
  8
0
 10
39202.95613669853
 20
-6062.247702305201
  0
VERTEX
  8
0
 10
39202.69481389179
 20
-6064.626593174827
  0
VERTEX
  8
0
 10
39202.43543280235
 20
-6067.005548175341
  0
VERTEX
  8
0
 10
39202.17806179575
 20
-6069.384569564718
  0
VERTEX
  8
0
 10
39201.92276923754
 20
-6071.763659600927
  0
VERTEX
  8
0
 10
39201.66962349325
 20
-6074.142820541942
  0
VERTEX
  8
0
 10
39201.41869292842
 20
-6076.522054645733
  0
VERTEX
  8
0
 10
39201.17004590859
 20
-6078.901364170272
  0
VERTEX
  8
0
 10
39200.92375079932
 20
-6081.280751373532
  0
VERTEX
  8
0
 10
39200.67987596613
 20
-6083.660218513483
  0
VERTEX
  8
0
 10
39200.43848977455
 20
-6086.039767848099
  0
VERTEX
  8
0
 10
39200.19966059015
 20
-6088.419401635349
  0
VERTEX
  8
0
 10
39199.96345677846
 20
-6090.799122133208
  0
VERTEX
  8
0
 10
39199.72994670501
 20
-6093.178931599646
  0
VERTEX
  8
0
 10
39199.49919873535
 20
-6095.558832292634
  0
VERTEX
  8
0
 10
39199.27128123501
 20
-6097.938826470145
  0
VERTEX
  8
0
 10
39199.04626256954
 20
-6100.318916390151
  0
VERTEX
  8
0
 10
39198.82421110447
 20
-6102.699104310624
  0
VERTEX
  8
0
 10
39198.60519520537
 20
-6105.079392489533
  0
VERTEX
  8
0
 10
39198.38928323773
 20
-6107.459783184854
  0
VERTEX
  8
0
 10
39198.17654356714
 20
-6109.840278654557
  0
VERTEX
  8
0
 10
39197.9670445591
 20
-6112.220881156612
  0
VERTEX
  8
0
 10
39197.76085457919
 20
-6114.601592948994
  0
VERTEX
  8
0
 10
39197.55804199291
 20
-6116.982416289671
  0
VERTEX
  8
0
 10
39197.35867516583
 20
-6119.363353436619
  0
VERTEX
  8
0
 10
39197.16282246348
 20
-6121.744406647806
  0
VERTEX
  8
0
 10
39196.9705522514
 20
-6124.125578181207
  0
VERTEX
  8
0
 10
39196.78193289512
 20
-6126.506870294792
  0
VERTEX
  8
0
 10
39196.5970327602
 20
-6128.888285246533
  0
VERTEX
  8
0
 10
39196.41592021217
 20
-6131.269825294401
  0
VERTEX
  8
0
 10
39196.23866361656
 20
-6133.65149269637
  0
VERTEX
  8
0
 10
39196.06533133894
 20
-6136.03328971041
  0
VERTEX
  8
0
 10
39195.89599174482
 20
-6138.415218594493
  0
VERTEX
  8
0
 10
39195.73071319975
 20
-6140.797281606592
  0
VERTEX
  8
0
 10
39195.56956406928
 20
-6143.179481004678
  0
VERTEX
  8
0
 10
39195.41261271894
 20
-6145.561819046721
  0
VERTEX
  8
0
 10
39195.25992751428
 20
-6147.944297990696
  0
VERTEX
  8
0
 10
39195.11157682083
 20
-6150.326920094572
  0
VERTEX
  8
0
 10
39194.96762900412
 20
-6152.709687616323
  0
VERTEX
  8
0
 10
39194.82815242971
 20
-6155.092602813921
  0
VERTEX
  8
0
 10
39194.69321546314
 20
-6157.475667945335
  0
VERTEX
  8
0
 10
39194.56288646994
 20
-6159.858885268539
  0
VERTEX
  8
0
 10
39194.43723381565
 20
-6162.242257041505
  0
VERTEX
  8
0
 10
39194.31632586582
 20
-6164.625785522202
  0
VERTEX
  8
0
 10
39194.200230986
 20
-6167.009472968606
  0
VERTEX
  8
0
 10
39194.08901754169
 20
-6169.393321638686
  0
VERTEX
  8
0
 10
39193.98275389848
 20
-6171.777333790414
  0
VERTEX
  8
0
 10
39193.88150842186
 20
-6174.161511681762
  0
VERTEX
  8
0
 10
39193.78534947742
 20
-6176.545857570703
  0
VERTEX
  8
0
 10
39193.69434543066
 20
-6178.930373715208
  0
VERTEX
  8
0
 10
39193.60856464715
 20
-6181.315062373247
  0
VERTEX
  8
0
 10
39193.52807549241
 20
-6183.699925802794
  0
VERTEX
  8
0
 10
39193.45294633198
 20
-6186.084966261821
  0
VERTEX
  8
0
 10
39193.38324553141
 20
-6188.470186008295
  0
SEQEND
  8
0
  0
POLYLINE
  8
0
 10
0.0
 20
0.0
 30
0.0
 66
     1
 70
     8
  0
VERTEX
  8
0
 10
39193.15191053377
 20
-6244.388639603913
 30
0.0
 70
    32
  0
VERTEX
  8
0
 10
39193.15191053539
 20
-6244.388639700802
 30
0.0
 70
    32
  0
VERTEX
  8
0
 10
39193.151910537
 20
-6244.388639797693
 30
0.0
 70
    32
  0
VERTEX
  8
0
 10
39193.1519105386
 20
-6244.388639894582
 30
0.0
 70
    32
  0
VERTEX
  8
0
 10
39193.15191054021
 20
-6244.388639991473
 30
0.0
 70
    32
  0
VERTEX
  8
0
 10
39193.15191054183
 20
-6244.388640088361
 30
0.0
 70
    32
  0
VERTEX
  8
0
 10
39193.15191054344
 20
-6244.388640185251
 30
0.0
 70
    32
  0
VERTEX
  8
0
 10
39193.15191054504
 20
-6244.388640282141
 30
0.0
 70
    32
  0
VERTEX
  8
0
 10
39193.15191054665
 20
-6244.388640379029
 30
0.0
 70
    32
  0
VERTEX
  8
0
 10
39193.15191054827
 20
-6244.38864047592
 30
0.0
 70
    32
  0
VERTEX
  8
0
 10
39193.15191054988
 20
-6244.388640572809
 30
0.0
 70
    32
  0
VERTEX
  8
0
 10
39193.15191055147
 20
-6244.388640669699
 30
0.0
 70
    32
  0
VERTEX
  8
0
 10
39193.15191055309
 20
-6244.388640766589
 30
0.0
 70
    32
  0
VERTEX
  8
0
 10
39193.1519105547
 20
-6244.388640863477
 30
0.0
 70
    32
  0
VERTEX
  8
0
 10
39193.15191055632
 20
-6244.388640960367
 30
0.0
 70
    32
  0
VERTEX
  8
0
 10
39193.15191055791
 20
-6244.388641057257
 30
0.0
 70
    32
  0
VERTEX
  8
0
 10
39193.15191055953
 20
-6244.388641154147
 30
0.0
 70
    32
  0
VERTEX
  8
0
 10
39193.15191056114
 20
-6244.388641251036
 30
0.0
 70
    32
  0
VERTEX
  8
0
 10
39193.15191056276
 20
-6244.388641347927
 30
0.0
 70
    32
  0
VERTEX
  8
0
 10
39193.15191056435
 20
-6244.388641444815
 30
0.0
 70
    32
  0
VERTEX
  8
0
 10
39193.15191056597
 20
-6244.388641541705
 30
0.0
 70
    32
  0
VERTEX
  8
0
 10
39193.15191056758
 20
-6244.388641638595
 30
0.0
 70
    32
  0
VERTEX
  8
0
 10
39193.1519105692
 20
-6244.388641735483
 30
0.0
 70
    32
  0
VERTEX
  8
0
 10
39193.15191057079
 20
-6244.388641832375
 30
0.0
 70
    32
  0
VERTEX
  8
0
 10
39193.1519105724
 20
-6244.388641929263
 30
0.0
 70
    32
  0
SEQEND
  8
0
  0
POLYLINE
  8
0
 66
     1
 70
     1
  0
VERTEX
  8
0
 10
39193.15191057022
 20
-6198.368655828032
 42
-0.07026305415
  0
VERTEX
  8
0
 10
39196.4095265616
 20
-6170.144533049054
 42
-0.101618697399
  0
VERTEX
  8
0
 10
39232.02243495391
 20
-6097.990633328257
 42
-0.236601655473
  0
VERTEX
  8
0
 10
39279.3839910302
 20
-6074.826543530114
  0
VERTEX
  8
0
 10
39303.50432184075
 20
-6074.826543530114
 42
-0.523240917751
  0
VERTEX
  8
0
 10
39322.2686346221
 20
-6101.747636896953
 42
0.088362807038
  0
VERTEX
  8
0
 10
39293.15194871758
 20
-6264.826511343605
  0
VERTEX
  8
0
 10
39293.15194871758
 20
-6539.82651730407
 42
-0.398337629729
  0
VERTEX
  8
0
 10
39288.15195348595
 20
-6544.826519986281
  0
VERTEX
  8
0
 10
39198.15191912482
 20
-6544.826519986262
 42
-0.428549589901
  0
VERTEX
  8
0
 10
39193.15191057061
 20
-6539.82651730407
  0
VERTEX
  8
0
 10
39193.15191057022
 20
-6288.793305355087
  0
SEQEND
  8
0
  0
POLYLINE
  8
0
 66
     1
  0
VERTEX
  8
0
 10
38653.15191057061
 20
-6288.793305355087
 42
-0.402868245075
  0
VERTEX
  8
0
 10
38667.0832048208
 20
-6273.831424857627
  0
VERTEX
  8
0
 10
38757.57370820091
 20
-6267.367817473335
 42
-0.014584366957
  0
VERTEX
  8
0
 10
38828.82075818882
 20
-6264.82651730407
  0
VERTEX
  8
0
 10
38923.21825057532
 20
-6264.82651730407
  0
VERTEX
  8
0
 10
39017.4830629524
 20
-6264.82651730407
 42
-0.014584366957
  0
VERTEX
  8
0
 10
39088.73011294031
 20
-6267.367817473335
  0
VERTEX
  8
0
 10
39179.22061632042
 20
-6273.831424857627
 42
-0.402868245075
  0
VERTEX
  8
0
 10
39193.15191057061
 20
-6288.793305355087
  0
SEQEND
  8
0
  0
POLYLINE
  8
0
 66
     1
  0
VERTEX
  8
0
 10
39270.65191057061
 20
-6544.82651730407
  0
VERTEX
  8
0
 10
39270.65191057061
 20
-6664.82651730407
  0
VERTEX
  8
0
 10
39235.65191057061
 20
-6664.82651730407
  0
VERTEX
  8
0
 10
39235.65191057061
 20
-6664.82651730407
  0
VERTEX
  8
0
 10
39215.65191057061
 20
-6544.82651730407
  0
SEQEND
  8
0
  0
POLYLINE
  8
0
 66
     1
  0
VERTEX
  8
0
 10
38652.90954564562
 20
-5005.766593268261
  0
VERTEX
  8
0
 10
38652.90954564562
 20
-5491.726891328728
 42
-0.413965955855
  0
VERTEX
  8
0
 10
38637.90955139652
 20
-5506.713756373939
  0
VERTEX
  8
0
 10
38537.55711322562
 20
-5506.713756709215
 42
-0.419950095054
  0
VERTEX
  8
0
 10
38522.55716775407
 20
-5491.71375704449
  0
VERTEX
  8
0
 10
38522.55716775408
 20
-4781.713746837195
 42
-0.43772166494
  0
VERTEX
  8
0
 10
38532.55715821733
 20
-4771.713756373937
  0
VERTEX
  8
0
 10
38642.90955139652
 20
-4771.713756373937
 42
-0.414154868071
  0
VERTEX
  8
0
 10
38652.90954564562
 20
-4781.656361882317
  0
VERTEX
  8
0
 10
38652.90954564562
 20
-4837.894383709253
  0
SEQEND
  8
0
  0
POLYLINE
  8
0
 66
     1
  0
VERTEX
  8
0
 10
38652.90954564562
 20
-4781.656361882317
  0
VERTEX
  8
0
 10
38652.90954564562
 20
-4776.713751605566
 42
-0.411700685128
  0
VERTEX
  8
0
 10
38657.90954087724
 20
-4771.713756373937
  0
VERTEX
  8
0
 10
38922.90953610887
 20
-4771.713756373937
  0
VERTEX
  8
0
 10
39187.9095313405
 20
-4771.713756373937
 42
-0.411700685128
  0
VERTEX
  8
0
 10
39192.90952657212
 20
-4776.713751605566
  0
VERTEX
  8
0
 10
39192.90952657212
 20
-4781.656361882317
  0
SEQEND
  8
0
  0
POLYLINE
  8
0
 66
     1
  0
VERTEX
  8
0
 10
38922.90953610887
 20
-5021.841222201912
  0
VERTEX
  8
0
 10
38823.83860218434
 20
-5022.104913621202
  0
VERTEX
  8
0
 10
38660.68156079408
 20
-5015.476762500743
  0
VERTEX
  8
0
 10
38653.06159006954
 20
-5007.581241101053
  0
VERTEX
  8
0
 10
38652.94061061786
 20
-5005.028323099477
  0
VERTEX
  8
0
 10
38652.96996313937
 20
-5003.88908409071
  0
VERTEX
  8
0
 10
38652.99184190072
 20
-5002.749665323141
  0
VERTEX
  8
0
 10
38653.00631503743
 20
-5001.610068435571
  0
VERTEX
  8
0
 10
38653.01345068505
 20
-5000.470295066791
  0
VERTEX
  8
0
 10
38653.01331697915
 20
-4999.330346855598
  0
VERTEX
  8
0
 10
38653.00598205529
 20
-4998.190225440787
  0
VERTEX
  8
0
 10
38652.991514049
 20
-4997.049932461156
  0
VERTEX
  8
0
 10
38652.96998109585
 20
-4995.909469555497
  0
VERTEX
  8
0
 10
38652.94145133139
 20
-4994.768838362607
  0
VERTEX
  8
0
 10
38652.90599289116
 20
-4993.628040521284
  0
VERTEX
  8
0
 10
38652.86367391074
 20
-4992.48707767032
  0
VERTEX
  8
0
 10
38652.81456252567
 20
-4991.345951448513
  0
VERTEX
  8
0
 10
38652.75872687149
 20
-4990.204663494657
  0
VERTEX
  8
0
 10
38652.69623508376
 20
-4989.063215447549
  0
VERTEX
  8
0
 10
38652.62715529804
 20
-4987.921608945983
  0
VERTEX
  8
0
 10
38652.55155564989
 20
-4986.779845628756
  0
VERTEX
  8
0
 10
38652.46950427484
 20
-4985.637927134664
  0
VERTEX
  8
0
 10
38652.38106930847
 20
-4984.495855102501
  0
VERTEX
  8
0
 10
38652.28631888632
 20
-4983.353631171063
  0
VERTEX
  8
0
 10
38652.18532114394
 20
-4982.211256979147
  0
VERTEX
  8
0
 10
38652.07814421688
 20
-4981.068734165547
  0
VERTEX
  8
0
 10
38651.9648562407
 20
-4979.926064369059
  0
VERTEX
  8
0
 10
38651.84552535096
 20
-4978.783249228478
  0
VERTEX
  8
0
 10
38651.72021968321
 20
-4977.6402903826
  0
VERTEX
  8
0
 10
38651.58900737299
 20
-4976.497189470222
  0
VERTEX
  8
0
 10
38651.45195655587
 20
-4975.353948130139
  0
VERTEX
  8
0
 10
38651.30913536739
 20
-4974.210568001145
  0
VERTEX
  8
0
 10
38651.16061194311
 20
-4973.067050722037
  0
VERTEX
  8
0
 10
38651.00645441858
 20
-4971.92339793161
  0
VERTEX
  8
0
 10
38650.84673092936
 20
-4970.77961126866
  0
VERTEX
  8
0
 10
38650.68150961101
 20
-4969.635692371982
  0
VERTEX
  8
0
 10
38650.51085859905
 20
-4968.491642880373
  0
VERTEX
  8
0
 10
38650.33484602907
 20
-4967.347464432627
  0
VERTEX
  8
0
 10
38650.1535400366
 20
-4966.203158667541
  0
VERTEX
  8
0
 10
38649.9670087572
 20
-4965.058727223909
  0
VERTEX
  8
0
 10
38649.77532032643
 20
-4963.914171740527
  0
VERTEX
  8
0
 10
38649.57854287983
 20
-4962.769493856192
  0
VERTEX
  8
0
 10
38649.37674455297
 20
-4961.624695209698
  0
VERTEX
  8
0
 10
38649.16999348139
 20
-4960.479777439841
  0
VERTEX
  8
0
 10
38648.95835780065
 20
-4959.334742185419
  0
VERTEX
  8
0
 10
38648.7419056463
 20
-4958.189591085223
  0
VERTEX
  8
0
 10
38648.52070515389
 20
-4957.044325778052
  0
VERTEX
  8
0
 10
38648.29482445898
 20
-4955.8989479027
  0
VERTEX
  8
0
 10
38648.06433169712
 20
-4954.753459097964
  0
VERTEX
  8
0
 10
38647.82929500386
 20
-4953.607861002638
  0
VERTEX
  8
0
 10
38647.58978251477
 20
-4952.462155255518
  0
VERTEX
  8
0
 10
38647.34586236538
 20
-4951.3163434954
  0
VERTEX
  8
0
 10
38647.09760269125
 20
-4950.170427361081
  0
VERTEX
  8
0
 10
38646.84507162793
 20
-4949.024408491355
  0
VERTEX
  8
0
 10
38646.58833731099
 20
-4947.878288525017
  0
VERTEX
  8
0
 10
38646.32746787597
 20
-4946.732069100863
  0
VERTEX
  8
0
 10
38646.06253145842
 20
-4945.58575185769
  0
VERTEX
  8
0
 10
38645.79359619391
 20
-4944.439338434291
  0
VERTEX
  8
0
 10
38645.52073021798
 20
-4943.292830469464
  0
VERTEX
  8
0
 10
38645.24400166619
 20
-4942.146229602004
  0
VERTEX
  8
0
 10
38644.96347867408
 20
-4940.999537470707
  0
VERTEX
  8
0
 10
38644.67922937721
 20
-4939.852755714366
  0
VERTEX
  8
0
 10
38644.39132191113
 20
-4938.70588597178
  0
VERTEX
  8
0
 10
38644.09982441141
 20
-4937.558929881743
  0
VERTEX
  8
0
 10
38643.80480501359
 20
-4936.41188908305
  0
VERTEX
  8
0
 10
38643.50633185322
 20
-4935.264765214497
  0
VERTEX
  8
0
 10
38643.20447306587
 20
-4934.117559914881
  0
VERTEX
  8
0
 10
38642.89929678707
 20
-4932.970274822996
  0
VERTEX
  8
0
 10
38642.59087115238
 20
-4931.822911577638
  0
VERTEX
  8
0
 10
38642.27926429736
 20
-4930.675471817603
  0
VERTEX
  8
0
 10
38641.96454435756
 20
-4929.527957181686
  0
VERTEX
  8
0
 10
38641.64677946854
 20
-4928.380369308683
  0
VERTEX
  8
0
 10
38641.32603776584
 20
-4927.232709837389
  0
VERTEX
  8
0
 10
38641.00238738503
 20
-4926.0849804066
  0
VERTEX
  8
0
 10
38640.67589646165
 20
-4924.937182655112
  0
VERTEX
  8
0
 10
38640.34663313125
 20
-4923.78931822172
  0
VERTEX
  8
0
 10
38640.01466552939
 20
-4922.641388745221
  0
VERTEX
  8
0
 10
38639.68006179162
 20
-4921.493395864409
  0
VERTEX
  8
0
 10
38639.34289005351
 20
-4920.34534121808
  0
VERTEX
  8
0
 10
38639.00321845059
 20
-4919.197226445029
  0
VERTEX
  8
0
 10
38638.66111511843
 20
-4918.049053184052
  0
VERTEX
  8
0
 10
38638.31664819257
 20
-4916.900823073945
  0
VERTEX
  8
0
 10
38637.96988580857
 20
-4915.752537753504
  0
VERTEX
  8
0
 10
38637.62089610197
 20
-4914.604198861523
  0
VERTEX
  8
0
 10
38637.26974720835
 20
-4913.4558080368
  0
VERTEX
  8
0
 10
38636.91650726325
 20
-4912.307366918129
  0
VERTEX
  8
0
 10
38636.56124440221
 20
-4911.158877144305
  0
VERTEX
  8
0
 10
38636.20402676081
 20
-4910.010340354124
  0
VERTEX
  8
0
 10
38635.84492247458
 20
-4908.861758186383
  0
VERTEX
  8
0
 10
38635.48399967908
 20
-4907.713132279876
  0
VERTEX
  8
0
 10
38635.12132650986
 20
-4906.564464273399
  0
VERTEX
  8
0
 10
38634.75697110248
 20
-4905.415755805748
  0
VERTEX
  8
0
 10
38634.39100159249
 20
-4904.267008515719
  0
VERTEX
  8
0
 10
38634.02348611545
 20
-4903.118224042107
  0
VERTEX
  8
0
 10
38633.65449280692
 20
-4901.969404023706
  0
VERTEX
  8
0
 10
38633.28408980242
 20
-4900.820550099314
  0
VERTEX
  8
0
 10
38632.91234523753
 20
-4899.671663907727
  0
VERTEX
  8
0
 10
38632.5393272478
 20
-4898.522747087737
  0
VERTEX
  8
0
 10
38632.16510396877
 20
-4897.373801278143
  0
VERTEX
  8
0
 10
38631.78974353601
 20
-4896.22482811774
  0
VERTEX
  8
0
 10
38631.41331408506
 20
-4895.075829245322
  0
VERTEX
  8
0
 10
38631.0358837515
 20
-4893.926806299688
  0
VERTEX
  8
0
 10
38630.65752067084
 20
-4892.77776091963
  0
VERTEX
  8
0
 10
38630.27829297867
 20
-4891.628694743944
  0
VERTEX
  8
0
 10
38629.89826881052
 20
-4890.479609411427
  0
VERTEX
  8
0
 10
38629.51751630196
 20
-4889.330506560874
  0
VERTEX
  8
0
 10
38629.13610358853
 20
-4888.18138783108
  0
VERTEX
  8
0
 10
38628.75409880579
 20
-4887.032254860843
  0
VERTEX
  8
0
 10
38628.37157008931
 20
-4885.883109288956
  0
VERTEX
  8
0
 10
38627.9885855746
 20
-4884.733952754216
  0
VERTEX
  8
0
 10
38627.60521339725
 20
-4883.584786895418
  0
VERTEX
  8
0
 10
38627.22152169279
 20
-4882.435613351357
  0
VERTEX
  8
0
 10
38626.83757859679
 20
-4881.28643376083
  0
VERTEX
  8
0
 10
38626.45345224481
 20
-4880.137249762631
  0
VERTEX
  8
0
 10
38626.06921077238
 20
-4878.988062995556
  0
VERTEX
  8
0
 10
38625.67212884829
 20
-4877.849803246834
  0
VERTEX
  8
0
 10
38625.24777956977
 20
-4876.735668265491
  0
VERTEX
  8
0
 10
38624.8277077047
 20
-4875.620972984202
  0
VERTEX
  8
0
 10
38624.41517740655
 20
-4874.505289830315
  0
VERTEX
  8
0
 10
38624.01345282884
 20
-4873.388191231171
  0
VERTEX
  8
0
 10
38623.62579812507
 20
-4872.269249614115
  0
VERTEX
  8
0
 10
38623.25547744875
 20
-4871.148037406493
  0
VERTEX
  8
0
 10
38622.90575495336
 20
-4870.024127035646
  0
VERTEX
  8
0
 10
38622.57989479242
 20
-4868.89709092892
  0
VERTEX
  8
0
 10
38622.28116111942
 20
-4867.766501513658
  0
VERTEX
  8
0
 10
38622.01281808787
 20
-4866.631931217204
  0
VERTEX
  8
0
 10
38621.77812985126
 20
-4865.492952466901
  0
VERTEX
  8
0
 10
38621.58036056312
 20
-4864.349137690096
  0
VERTEX
  8
0
 10
38621.42277437691
 20
-4863.20005931413
  0
VERTEX
  8
0
 10
38621.30863544615
 20
-4862.045289766348
  0
VERTEX
  8
0
 10
38621.23983403112
 20
-4860.88458144087
  0
VERTEX
  8
0
 10
38621.21120058782
 20
-4859.718611498145
  0
VERTEX
  8
0
 10
38621.21530424841
 20
-4858.548353310258
  0
VERTEX
  8
0
 10
38621.24471311986
 20
-4857.374780383581
  0
VERTEX
  8
0
 10
38621.29199530913
 20
-4856.198866224496
  0
VERTEX
  8
0
 10
38621.34971892319
 20
-4855.021584339374
  0
VERTEX
  8
0
 10
38621.58770216131
 20
-4853.987782970799
  0
VERTEX
  8
0
 10
38621.99270022468
 20
-4853.077152464723
  0
VERTEX
  8
0
 10
38622.45696422351
 20
-4852.197295363264
  0
VERTEX
  8
0
 10
38622.98162368636
 20
-4851.347189320966
  0
VERTEX
  8
0
 10
38623.56780814182
 20
-4850.525811992379
  0
VERTEX
  8
0
 10
38624.21664711843
 20
-4849.73214103205
  0
VERTEX
  8
0
 10
38624.92927014478
 20
-4848.965154094526
  0
VERTEX
  8
0
 10
38625.70680674942
 20
-4848.223828834356
  0
VERTEX
  8
0
 10
38626.55038646091
 20
-4847.507142906087
  0
VERTEX
  8
0
 10
38627.46113880783
 20
-4846.814073964267
  0
VERTEX
  8
0
 10
38628.44019331874
 20
-4846.143599663444
  0
VERTEX
  8
0
 10
38629.48867952221
 20
-4845.494697658164
  0
VERTEX
  8
0
 10
38630.60772694681
 20
-4844.866345602976
  0
VERTEX
  8
0
 10
38631.79846512109
 20
-4844.257521152428
  0
VERTEX
  8
0
 10
38633.06202357364
 20
-4843.667201961067
  0
VERTEX
  8
0
 10
38634.399531833
 20
-4843.094365683441
  0
VERTEX
  8
0
 10
38635.81211942775
 20
-4842.537989974096
  0
VERTEX
  8
0
 10
38637.30091588646
 20
-4841.997052487583
  0
VERTEX
  8
0
 10
38638.80298764689
 20
-4841.50209709968
  0
VERTEX
  8
0
 10
38639.94127184256
 20
-4841.20890392573
  0
VERTEX
  8
0
 10
38641.07956848543
 20
-4840.915795896229
  0
VERTEX
  8
0
 10
38642.21788850531
 20
-4840.622847776138
  0
VERTEX
  8
0
 10
38643.35624283204
 20
-4840.330134330423
  0
VERTEX
  8
0
 10
38644.49464239545
 20
-4840.037730324042
  0
VERTEX
  8
0
 10
38645.63309812536
 20
-4839.745710521963
  0
VERTEX
  8
0
 10
38646.77162095157
 20
-4839.454149689142
  0
VERTEX
  8
0
 10
38647.91022180394
 20
-4839.163122590548
  0
VERTEX
  8
0
 10
38649.04891161229
 20
-4838.872703991141
  0
VERTEX
  8
0
 10
38650.18770130644
 20
-4838.582968655883
  0
VERTEX
  8
0
 10
38651.32660181622
 20
-4838.293991349739
  0
VERTEX
  8
0
 10
38652.46562407142
 20
-4838.005846837668
  0
VERTEX
  8
0
 10
38653.60477900193
 20
-4837.718609884636
  0
VERTEX
  8
0
 10
38654.74407753754
 20
-4837.432355255604
  0
VERTEX
  8
0
 10
38655.88353060807
 20
-4837.147157715535
  0
VERTEX
  8
0
 10
38657.02314914337
 20
-4836.863092029392
  0
VERTEX
  8
0
 10
38658.16294407322
 20
-4836.580232962137
  0
VERTEX
  8
0
 10
38659.3029263275
 20
-4836.298655278733
  0
VERTEX
  8
0
 10
38660.44310683601
 20
-4836.018433744142
  0
VERTEX
  8
0
 10
38661.58349652858
 20
-4835.739643123329
  0
VERTEX
  8
0
 10
38662.72410633502
 20
-4835.462358181254
  0
VERTEX
  8
0
 10
38663.86494718517
 20
-4835.18665368288
  0
VERTEX
  8
0
 10
38665.00603000887
 20
-4834.912604393171
  0
VERTEX
  8
0
 10
38666.14736573592
 20
-4834.640285077088
  0
VERTEX
  8
0
 10
38667.28896529617
 20
-4834.369770499597
  0
VERTEX
  8
0
 10
38668.43083961941
 20
-4834.101135425655
  0
VERTEX
  8
0
 10
38669.5729996355
 20
-4833.83445462023
  0
VERTEX
  8
0
 10
38670.71545627426
 20
-4833.569802848281
  0
VERTEX
  8
0
 10
38671.8582204655
 20
-4833.307254874773
  0
VERTEX
  8
0
 10
38673.00130313906
 20
-4833.046885464668
  0
VERTEX
  8
0
 10
38674.14471522476
 20
-4832.788769382927
  0
VERTEX
  8
0
 10
38675.28846765243
 20
-4832.532981394516
  0
VERTEX
  8
0
 10
38676.43257135188
 20
-4832.279596264395
  0
VERTEX
  8
0
 10
38677.57703725297
 20
-4832.028688757527
  0
VERTEX
  8
0
 10
38678.72187628549
 20
-4831.780333638876
  0
VERTEX
  8
0
 10
38679.86709937928
 20
-4831.534605673402
  0
VERTEX
  8
0
 10
38681.01271746417
 20
-4831.291579626071
  0
VERTEX
  8
0
 10
38682.15874146998
 20
-4831.051330261844
  0
VERTEX
  8
0
 10
38683.30518232654
 20
-4830.813932345683
  0
VERTEX
  8
0
 10
38684.45205096366
 20
-4830.579460642552
  0
VERTEX
  8
0
 10
38685.5993583112
 20
-4830.347989917412
  0
VERTEX
  8
0
 10
38686.74711529895
 20
-4830.119594935228
  0
VERTEX
  8
0
 10
38687.89533285675
 20
-4829.894350460959
  0
VERTEX
  8
0
 10
38689.04402191444
 20
-4829.672331259572
  0
VERTEX
  8
0
 10
38690.19319340182
 20
-4829.453612096027
  0
VERTEX
  8
0
 10
38691.34285824872
 20
-4829.238267735287
  0
VERTEX
  8
0
 10
38692.49302738499
 20
-4829.026372942314
  0
VERTEX
  8
0
 10
38693.64371174043
 20
-4828.818002482073
  0
VERTEX
  8
0
 10
38694.79492224489
 20
-4828.613231119525
  0
VERTEX
  8
0
 10
38695.94666982816
 20
-4828.412133619632
  0
VERTEX
  8
0
 10
38697.0989654201
 20
-4828.214784747359
  0
VERTEX
  8
0
 10
38698.25181995052
 20
-4828.021259267665
  0
VERTEX
  8
0
 10
38699.40524434924
 20
-4827.831631945516
  0
VERTEX
  8
0
 10
38700.5592495461
 20
-4827.645977545873
  0
VERTEX
  8
0
 10
38701.71384647092
 20
-4827.4643708337
  0
VERTEX
  8
0
 10
38702.86904605353
 20
-4827.286886573957
  0
VERTEX
  8
0
 10
38704.02485922375
 20
-4827.113599531611
  0
VERTEX
  8
0
 10
38705.1812969114
 20
-4826.94458447162
  0
VERTEX
  8
0
 10
38706.33837004632
 20
-4826.779916158949
  0
VERTEX
  8
0
 10
38707.49608955832
 20
-4826.619669358562
  0
VERTEX
  8
0
 10
38708.65446637724
 20
-4826.463918835418
  0
VERTEX
  8
0
 10
38729.98199318791
 20
-4823.510733707498
  0
VERTEX
  8
0
 10
38748.46288820783
 20
-4821.012367197541
  0
VERTEX
  8
0
 10
38750.84650323285
 20
-4820.784667967522
  0
VERTEX
  8
0
 10
38752.2506918837
 20
-4820.694615487063
  0
VERTEX
  8
0
 10
38753.65071357253
 20
-4820.604627398936
  0
VERTEX
  8
0
 10
38755.04658513417
 20
-4820.514722428021
  0
VERTEX
  8
0
 10
38756.43832340343
 20
-4820.424919299199
  0
VERTEX
  8
0
 10
38757.82594521513
 20
-4820.335236737351
  0
VERTEX
  8
0
 10
38759.2094674041
 20
-4820.245693467355
  0
VERTEX
  8
0
 10
38760.58890680515
 20
-4820.156308214093
  0
VERTEX
  8
0
 10
38761.96428025311
 20
-4820.067099702444
  0
VERTEX
  8
0
 10
38763.3356045828
 20
-4819.978086657289
  0
VERTEX
  8
0
 10
38764.70289662902
 20
-4819.889287803509
  0
VERTEX
  8
0
 10
38766.06617322662
 20
-4819.800721865984
  0
VERTEX
  8
0
 10
38767.42545121041
 20
-4819.712407569592
  0
VERTEX
  8
0
 10
38768.78074741521
 20
-4819.624363639217
  0
VERTEX
  8
0
 10
38770.13207867582
 20
-4819.536608799736
  0
VERTEX
  8
0
 10
38771.4794618271
 20
-4819.449161776031
  0
VERTEX
  8
0
 10
38772.82291370384
 20
-4819.362041292983
  0
VERTEX
  8
0
 10
38774.16245114087
 20
-4819.27526607547
  0
VERTEX
  8
0
 10
38775.49809097301
 20
-4819.188854848373
  0
VERTEX
  8
0
 10
38776.82985003509
 20
-4819.102826336574
  0
VERTEX
  8
0
 10
38778.15774516191
 20
-4819.017199264951
  0
VERTEX
  8
0
 10
38779.48179318832
 20
-4818.931992358385
  0
VERTEX
  8
0
 10
38780.8020109491
 20
-4818.847224341757
  0
VERTEX
  8
0
 10
38782.11841527911
 20
-4818.762913939947
  0
VERTEX
  8
0
 10
38783.43102301316
 20
-4818.679079877835
  0
VERTEX
  8
0
 10
38784.73985098606
 20
-4818.595740880301
  0
VERTEX
  8
0
 10
38786.04491603262
 20
-4818.512915672226
  0
VERTEX
  8
0
 10
38787.34623498769
 20
-4818.43062297849
  0
VERTEX
  8
0
 10
38788.64382468607
 20
-4818.348881523973
  0
VERTEX
  8
0
 10
38789.9377019626
 20
-4818.267710033554
  0
VERTEX
  8
0
 10
38791.22788365208
 20
-4818.187127232116
  0
VERTEX
  8
0
 10
38792.51438658933
 20
-4818.107151844538
  0
VERTEX
  8
0
 10
38793.79722760919
 20
-4818.027802595699
  0
VERTEX
  8
0
 10
38795.07642354647
 20
-4817.949098210482
  0
VERTEX
  8
0
 10
38796.35199123598
 20
-4817.871057413765
  0
VERTEX
  8
0
 10
38797.62394751256
 20
-4817.793698930428
  0
VERTEX
  8
0
 10
38798.89230921101
 20
-4817.717041485354
  0
VERTEX
  8
0
 10
38800.15709316618
 20
-4817.64110380342
  0
VERTEX
  8
0
 10
38801.41831621286
 20
-4817.565904609509
  0
VERTEX
  8
0
 10
38802.67599518588
 20
-4817.491462628499
  0
VERTEX
  8
0
 10
38803.93014692007
 20
-4817.417796585272
  0
VERTEX
  8
0
 10
38805.18078825024
 20
-4817.344925204708
  0
VERTEX
  8
0
 10
38806.42793601122
 20
-4817.272867211686
  0
VERTEX
  8
0
 10
38807.67160703782
 20
-4817.201641331088
  0
VERTEX
  8
0
 10
38808.91181816487
 20
-4817.131266287794
  0
VERTEX
  8
0
 10
38810.14858622719
 20
-4817.061760806681
  0
VERTEX
  8
0
 10
38811.38192805959
 20
-4816.993143612634
  0
VERTEX
  8
0
 10
38812.61186049689
 20
-4816.925433430531
  0
VERTEX
  8
0
 10
38813.83840037393
 20
-4816.858648985252
  0
VERTEX
  8
0
 10
38815.06156452552
 20
-4816.792809001679
  0
VERTEX
  8
0
 10
38816.28136978647
 20
-4816.72793220469
  0
VERTEX
  8
0
 10
38817.49783299161
 20
-4816.664037319166
  0
VERTEX
  8
0
 10
38818.71097097576
 20
-4816.601143069987
  0
VERTEX
  8
0
 10
38819.92080057375
 20
-4816.539268182036
  0
VERTEX
  8
0
 10
38821.12733862038
 20
-4816.478431380189
  0
VERTEX
  8
0
 10
38822.3306019505
 20
-4816.41865138933
  0
VERTEX
  8
0
 10
38823.53060739889
 20
-4816.359946934336
  0
VERTEX
  8
0
 10
38824.7273718004
 20
-4816.30233674009
  0
VERTEX
  8
0
 10
38825.92091198985
 20
-4816.245839531471
  0
VERTEX
  8
0
 10
38827.11124480205
 20
-4816.190474033358
  0
VERTEX
  8
0
 10
38828.29838707182
 20
-4816.136258970635
  0
VERTEX
  8
0
 10
38829.482355634
 20
-4816.083213068179
  0
VERTEX
  8
0
 10
38830.66316732339
 20
-4816.031355050872
  0
VERTEX
  8
0
 10
38831.84083897481
 20
-4815.980703643592
  0
VERTEX
  8
0
 10
38833.01538742309
 20
-4815.931277571221
  0
VERTEX
  8
0
 10
38834.18682950304
 20
-4815.88309555864
  0
VERTEX
  8
0
 10
38835.3551820495
 20
-4815.836176330728
  0
VERTEX
  8
0
 10
38836.52046189728
 20
-4815.790538612366
  0
VERTEX
  8
0
 10
38837.68268588118
 20
-4815.746201128433
  0
VERTEX
  8
0
 10
38838.84187083606
 20
-4815.70318260381
  0
VERTEX
  8
0
 10
38839.99803359671
 20
-4815.661501763379
  0
VERTEX
  8
0
 10
38841.15119099797
 20
-4815.621177332016
  0
VERTEX
  8
0
 10
38842.30135987464
 20
-4815.582228034606
  0
VERTEX
  8
0
 10
38843.44855706157
 20
-4815.544672596026
  0
VERTEX
  8
0
 10
38844.59279939355
 20
-4815.508529741158
  0
VERTEX
  8
0
 10
38845.73410370541
 20
-4815.473818194882
  0
VERTEX
  8
0
 10
38846.87248683198
 20
-4815.440556682079
  0
VERTEX
  8
0
 10
38848.00796560807
 20
-4815.408763927627
  0
VERTEX
  8
0
 10
38849.1405568685
 20
-4815.378458656407
  0
VERTEX
  8
0
 10
38850.2702774481
 20
-4815.3496595933
  0
VERTEX
  8
0
 10
38851.39714418169
 20
-4815.322385463187
  0
VERTEX
  8
0
 10
38852.52117390409
 20
-4815.296654990947
  0
VERTEX
  8
0
 10
38853.6423834501
 20
-4815.27248690146
  0
VERTEX
  8
0
 10
38854.76078965457
 20
-4815.249899919608
  0
VERTEX
  8
0
 10
38855.87640935231
 20
-4815.228912770269
  0
VERTEX
  8
0
 10
38856.98925937813
 20
-4815.209544178325
  0
VERTEX
  8
0
 10
38922.90953610875
 20
-4815.386571328803
  0
VERTEX
  8
0
 10
38988.82981283959
 20
-4815.209544178325
  0
VERTEX
  8
0
 10
38989.94266286542
 20
-4815.228912770269
  0
VERTEX
  8
0
 10
38991.05828256316
 20
-4815.249899919608
  0
VERTEX
  8
0
 10
38992.17668876763
 20
-4815.27248690146
  0
VERTEX
  8
0
 10
38993.29789831365
 20
-4815.296654990947
  0
VERTEX
  8
0
 10
38994.42192803605
 20
-4815.322385463187
  0
VERTEX
  8
0
 10
38995.54879476963
 20
-4815.3496595933
  0
VERTEX
  8
0
 10
38996.67851534924
 20
-4815.378458656407
  0
VERTEX
  8
0
 10
38997.81110660967
 20
-4815.408763927627
  0
VERTEX
  8
0
 10
38998.94658538576
 20
-4815.440556682079
  0
VERTEX
  8
0
 10
39000.08496851233
 20
-4815.473818194882
  0
VERTEX
  8
0
 10
39001.22627282419
 20
-4815.508529741158
  0
VERTEX
  8
0
 10
39002.37051515617
 20
-4815.544672596026
  0
VERTEX
  8
0
 10
39003.51771234309
 20
-4815.582228034606
  0
VERTEX
  8
0
 10
39004.66788121976
 20
-4815.621177332016
  0
VERTEX
  8
0
 10
39005.82103862103
 20
-4815.661501763379
  0
VERTEX
  8
0
 10
39006.97720138168
 20
-4815.70318260381
  0
VERTEX
  8
0
 10
39008.13638633655
 20
-4815.746201128433
  0
VERTEX
  8
0
 10
39009.29861032046
 20
-4815.790538612366
  0
VERTEX
  8
0
 10
39010.46389016823
 20
-4815.836176330728
  0
VERTEX
  8
0
 10
39011.63224271469
 20
-4815.88309555864
  0
VERTEX
  8
0
 10
39012.80368479465
 20
-4815.931277571221
  0
VERTEX
  8
0
 10
39013.97823324293
 20
-4815.980703643592
  0
VERTEX
  8
0
 10
39015.15590489435
 20
-4816.031355050872
  0
VERTEX
  8
0
 10
39016.33671658374
 20
-4816.083213068179
  0
VERTEX
  8
0
 10
39017.52068514592
 20
-4816.136258970635
  0
VERTEX
  8
0
 10
39018.70782741568
 20
-4816.190474033358
  0
VERTEX
  8
0
 10
39019.89816022789
 20
-4816.24583953147
  0
VERTEX
  8
0
 10
39021.09170041733
 20
-4816.30233674009
  0
VERTEX
  8
0
 10
39022.28846481884
 20
-4816.359946934336
  0
VERTEX
  8
0
 10
39023.48847026724
 20
-4816.418651389329
  0
VERTEX
  8
0
 10
39024.69173359735
 20
-4816.478431380189
  0
VERTEX
  8
0
 10
39025.89827164399
 20
-4816.539268182036
  0
VERTEX
  8
0
 10
39027.10810124197
 20
-4816.601143069987
  0
VERTEX
  8
0
 10
39028.32123922612
 20
-4816.664037319166
  0
VERTEX
  8
0
 10
39029.53770243127
 20
-4816.72793220469
  0
VERTEX
  8
0
 10
39030.75750769221
 20
-4816.792809001679
  0
VERTEX
  8
0
 10
39031.9806718438
 20
-4816.858648985252
  0
VERTEX
  8
0
 10
39033.20721172084
 20
-4816.925433430531
  0
VERTEX
  8
0
 10
39034.43714415815
 20
-4816.993143612634
  0
VERTEX
  8
0
 10
39035.67048599055
 20
-4817.061760806681
  0
VERTEX
  8
0
 10
39036.90725405287
 20
-4817.131266287793
  0
VERTEX
  8
0
 10
39038.14746517991
 20
-4817.201641331088
  0
VERTEX
  8
0
 10
39039.39113620651
 20
-4817.272867211686
  0
VERTEX
  8
0
 10
39040.63828396749
 20
-4817.344925204708
  0
VERTEX
  8
0
 10
39041.88892529767
 20
-4817.417796585272
  0
VERTEX
  8
0
 10
39043.14307703185
 20
-4817.491462628499
  0
VERTEX
  8
0
 10
39044.40075600488
 20
-4817.565904609509
  0
VERTEX
  8
0
 10
39045.66197905155
 20
-4817.64110380342
  0
VERTEX
  8
0
 10
39046.92676300672
 20
-4817.717041485354
  0
VERTEX
  8
0
 10
39048.19512470518
 20
-4817.793698930428
  0
VERTEX
  8
0
 10
39049.46708098175
 20
-4817.871057413765
  0
VERTEX
  8
0
 10
39050.74264867126
 20
-4817.949098210482
  0
VERTEX
  8
0
 10
39052.02184460855
 20
-4818.027802595699
  0
VERTEX
  8
0
 10
39053.30468562841
 20
-4818.107151844538
  0
VERTEX
  8
0
 10
39054.59118856566
 20
-4818.187127232115
  0
VERTEX
  8
0
 10
39055.88137025514
 20
-4818.267710033554
  0
VERTEX
  8
0
 10
39057.17524753166
 20
-4818.348881523972
  0
VERTEX
  8
0
 10
39058.47283723005
 20
-4818.430622978489
  0
VERTEX
  8
0
 10
39059.77415618511
 20
-4818.512915672226
  0
VERTEX
  8
0
 10
39061.07922123168
 20
-4818.595740880301
  0
VERTEX
  8
0
 10
39062.38804920458
 20
-4818.679079877835
  0
VERTEX
  8
0
 10
39063.70065693862
 20
-4818.762913939947
  0
VERTEX
  8
0
 10
39065.01706126863
 20
-4818.847224341757
  0
VERTEX
  8
0
 10
39066.33727902942
 20
-4818.931992358385
  0
VERTEX
  8
0
 10
39067.66132705582
 20
-4819.017199264951
  0
VERTEX
  8
0
 10
39068.98922218265
 20
-4819.102826336573
  0
VERTEX
  8
0
 10
39070.32098124472
 20
-4819.188854848372
  0
VERTEX
  8
0
 10
39071.65662107687
 20
-4819.27526607547
  0
VERTEX
  8
0
 10
39072.9961585139
 20
-4819.362041292983
  0
VERTEX
  8
0
 10
39074.33961039064
 20
-4819.449161776031
  0
VERTEX
  8
0
 10
39075.68699354191
 20
-4819.536608799736
  0
VERTEX
  8
0
 10
39077.03832480253
 20
-4819.624363639217
  0
VERTEX
  8
0
 10
39078.39362100733
 20
-4819.712407569592
  0
VERTEX
  8
0
 10
39079.75289899111
 20
-4819.800721865983
  0
VERTEX
  8
0
 10
39081.11617558871
 20
-4819.889287803509
  0
VERTEX
  8
0
 10
39082.48346763494
 20
-4819.978086657289
  0
VERTEX
  8
0
 10
39083.85479196462
 20
-4820.067099702444
  0
VERTEX
  8
0
 10
39085.23016541258
 20
-4820.156308214092
  0
VERTEX
  8
0
 10
39086.60960481364
 20
-4820.245693467355
  0
VERTEX
  8
0
 10
39087.99312700261
 20
-4820.335236737351
  0
VERTEX
  8
0
 10
39089.38074881431
 20
-4820.424919299199
  0
VERTEX
  8
0
 10
39090.77248708357
 20
-4820.514722428021
  0
VERTEX
  8
0
 10
39092.16835864521
 20
-4820.604627398936
  0
VERTEX
  8
0
 10
39093.56838033404
 20
-4820.694615487063
  0
VERTEX
  8
0
 10
39094.97256898489
 20
-4820.784667967522
  0
VERTEX
  8
0
 10
39097.35618400991
 20
-4821.012367197538
  0
VERTEX
  8
0
 10
39115.83707902973
 20
-4823.510733707485
  0
VERTEX
  8
0
 10
39137.1646058405
 20
-4826.463918835418
  0
VERTEX
  8
0
 10
39138.32298265942
 20
-4826.619669358561
  0
VERTEX
  8
0
 10
39139.48070217142
 20
-4826.779916158949
  0
VERTEX
  8
0
 10
39140.63777530634
 20
-4826.94458447162
  0
VERTEX
  8
0
 10
39141.79421299398
 20
-4827.11359953161
  0
VERTEX
  8
0
 10
39142.95002616421
 20
-4827.286886573957
  0
VERTEX
  8
0
 10
39144.10522574681
 20
-4827.4643708337
  0
VERTEX
  8
0
 10
39145.25982267164
 20
-4827.645977545872
  0
VERTEX
  8
0
 10
39146.41382786849
 20
-4827.831631945516
  0
VERTEX
  8
0
 10
39147.56725226722
 20
-4828.021259267664
  0
VERTEX
  8
0
 10
39148.72010679763
 20
-4828.214784747358
  0
VERTEX
  8
0
 10
39149.87240238958
 20
-4828.412133619632
  0
VERTEX
  8
0
 10
39151.02414997285
 20
-4828.613231119524
  0
VERTEX
  8
0
 10
39152.1753604773
 20
-4828.818002482073
  0
VERTEX
  8
0
 10
39153.32604483274
 20
-4829.026372942314
  0
VERTEX
  8
0
 10
39154.47621396901
 20
-4829.238267735286
  0
VERTEX
  8
0
 10
39155.62587881592
 20
-4829.453612096027
  0
VERTEX
  8
0
 10
39156.7750503033
 20
-4829.672331259571
  0
VERTEX
  8
0
 10
39157.92373936098
 20
-4829.894350460959
  0
VERTEX
  8
0
 10
39159.07195691879
 20
-4830.119594935227
  0
VERTEX
  8
0
 10
39160.21971390654
 20
-4830.347989917412
  0
VERTEX
  8
0
 10
39161.36702125407
 20
-4830.579460642552
  0
VERTEX
  8
0
 10
39162.5138898912
 20
-4830.813932345683
  0
VERTEX
  8
0
 10
39163.66033074776
 20
-4831.051330261844
  0
VERTEX
  8
0
 10
39164.80635475357
 20
-4831.291579626071
  0
VERTEX
  8
0
 10
39165.95197283846
 20
-4831.534605673402
  0
VERTEX
  8
0
 10
39167.09719593225
 20
-4831.780333638875
  0
VERTEX
  8
0
 10
39168.24203496477
 20
-4832.028688757527
  0
VERTEX
  8
0
 10
39169.38650086585
 20
-4832.279596264395
  0
VERTEX
  8
0
 10
39170.53060456531
 20
-4832.532981394515
  0
VERTEX
  8
0
 10
39171.67435699297
 20
-4832.788769382927
  0
VERTEX
  8
0
 10
39172.81776907868
 20
-4833.046885464667
  0
VERTEX
  8
0
 10
39173.96085175224
 20
-4833.307254874772
  0
VERTEX
  8
0
 10
39175.10361594348
 20
-4833.569802848281
  0
VERTEX
  8
0
 10
39176.24607258224
 20
-4833.834454620228
  0
VERTEX
  8
0
 10
39177.38823259832
 20
-4834.101135425655
  0
VERTEX
  8
0
 10
39178.53010692157
 20
-4834.369770499596
  0
VERTEX
  8
0
 10
39179.67170648181
 20
-4834.640285077088
  0
VERTEX
  8
0
 10
39180.81304220887
 20
-4834.91260439317
  0
VERTEX
  8
0
 10
39181.95412503256
 20
-4835.186653682879
  0
VERTEX
  8
0
 10
39183.09496588271
 20
-4835.462358181254
  0
VERTEX
  8
0
 10
39184.23557568916
 20
-4835.739643123328
  0
VERTEX
  8
0
 10
39185.37596538173
 20
-4836.018433744142
  0
VERTEX
  8
0
 10
39186.51614589024
 20
-4836.298655278732
  0
VERTEX
  8
0
 10
39187.6561281445
 20
-4836.580232962137
  0
VERTEX
  8
0
 10
39188.79592307437
 20
-4836.863092029391
  0
VERTEX
  8
0
 10
39189.93554160967
 20
-4837.147157715534
  0
VERTEX
  8
0
 10
39191.0749946802
 20
-4837.432355255603
  0
VERTEX
  8
0
 10
39192.2142932158
 20
-4837.718609884635
  0
VERTEX
  8
0
 10
39193.3534481463
 20
-4838.005846837668
  0
VERTEX
  8
0
 10
39194.49247040152
 20
-4838.293991349737
  0
VERTEX
  8
0
 10
39195.63137091129
 20
-4838.582968655883
  0
VERTEX
  8
0
 10
39196.77016060545
 20
-4838.872703991141
  0
VERTEX
  8
0
 10
39197.9088504138
 20
-4839.163122590548
  0
VERTEX
  8
0
 10
39199.04745126616
 20
-4839.454149689142
  0
VERTEX
  8
0
 10
39200.18597409238
 20
-4839.74571052196
  0
VERTEX
  8
0
 10
39201.32442982229
 20
-4840.037730324042
  0
VERTEX
  8
0
 10
39202.46282938569
 20
-4840.330134330421
  0
VERTEX
  8
0
 10
39203.60118371242
 20
-4840.622847776138
  0
VERTEX
  8
0
 10
39204.73950373231
 20
-4840.915795896229
  0
VERTEX
  8
0
 10
39205.87780037517
 20
-4841.208903925729
  0
VERTEX
  8
0
 10
39207.01608457085
 20
-4841.50209709968
  0
VERTEX
  8
0
 10
39208.51815633127
 20
-4841.997052487583
  0
VERTEX
  8
0
 10
39210.00695278998
 20
-4842.537989974096
  0
VERTEX
  8
0
 10
39211.41954038474
 20
-4843.094365683439
  0
VERTEX
  8
0
 10
39212.7570486441
 20
-4843.667201961066
  0
VERTEX
  8
0
 10
39214.02060709665
 20
-4844.257521152426
  0
VERTEX
  8
0
 10
39215.21134527093
 20
-4844.866345602974
  0
VERTEX
  8
0
 10
39216.33039269553
 20
-4845.494697658162
  0
VERTEX
  8
0
 10
39217.378878899
 20
-4846.143599663442
  0
VERTEX
  8
0
 10
39218.35793340991
 20
-4846.814073964265
  0
VERTEX
  8
0
 10
39219.26868575683
 20
-4847.507142906085
  0
VERTEX
  8
0
 10
39220.11226546832
 20
-4848.223828834355
  0
VERTEX
  8
0
 10
39220.88980207296
 20
-4848.965154094524
  0
VERTEX
  8
0
 10
39221.60242509931
 20
-4849.732141032048
  0
VERTEX
  8
0
 10
39222.25126407592
 20
-4850.525811992377
  0
VERTEX
  8
0
 10
39222.83744853137
 20
-4851.347189320964
  0
VERTEX
  8
0
 10
39223.36210799423
 20
-4852.197295363261
  0
VERTEX
  8
0
 10
39223.82637199305
 20
-4853.077152464721
  0
VERTEX
  8
0
 10
39224.23137005643
 20
-4853.987782970797
  0
VERTEX
  8
0
 10
39224.46935329455
 20
-4855.021584339372
  0
VERTEX
  8
0
 10
39224.52707690861
 20
-4856.198866224493
  0
VERTEX
  8
0
 10
39224.57435909788
 20
-4857.374780383579
  0
VERTEX
  8
0
 10
39224.60376796933
 20
-4858.548353310253
  0
VERTEX
  8
0
 10
39224.60787162992
 20
-4859.718611498141
  0
VERTEX
  8
0
 10
39224.57923818662
 20
-4860.884581440867
  0
VERTEX
  8
0
 10
39224.51043677159
 20
-4862.045289766344
  0
VERTEX
  8
0
 10
39224.39629784083
 20
-4863.200059314127
  0
VERTEX
  8
0
 10
39224.23871165462
 20
-4864.349137690093
  0
VERTEX
  8
0
 10
39224.04094236648
 20
-4865.492952466899
  0
VERTEX
  8
0
 10
39223.80625412987
 20
-4866.631931217201
  0
VERTEX
  8
0
 10
39223.53791109832
 20
-4867.766501513654
  0
VERTEX
  8
0
 10
39223.23917742532
 20
-4868.897090928917
  0
VERTEX
  8
0
 10
39222.91331726438
 20
-4870.024127035644
  0
VERTEX
  8
0
 10
39222.56359476899
 20
-4871.148037406489
  0
VERTEX
  8
0
 10
39222.19327409266
 20
-4872.269249614113
  0
VERTEX
  8
0
 10
39221.8056193889
 20
-4873.388191231167
  0
VERTEX
  8
0
 10
39221.40389481118
 20
-4874.505289830311
  0
VERTEX
  8
0
 10
39220.99136451304
 20
-4875.620972984199
  0
VERTEX
  8
0
 10
39220.57129264798
 20
-4876.735668265487
  0
VERTEX
  8
0
 10
39220.14694336945
 20
-4877.849803246831
  0
VERTEX
  8
0
 10
39219.74986144536
 20
-4878.988062995553
  0
VERTEX
  8
0
 10
39219.36561997293
 20
-4880.137249762628
  0
VERTEX
  8
0
 10
39218.98149362094
 20
-4881.286433760826
  0
VERTEX
  8
0
 10
39218.59755052494
 20
-4882.435613351354
  0
VERTEX
  8
0
 10
39218.21385882049
 20
-4883.584786895415
  0
VERTEX
  8
0
 10
39217.83048664314
 20
-4884.733952754212
  0
VERTEX
  8
0
 10
39217.44750212844
 20
-4885.883109288952
  0
VERTEX
  8
0
 10
39217.06497341195
 20
-4887.03225486084
  0
VERTEX
  8
0
 10
39216.68296862921
 20
-4888.181387831078
  0
VERTEX
  8
0
 10
39216.30155591578
 20
-4889.330506560871
  0
VERTEX
  8
0
 10
39215.92080340721
 20
-4890.479609411424
  0
VERTEX
  8
0
 10
39215.54077923907
 20
-4891.628694743941
  0
VERTEX
  8
0
 10
39215.16155154689
 20
-4892.777760919626
  0
VERTEX
  8
0
 10
39214.78318846624
 20
-4893.926806299683
  0
VERTEX
  8
0
 10
39214.40575813268
 20
-4895.075829245319
  0
VERTEX
  8
0
 10
39214.02932868173
 20
-4896.224828117737
  0
VERTEX
  8
0
 10
39213.65396824897
 20
-4897.37380127814
  0
VERTEX
  8
0
 10
39213.27974496994
 20
-4898.522747087734
  0
VERTEX
  8
0
 10
39212.90672698021
 20
-4899.671663907723
  0
VERTEX
  8
0
 10
39212.53498241532
 20
-4900.820550099312
  0
VERTEX
  8
0
 10
39212.16457941082
 20
-4901.969404023704
  0
VERTEX
  8
0
 10
39211.79558610229
 20
-4903.118224042102
  0
VERTEX
  8
0
 10
39211.42807062525
 20
-4904.267008515715
  0
VERTEX
  8
0
 10
39211.06210111526
 20
-4905.415755805745
  0
VERTEX
  8
0
 10
39210.69774570788
 20
-4906.564464273396
  0
VERTEX
  8
0
 10
39210.33507253866
 20
-4907.713132279873
  0
VERTEX
  8
0
 10
39209.97414974316
 20
-4908.86175818638
  0
VERTEX
  8
0
 10
39209.61504545693
 20
-4910.010340354122
  0
VERTEX
  8
0
 10
39209.25782781553
 20
-4911.158877144302
  0
VERTEX
  8
0
 10
39208.9025649545
 20
-4912.307366918124
  0
VERTEX
  8
0
 10
39208.54932500939
 20
-4913.455808036796
  0
VERTEX
  8
0
 10
39208.19817611577
 20
-4914.604198861521
  0
VERTEX
  8
0
 10
39207.84918640918
 20
-4915.7525377535
  0
VERTEX
  8
0
 10
39207.50242402517
 20
-4916.900823073942
  0
VERTEX
  8
0
 10
39207.15795709931
 20
-4918.049053184049
  0
VERTEX
  8
0
 10
39206.81585376715
 20
-4919.197226445026
  0
VERTEX
  8
0
 10
39206.47618216423
 20
-4920.345341218076
  0
VERTEX
  8
0
 10
39206.13901042612
 20
-4921.493395864405
  0
VERTEX
  8
0
 10
39205.80440668835
 20
-4922.641388745217
  0
VERTEX
  8
0
 10
39205.47243908649
 20
-4923.789318221718
  0
VERTEX
  8
0
 10
39205.14317575609
 20
-4924.93718265511
  0
VERTEX
  8
0
 10
39204.81668483271
 20
-4926.084980406597
  0
VERTEX
  8
0
 10
39204.49303445189
 20
-4927.232709837386
  0
VERTEX
  8
0
 10
39204.1722927492
 20
-4928.38036930868
  0
VERTEX
  8
0
 10
39203.85452786018
 20
-4929.527957181683
  0
VERTEX
  8
0
 10
39203.53980792038
 20
-4930.675471817599
  0
VERTEX
  8
0
 10
39203.22820106536
 20
-4931.822911577635
  0
VERTEX
  8
0
 10
39202.91977543067
 20
-4932.970274822993
  0
VERTEX
  8
0
 10
39202.61459915187
 20
-4934.117559914877
  0
VERTEX
  8
0
 10
39202.31274036452
 20
-4935.264765214494
  0
VERTEX
  8
0
 10
39202.01426720415
 20
-4936.411889083047
  0
VERTEX
  8
0
 10
39201.71924780633
 20
-4937.558929881739
  0
VERTEX
  8
0
 10
39201.4277503066
 20
-4938.705885971777
  0
VERTEX
  8
0
 10
39201.13984284053
 20
-4939.852755714363
  0
VERTEX
  8
0
 10
39200.85559354366
 20
-4940.999537470702
  0
VERTEX
  8
0
 10
39200.57507055155
 20
-4942.146229602001
  0
VERTEX
  8
0
 10
39200.29834199975
 20
-4943.292830469461
  0
VERTEX
  8
0
 10
39200.02547602382
 20
-4944.439338434288
  0
VERTEX
  8
0
 10
39199.75654075931
 20
-4945.585751857687
  0
VERTEX
  8
0
 10
39199.49160434177
 20
-4946.73206910086
  0
VERTEX
  8
0
 10
39199.23073490675
 20
-4947.878288525014
  0
VERTEX
  8
0
 10
39198.97400058981
 20
-4949.024408491351
  0
VERTEX
  8
0
 10
39198.72146952649
 20
-4950.170427361078
  0
VERTEX
  8
0
 10
39198.47320985237
 20
-4951.316343495398
  0
VERTEX
  8
0
 10
39198.22928970298
 20
-4952.462155255515
  0
VERTEX
  8
0
 10
39197.98977721388
 20
-4953.607861002635
  0
VERTEX
  8
0
 10
39197.75474052062
 20
-4954.75345909796
  0
VERTEX
  8
0
 10
39197.52424775876
 20
-4955.898947902698
  0
VERTEX
  8
0
 10
39197.29836706385
 20
-4957.044325778049
  0
VERTEX
  8
0
 10
39197.07716657144
 20
-4958.189591085219
  0
VERTEX
  8
0
 10
39196.8607144171
 20
-4959.334742185415
  0
VERTEX
  8
0
 10
39196.64907873635
 20
-4960.479777439838
  0
VERTEX
  8
0
 10
39196.44232766477
 20
-4961.624695209695
  0
VERTEX
  8
0
 10
39196.24052933791
 20
-4962.769493856189
  0
VERTEX
  8
0
 10
39196.04375189131
 20
-4963.914171740525
  0
VERTEX
  8
0
 10
39195.85206346054
 20
-4965.058727223905
  0
VERTEX
  8
0
 10
39195.66553218114
 20
-4966.203158667538
  0
VERTEX
  8
0
 10
39195.48422618867
 20
-4967.347464432624
  0
VERTEX
  8
0
 10
39195.30821361869
 20
-4968.49164288037
  0
VERTEX
  8
0
 10
39195.13756260673
 20
-4969.635692371979
  0
VERTEX
  8
0
 10
39194.97234128838
 20
-4970.779611268656
  0
VERTEX
  8
0
 10
39194.81261779916
 20
-4971.923397931607
  0
VERTEX
  8
0
 10
39194.65846027463
 20
-4973.067050722034
  0
VERTEX
  8
0
 10
39194.50993685035
 20
-4974.210568001142
  0
VERTEX
  8
0
 10
39194.36711566187
 20
-4975.353948130135
  0
VERTEX
  8
0
 10
39194.23006484475
 20
-4976.497189470219
  0
VERTEX
  8
0
 10
39194.09885253453
 20
-4977.640290382597
  0
VERTEX
  8
0
 10
39193.97354686678
 20
-4978.783249228474
  0
VERTEX
  8
0
 10
39193.85421597704
 20
-4979.926064369055
  0
VERTEX
  8
0
 10
39193.74092800086
 20
-4981.068734165544
  0
VERTEX
  8
0
 10
39193.6337510738
 20
-4982.211256979143
  0
VERTEX
  8
0
 10
39193.53275333142
 20
-4983.35363117106
  0
VERTEX
  8
0
 10
39193.43800290926
 20
-4984.495855102498
  0
VERTEX
  8
0
 10
39193.3495679429
 20
-4985.63792713466
  0
VERTEX
  8
0
 10
39193.26751656785
 20
-4986.779845628754
  0
VERTEX
  8
0
 10
39193.1919169197
 20
-4987.92160894598
  0
VERTEX
  8
0
 10
39193.12283713397
 20
-4989.063215447546
  0
VERTEX
  8
0
 10
39193.06034534625
 20
-4990.204663494654
  0
VERTEX
  8
0
 10
39193.00450969207
 20
-4991.345951448509
  0
VERTEX
  8
0
 10
39192.955398307
 20
-4992.487077670317
  0
VERTEX
  8
0
 10
39192.91307932658
 20
-4993.62804052128
  0
VERTEX
  8
0
 10
39192.87762088636
 20
-4994.768838362605
  0
VERTEX
  8
0
 10
39192.84909112189
 20
-4995.909469555493
  0
VERTEX
  8
0
 10
39192.82755816873
 20
-4997.049932461151
  0
VERTEX
  8
0
 10
39192.81309016245
 20
-4998.190225440784
  0
VERTEX
  8
0
 10
39192.80575523859
 20
-4999.330346855595
  0
VERTEX
  8
0
 10
39192.80562153269
 20
-5000.470295066787
  0
VERTEX
  8
0
 10
39192.81275718031
 20
-5001.610068435567
  0
VERTEX
  8
0
 10
39192.82723031702
 20
-5002.749665323138
  0
VERTEX
  8
0
 10
39192.84910907836
 20
-5003.889084090705
  0
VERTEX
  8
0
 10
39192.87846159988
 20
-5005.028323099472
  0
VERTEX
  8
0
 10
39192.7574821482
 20
-5007.58124110102
  0
VERTEX
  8
0
 10
39185.13751142369
 20
-5015.476762500735
  0
VERTEX
  8
0
 10
39021.98047003392
 20
-5022.104913621205
  0
VERTEX
  8
0
 10
38922.90953610913
 20
-5021.841222201912
  0
SEQEND
  8
0
  0
POLYLINE
  8
0
 66
     1
  0
VERTEX
  8
0
 10
39192.90952657212
 20
-5005.766593268261
  0
VERTEX
  8
0
 10
39192.90952657212
 20
-5491.726891328728
 42
0.413965955855
  0
VERTEX
  8
0
 10
39207.90952082122
 20
-5506.713756373939
  0
VERTEX
  8
0
 10
39308.26195899212
 20
-5506.713756709215
 42
0.419950095054
  0
VERTEX
  8
0
 10
39323.26190446367
 20
-5491.71375704449
  0
VERTEX
  8
0
 10
39323.26190446366
 20
-4781.713746837195
 42
0.43772166494
  0
VERTEX
  8
0
 10
39313.26191400041
 20
-4771.713756373937
  0
VERTEX
  8
0
 10
39202.90952082122
 20
-4771.713756373937
 42
0.414154868071
  0
VERTEX
  8
0
 10
39192.90952657212
 20
-4781.656361882317
  0
VERTEX
  8
0
 10
39192.90952657212
 20
-4837.894383709253
  0
SEQEND
  8
0
  0
POLYLINE
  8
0
 66
     1
  0
VERTEX
  8
0
 10
38652.90954564562
 20
-5491.726891328728
  0
VERTEX
  8
0
 10
38652.90954564562
 20
-5506.84122217339
 42
0.4142805035
  0
VERTEX
  8
0
 10
38667.9095313405
 20
-5521.841222201911
  0
VERTEX
  8
0
 10
38922.90953610887
 20
-5521.841222201911
  0
VERTEX
  8
0
 10
39177.90954087724
 20
-5521.841222201911
 42
0.4142805035
  0
VERTEX
  8
0
 10
39192.90952657212
 20
-5506.84122217339
  0
VERTEX
  8
0
 10
39192.90952657212
 20
-5491.726891328728
  0
SEQEND
  8
0
  0
POLYLINE
  8
0
 66
     1
  0
VERTEX
  8
0
 10
40521.4172662704
 20
-5986.225043351662
 42
0.108840099651
  0
VERTEX
  8
0
 10
40506.80856875734
 20
-5884.760649228034
 42
0.227334549542
  0
VERTEX
  8
0
 10
40405.41834907747
 20
-5950.308737143121
 42
0.043674001862
  0
VERTEX
  8
0
 10
40348.40910559832
 20
-6074.82654352678
  0
SEQEND
  8
0
  0
POLYLINE
  8
1HIDDEN
 66
     1
  0
VERTEX
  8
1HIDDEN
 10
40348.40910559832
 20
-6074.82654352678
 42
0.020384375839
  0
VERTEX
  8
1HIDDEN
 10
40329.41216058758
 20
-6135.95712969446
 42
0.198224624818
  0
VERTEX
  8
1HIDDEN
 10
40352.71035045167
 20
-6286.200232625161
 42
0.221445851776
  0
VERTEX
  8
1HIDDEN
 10
40440.6856087522
 20
-6196.538254744098
  0
SEQEND
  8
1HIDDEN
  0
ENDSEC
  0
EOF
