  0
SECTION
  2
HEADER
  9
$ACADVER
  1
AC1004
  9
$INSBASE
 10
0.0
 20
0.0
  9
$EXTMIN
 10
37850.69530476658
 20
-6834.82651730407
  9
$EXTMAX
 10
40722.97945241969
 20
-4809.86300834163
  9
$LIMMIN
 10
0.0
 20
0.0
  9
$LIMMAX
 10
12.0
 20
9.0
  9
$ORTHOMODE
 70
     0
  9
$REGENMODE
 70
     1
  9
$FILLMODE
 70
     1
  9
$QTEXTMODE
 70
     0
  9
$DRAGMODE
 70
     2
  9
$LTSCALE
 40
0.5
  9
$OSMODE
 70
  2175
  9
$ATTMODE
 70
     1
  9
$TEXTSIZE
 40
4.0
  9
$TRACEWID
 40
0.05
  9
$TEXTSTYLE
  7
STANDARD
  9
$CLAYER
  8
0
  9
$CELTYPE
  6
BYLAYER
  9
$CECOLOR
 62
   256
  9
$DIMSCALE
 40
20.0
  9
$DIMASZ
 40
2.0
  9
$DIMEXO
 40
0.0
  9
$DIMDLI
 40
7.0
  9
$DIMRND
 40
0.0
  9
$DIMDLE
 40
0.0
  9
$DIMEXE
 40
1.0
  9
$DIMTP
 40
0.0
  9
$DIMTM
 40
0.0
  9
$DIMTXT
 40
3.5
  9
$DIMCEN
 40
0.0
  9
$DIMTSZ
 40
0.0
  9
$DIMTOL
 70
     0
  9
$DIMLIM
 70
     0
  9
$DIMTIH
 70
     0
  9
$DIMTOH
 70
     0
  9
$DIMSE1
 70
     0
  9
$DIMSE2
 70
     0
  9
$DIMTAD
 70
     1
  9
$DIMZIN
 70
     8
  9
$DIMBLK
  1

  9
$DIMASO
 70
     1
  9
$DIMSHO
 70
     1
  9
$DIMPOST
  1
 
  9
$DIMAPOST
  1

  9
$DIMALT
 70
     0
  9
$DIMALTD
 70
     2
  9
$DIMALTF
 40
25.4
  9
$DIMLFAC
 40
1.0
  9
$DIMTOFL
 70
     1
  9
$DIMTVP
 40
0.0
  9
$DIMTIX
 70
     0
  9
$DIMSOXD
 70
     0
  9
$DIMSAH
 70
     1
  9
$DIMBLK1
  1
OPEN30
  9
$DIMBLK2
  1
OPEN30
  9
$LUNITS
 70
     2
  9
$LUPREC
 70
     4
  9
$SKETCHINC
 40
0.1
  9
$FILLETRAD
 40
5.8
  9
$AUNITS
 70
     0
  9
$AUPREC
 70
     2
  9
$MENU
  1
acad
  9
$ELEVATION
 40
0.0
  9
$THICKNESS
 40
0.0
  9
$LIMCHECK
 70
     0
  9
$CHAMFERA
 40
0.0
  9
$CHAMFERB
 40
0.0
  9
$SKPOLY
 70
     0
  9
$TDCREATE
 40
2448750.487089225
  9
$TDUPDATE
 40
2459431.406000752
  9
$TDINDWG
 40
2.7987474537
  9
$TDUSRTIMER
 40
2.7987474537
  9
$USRTIMER
 70
     1
  9
$ANGBASE
 50
0.0
  9
$ANGDIR
 70
     0
  9
$PDMODE
 70
     0
  9
$PDSIZE
 40
0.0
  9
$PLINEWID
 40
1.0
  9
$COORDS
 70
     2
  9
$SPLFRAME
 70
     0
  9
$SPLINETYPE
 70
     6
  9
$SPLINESEGS
 70
     8
  9
$ATTDIA
 70
     0
  9
$ATTREQ
 70
     1
  9
$SURFTAB1
 70
     6
  9
$SURFTAB2
 70
     6
  9
$SURFTYPE
 70
     6
  9
$SURFU
 70
     6
  9
$SURFV
 70
     6
  9
$UCSNAME
  2

  9
$UCSORG
 10
0.0
 20
0.0
 30
0.0
  9
$UCSXDIR
 10
1.0
 20
0.0
 30
0.0
  9
$UCSYDIR
 10
0.0
 20
1.0
 30
0.0
  9
$USERI1
 70
     0
  9
$USERI2
 70
     0
  9
$USERI3
 70
     0
  9
$USERI4
 70
     0
  9
$USERI5
 70
     0
  9
$USERR1
 40
0.0
  9
$USERR2
 40
0.0
  9
$USERR3
 40
0.0
  9
$USERR4
 40
0.0
  9
$USERR5
 40
0.0
  9
$WORLDVIEW
 70
     1
  0
ENDSEC
  0
SECTION
  2
TABLES
  0
TABLE
  2
LTYPE
 70
    12
  0
LTYPE
  2
CONTINUOUS
 70
     0
  3
Solid line
 72
    65
 73
     0
 40
0.0
  0
LTYPE
  2
HIDDEN
 70
     0
  3
Hidden __ __ __ __ __ __ __ __ __ __ __ __ __ _
 72
    65
 73
     2
 40
9.525
 49
6.35
 49
-3.175
  0
LTYPE
  2
PHANTOM2
 70
     0
  3
Phantom (0.5x) ___ _ _ ___ _ _ ___ _ _ ___ _ _
 72
    65
 73
     6
 40
31.75
 49
15.875
 49
-3.175
 49
3.175
 49
-3.175
 49
3.175
 49
-3.175
  0
LTYPE
  2
CENTER2
 70
     0
  3
Center (.5x) ___ _ ___ _ ___ _ ___ _ ___ _ ___
 72
    65
 73
     4
 40
28.575
 49
19.05
 49
-3.175
 49
3.175
 49
-3.175
  0
LTYPE
  2
HADAN
 70
     0
  3
Hadansen
 72
    65
 73
     4
 40
58.0
 49
50.0
 49
-2.0
 49
-4.0
 49
-2.0
  0
LTYPE
  2
BATTING
 70
     0
  3
Batting SSSSSSSSSSSSSSSSSSSSSSSSSSSSSSSSSSSSSSS
 72
    65
 73
     4
 40
10.16254
 49
0.00254
 49
-2.54
 49
-5.08
 49
-2.54
  0
LTYPE
  2
DASHED2
 70
     0
  3
Dashed (0.5x) _ _ _ _ _ _ _ _ _ _ _ _ _ _ _ _ _
 72
    65
 73
     2
 40
9.525
 49
6.35
 49
-3.175
  0
LTYPE
  2
FENCELINE1
 70
     0
  3
Fenceline circle -0-----0----0-----0----0-----0
 72
    65
 73
     4
 40
36.83
 49
3.81
 49
-2.54
 49
-2.54
 49
27.94
  0
LTYPE
  2
FENCELINE2
 70
     0
  3
Fenceline square -[]-----[]----[]-----[]----[]-
 72
    65
 73
     4
 40
36.83
 49
3.81
 49
-2.54
 49
-2.54
 49
27.94
  0
LTYPE
  2
TRACKS
 70
     0
  3
Tracks -|-|-|-|-|-|-|-|-|-|-|-|-|-|-|-|-|-|-|-|
 72
    65
 73
     2
 40
7.62
 49
3.81
 49
3.81
  0
LTYPE
  2
ZIGZAG
 70
     0
  3
Zig zag /\/\/\/\/\/\/\/\/\/\/\/\/\/\/\/\/\/\/\/
 72
    65
 73
     4
 40
20.32254
 49
0.00254
 49
-5.08
 49
-10.16
 49
-5.08
  0
LTYPE
  2
BORDER2
 70
     0
  3
Border (0.5x) __.__.__.__.__.__.__.__.__.__.__.
 72
    65
 73
     6
 40
22.225
 49
6.35
 49
-3.175
 49
6.35
 49
-3.175
 49
0.0
 49
-3.175
  0
ENDTAB
  0
TABLE
  2
LAYER
 70
    38
  0
LAYER
  2
0
 70
     0
 62
     7
  6
CONTINUOUS
  0
LAYER
  2
1DIM
 70
     0
 62
     8
  6
CONTINUOUS
  0
LAYER
  2
2VIEWPORT
 70
     0
 62
    -1
  6
CONTINUOUS
  0
LAYER
  2
01
 70
     0
 62
     1
  6
CONTINUOUS
  0
LAYER
  2
DEFPOINTS
 70
     0
 62
     7
  6
CONTINUOUS
  0
LAYER
  2
1HIDDEN
 70
     0
 62
     8
  6
HIDDEN
  0
LAYER
  2
1PHANTOM
 70
     0
 62
   254
  6
PHANTOM2
  0
LAYER
  2
03
 70
     0
 62
     3
  6
CONTINUOUS
  0
LAYER
  2
02
 70
     0
 62
     2
  6
CONTINUOUS
  0
LAYER
  2
1TEXT
 70
     0
 62
   201
  6
CONTINUOUS
  0
LAYER
  2
04
 70
     0
 62
     4
  6
CONTINUOUS
  0
LAYER
  2
POINT
 70
     0
 62
     7
  6
CONTINUOUS
  0
LAYER
  2
1HATCH
 70
     0
 62
     8
  6
CONTINUOUS
  0
LAYER
  2
05
 70
     0
 62
     5
  6
CONTINUOUS
  0
LAYER
  2
06
 70
     0
 62
     6
  6
CONTINUOUS
  0
LAYER
  2
07
 70
     0
 62
   143
  6
CONTINUOUS
  0
LAYER
  2
08
 70
     0
 62
    95
  6
CONTINUOUS
  0
LAYER
  2
09
 70
     0
 62
    15
  6
CONTINUOUS
  0
LAYER
  2
10
 70
     0
 62
   213
  6
CONTINUOUS
  0
LAYER
  2
11
 70
     0
 62
     7
  6
CONTINUOUS
  0
LAYER
  2
1CENTER
 70
     0
 62
   221
  6
CONTINUOUS
  0
LAYER
  2
1DIM1
 70
     0
 62
   221
  6
CONTINUOUS
  0
LAYER
  2
1DIM2
 70
     0
 62
   254
  6
CONTINUOUS
  0
LAYER
  2
1DIM3
 70
     0
 62
     8
  6
CONTINUOUS
  0
LAYER
  2
2BATTING
 70
     0
 62
     7
  6
BATTING
  0
LAYER
  2
2FENCELINE1
 70
     0
 62
     7
  6
FENCELINE1
  0
LAYER
  2
2FENCELINE2
 70
     0
 62
     7
  6
FENCELINE2
  0
LAYER
  2
2TRACKS
 70
     0
 62
     7
  6
TRACKS
  0
LAYER
  2
2ZIGZAG
 70
     0
 62
     7
  6
ZIGZAG
  0
LAYER
  2
2HADAN
 70
     0
 62
     7
  6
HADAN
  0
LAYER
  2
1TEXT2
 70
     0
 62
   221
  6
CONTINUOUS
  0
LAYER
  2
99WAKU
 70
     0
 62
   253
  6
CONTINUOUS
  0
LAYER
  2
MIDFINE
 70
     0
 62
     9
  6
CONTINUOUS
  0
LAYER
  2
THICK
 70
     0
 62
   252
  6
CONTINUOUS
  0
LAYER
  2
ZZ
 70
     0
 62
    -8
  6
CONTINUOUS
  0
LAYER
  2
ZZXX
 70
     0
 62
   243
  6
CONTINUOUS
  0
LAYER
  2
MAKE2D$VISIBLE$LINES
 70
     0
 62
     7
  6
CONTINUOUS
  0
LAYER
  2
MAKE2D$VISIBLE$TANGENTS
 70
     0
 62
     7
  6
CONTINUOUS
  0
ENDTAB
  0
TABLE
  2
STYLE
 70
     4
  0
STYLE
  2
STANDARD
 70
     0
 40
0.0
 41
1.0
 50
0.0
 71
     0
 42
4.0
  3
romans.shx
  4
extfont2.shx
  0
STYLE
  2
KAI
 70
     0
 40
0.0
 41
1.0
 50
0.0
 71
     0
 42
4.0
  3
HGSeikaishotaiPRO.ttf
  4

  0
STYLE
  2

 70
     1
 40
0.2
 41
1.0
 50
0.0
 71
     0
 42
4.0
  3
ltypeshp.shx
  4

  0
STYLE
  2
TATE2
 70
     4
 40
0.0
 41
1.0
 50
0.0
 71
     0
 42
4.0
  3
romans.shx
  4
@extfont2.shx
  0
ENDTAB
  0
TABLE
  2
VIEW
 70
     0
  0
ENDTAB
  0
ENDSEC
  0
SECTION
  2
BLOCKS
  0
BLOCK
  8
0
  2
_OPEN30
 70
     0
 10
0.0
 20
0.0
  0
LINE
  8
0
  6
BYBLOCK
 62
     0
 10
-1.0
 20
0.26794919
 11
0.0
 21
0.0
  0
LINE
  8
0
  6
BYBLOCK
 62
     0
 10
0.0
 20
0.0
 11
-1.0
 21
-0.26794919
  0
LINE
  8
0
  6
BYBLOCK
 62
     0
 10
0.0
 20
0.0
 11
-1.0
 21
0.0
  0
ENDBLK
  8
0
  0
BLOCK
  8
0
  2
NOCIRCLE
 70
     2
 10
0.0
 20
0.0
  0
CIRCLE
  8
0
  6
BYBLOCK
 62
     0
 10
0.0
 20
0.0
 40
4.2
  0
ATTDEF
  8
1TEXT
 10
-1.904761904762
 20
-2.0
 40
4.0
  1
0
 72
     4
 11
0.0
 21
0.0
  3
NO.
  2
NO
 70
     0
  0
ENDBLK
  8
0
  0
BLOCK
  8
0
  2
_OPEN
 70
     0
 10
0.0
 20
0.0
  0
LINE
  8
0
  6
BYBLOCK
 62
     0
 10
-1.0
 20
0.166667
 11
0.0
 21
0.0
  0
LINE
  8
0
  6
BYBLOCK
 62
     0
 10
-1.0
 20
-0.166667
 11
0.0
 21
0.0
  0
LINE
  8
0
  6
BYBLOCK
 62
     0
 10
0.0
 20
0.0
 11
-1.0
 21
0.0
  0
ENDBLK
  8
0
  0
BLOCK
  8
0
  2
YA__
 70
     0
 10
0.0
 20
0.0
  0
INSERT
  8
0
  2
YA_
 10
0.0
 20
0.0
 30
0.0
 50
180.0
  0
ENDBLK
  8
0
  0
BLOCK
  8
0
  2
YA_
 70
     0
 10
0.0
 20
0.0
  0
LINE
  8
0
 10
-5.598760219962
 20
0.622116757674
 11
-2.488360049962
 21
0.622116757674
  0
LINE
  8
0
 10
-5.598760219962
 20
-0.622043242326
 11
-2.488359989962
 21
-0.622043242326
  0
LINE
  8
0
 10
-5.598760219962
 20
0.622116757674
 11
-5.598760219962
 21
-0.622043242326
  0
LINE
  8
0
 10
-2.488360079962
 20
1.346879757674
 11
-2.488360049962
 21
0.622116757674
  0
LINE
  8
0
 10
0.155480482306
 20
-1.993947296099
 11
0.155480380551
 21
1.993947304034
  0
LINE
  8
0
 10
-0.000039515118
 20
-1.99999999961
 11
-0.000039719246
 21
1.999999999606
  0
LINE
  8
0
 10
-0.155559515297
 20
-1.993941131829
 11
-0.155559619962
 21
0.000036757674
  0
LINE
  8
0
 10
-0.155559619962
 20
0.000036757674
 11
-0.155559718965
 21
1.99394111594
  0
LINE
  8
0
 10
-2.488359989962
 20
-0.622043242326
 11
-2.488359959962
 21
-1.346806242326
  0
LINE
  8
0
 10
-0.155559619962
 20
0.000036757674
 11
-2.488360199962
 21
-1.346806242326
  0
LINE
  8
0
 10
-0.155559619962
 20
0.000036757674
 11
-2.488360079962
 21
1.346879757674
  0
POINT
  8
POINT
 10
0.0
 20
0.0
 30
0.0
  0
ENDBLK
  8
0
  0
BLOCK
  8
0
  2
金属脚
 70
     0
 10
0.0
 20
0.0
  0
LINE
  8
0
  6
BYBLOCK
 62
     0
 10
0.0
 20
0.0
 11
125.0
 21
0.0
  0
LINE
  8
0
  6
BYBLOCK
 62
     0
 10
7.011342610203
 20
-155.999982357025
 11
23.011342610203
 21
-155.999982357025
  0
LINE
  8
0
  6
BYBLOCK
 62
     0
 10
7.011342610203
 20
-155.999982357025
 11
7.011342610203
 21
-145.999982357025
  0
LINE
  8
0
  6
BYBLOCK
 62
     0
 10
23.011342610203
 20
-155.999982357025
 11
23.011342610218
 21
-145.999982357025
  0
LINE
  8
0
  6
BYBLOCK
 62
     0
 10
4.0
 20
-145.999982357025
 11
22.0
 21
-145.999982357025
  0
LINE
  8
0
  6
BYBLOCK
 62
     0
 10
4.0
 20
-5.999982357025
 11
4.0
 21
-145.999982357025
  0
LINE
  8
0
  6
BYBLOCK
 62
     0
 10
22.0
 20
-5.999982357025
 11
104.0
 21
-5.999982357025
  0
LINE
  8
0
  6
BYBLOCK
 62
     0
 10
22.0
 20
-145.999982357025
 11
26.0
 21
-145.999982357025
  0
ARC
  8
0
  6
BYBLOCK
 62
     0
 10
31.0
 20
-32.999982357025
 40
5.0
 50
90.0
 51
180.0
  0
LINE
  8
0
  6
BYBLOCK
 62
     0
 10
26.0
 20
-145.999982357025
 11
26.0
 21
-32.999982357025
  0
LINE
  8
0
  6
BYBLOCK
 62
     0
 10
31.0
 20
-27.999982357025
 11
104.0
 21
-27.999982357025
  0
LINE
  8
0
  6
BYBLOCK
 62
     0
 10
104.0
 20
-27.999982357025
 11
104.0
 21
-5.999982357025
  0
LINE
  8
0
  6
BYBLOCK
 62
     0
 10
125.0
 20
-5.999982357025
 11
119.999885559082
 21
-5.999982357025
  0
LINE
  8
0
  6
BYBLOCK
 62
     0
 10
125.0
 20
-5.999982357025
 11
125.0
 21
0.0
  0
LINE
  8
0
  6
BYBLOCK
 62
     0
 10
119.999885559082
 20
-5.999982357025
 11
0.0
 21
-5.999982357025
  0
LINE
  8
0
  6
BYBLOCK
 62
     0
 10
0.0
 20
-5.999982357025
 11
0.0
 21
0.0
  0
ENDBLK
  8
0
  0
BLOCK
  8
0
  2
A-A
 70
     0
 10
0.0
 20
0.0
  0
LINE
  8
0
 10
0.0
 20
0.0
 11
53.759996799999
 21
0.0
  0
LINE
  8
0
 10
8.0321632
 20
10.63999856
 11
11.2933376
 21
1.68
  0
LINE
  8
0
 10
3.36
 20
1.68000624
 11
6.6211696
 21
10.63998944
  0
LINE
  8
0
 10
9.8630848
 20
1.68
 11
11.2933392
 21
1.68
  0
LINE
  8
0
 10
8.905750399999
 20
4.31024896
 11
9.8630848
 21
1.67999952
  0
LINE
  8
0
 10
4.7902528
 20
1.68000016
 11
5.7475856
 21
4.31024864
  0
LINE
  8
0
 10
3.36
 20
1.68
 11
4.7902528
 21
1.68
  0
LINE
  8
0
 10
5.7475856
 20
4.31024928
 11
8.905750399999
 21
4.31024928
  0
LINE
  8
0
 10
6.171791999999
 20
5.47574928
 11
8.4815424
 21
5.47574928
  0
LINE
  8
0
 10
6.171791999999
 20
5.4757488
 11
7.3266672
 21
8.64873968
  0
LINE
  8
0
 10
7.326668799999
 20
8.64873888
 11
8.481544
 21
5.4757488
  0
LINE
  8
0
 10
12.678397759999
 20
5.57759664
 11
16.441594239999
 21
5.57759664
  0
LINE
  8
0
 10
12.678397759999
 20
6.65279616
 11
16.441594239999
 21
6.65279616
  0
ARC
  8
0
 10
12.678397759999
 20
5.93599664
 40
0.3583999840000001
 50
179.99994
 51
270.0
  0
ARC
  8
0
 10
12.678397759999
 20
6.29439616
 40
0.3583999840000001
 50
90.0
 51
179.99994
  0
LINE
  8
0
 10
12.319997759999
 20
6.29439616
 11
12.319997759999
 21
5.93599664
  0
ARC
  8
0
 10
16.441594239999
 20
6.29439616
 40
0.3583999840000001
 50
0.0
 51
90.0
  0
ARC
  8
0
 10
16.441594239999
 20
5.93599664
 40
0.3583999840000001
 50
270.0
 51
0.0
  0
LINE
  8
0
 10
16.79999424
 20
6.29439616
 11
16.79999424
 21
5.93599664
  0
LINE
  8
0
 10
6.621172799999
 20
10.63999856
 11
8.0321632
 21
10.63999856
  0
LINE
  8
0
 10
25.952162927999
 20
10.63999936
 11
29.21333792
 21
1.68000064
  0
LINE
  8
0
 10
21.279999519999
 20
1.68000528
 11
24.541168639999
 21
10.639988
  0
LINE
  8
0
 10
23.667586079999
 20
4.31024928
 11
26.8257509616
 21
4.31024928
  0
LINE
  8
0
 10
22.7102536
 20
1.67999904
 11
23.667586559999
 21
4.31024784
  0
LINE
  8
0
 10
21.28000064
 20
1.68
 11
22.71025168
 21
1.68
  0
LINE
  8
0
 10
24.09179248
 20
5.47574928
 11
26.401542576
 21
5.47574928
  0
LINE
  8
0
 10
24.091794239999
 20
5.475748
 11
25.24666896
 21
8.64873888
  0
LINE
  8
0
 10
25.2466664
 20
8.64873968
 11
26.401541424
 21
5.475748
  0
LINE
  8
0
 10
26.8257489648
 20
4.31024816
 11
27.783081824
 21
1.67999952
  0
LINE
  8
0
 10
27.783083439999
 20
1.68
 11
29.21333888
 21
1.68
  0
POINT
  8
0
 10
26.8799984
 20
0.0
 30
0.0
  0
POINT
  8
0
 10
26.8799984
 20
0.0
 30
0.0
  0
LINE
  8
0
 10
24.541171999999
 20
10.63999856
 11
25.952163024
 21
10.63999856
  0
TEXT
  8
0
 10
35.978853279999
 20
1.99199984
 40
8.0
  1
断面
 41
0.8643459
  0
ENDBLK
  8
0
  0
BLOCK
  8
0
  2
AA
 70
     0
 10
0.0
 20
0.0
  0
LINE
  8
0
 10
0.000001680067
 20
0.00000565232
 11
2.9117599
 21
7.9999905
  0
LINE
  8
0
 10
3.5416694
 20
6.2220893
 11
4.5728078
 21
3.3890617
  0
LINE
  8
0
 10
2.5105312
 20
3.3890617
 11
3.5416694
 21
6.2220888
  0
LINE
  8
0
 10
4.171576
 20
7.999999
 11
7.0833392
 21
0.000000048888
  0
LINE
  8
0
 10
2.1317739
 20
2.3484368
 11
4.9515643
 21
2.3484368
  0
LINE
  8
0
 10
2.5105309
 20
3.3890619
 11
4.5728073
 21
3.3890619
  0
LINE
  8
0
 10
0.000001907349
 20
0.0
 11
1.2770123
 21
0.0
  0
POINT
  8
0
 10
0.0
 20
0.0
 30
0.0
  0
LINE
  8
0
 10
1.2770127
 20
-0.000000009364
 11
2.1317742
 21
2.3484364
  0
LINE
  8
0
 10
5.8063259
 20
0.0
 11
7.0833392
 21
0.0
  0
LINE
  8
0
 10
4.9515648
 20
2.3484368
 11
5.8063259
 21
0.000000268506
  0
LINE
  8
0
 10
2.9117632
 20
7.999999
 11
4.171576
 21
7.999999
  0
ENDBLK
  8
0
  0
BLOCK
  8
0
  2
訂正1
 70
     0
 10
0.0
 20
0.0
  0
LINE
  8
1HATCH
 10
0.000000135843
 20
2.025
 11
2.33826804
 21
-2.0250009
  0
LINE
  8
1HATCH
 10
-2.33826867
 20
-2.025
 11
2.33826849
 21
-2.025
  0
TEXT
  8
1TEXT
 10
-0.434499620191
 20
-1.510450886077
 40
1.8
  1
1
 41
0.66666667
 72
     1
 11
0.051214667951
 21
-1.510450886077
  0
LINE
  8
1HATCH
 10
0.000000476316
 20
2.02500018
 11
-2.33826849
 21
-2.02499937
  0
ENDBLK
  8
0
  0
BLOCK
  8
0
  2
*D430
 70
     1
 10
0.0
 20
0.0
  0
LINE
  8
1DIM
 10
39823.26190446367
 20
-5789.154123474762
 11
39823.26190446367
 21
-5719.154123474762
  0
LINE
  8
1DIM
 10
40328.04450396256
 20
-5789.154123474762
 11
40328.04450396256
 21
-5719.154123474762
  0
LINE
  8
1DIM
 10
39863.26190446367
 20
-5739.154123474762
 11
40288.04450396256
 21
-5739.154123474762
  0
INSERT
  8
1DIM
  2
_OPEN30
 10
39823.26190446367
 20
-5739.154123474762
 30
0.0
 41
40.0
 42
40.0
 43
40.0
 50
180.0
  0
INSERT
  8
1DIM
  2
_OPEN30
 10
40328.04450396256
 20
-5739.154123474762
 30
0.0
 41
40.0
 42
40.0
 43
40.0
  0
TEXT
  8
1DIM
  6
CONTINUOUS
 62
   201
 10
39975.65320421311
 20
-5725.154123474762
 40
70.0
  1
505
  0
POINT
  8
DEFPOINTS
 62
     0
 10
39823.26190446367
 20
-5889.154123474762
 30
0.0
  0
POINT
  8
DEFPOINTS
 62
     0
 10
40328.04450396256
 20
-5889.154123474762
 30
0.0
  0
POINT
  8
DEFPOINTS
 62
     0
 10
40328.04450396256
 20
-5739.154123474762
 30
0.0
  0
ENDBLK
  8
0
  0
BLOCK
  8
0
  2
*D431
 70
     1
 10
0.0
 20
0.0
  0
LINE
  8
1DIM
 10
39823.26190446368
 20
-6764.82651730407
 11
39823.26190446368
 21
-6834.82651730407
  0
LINE
  8
1DIM
 10
40552.97945241969
 20
-6764.82651730407
 11
40552.97945241969
 21
-6834.82651730407
  0
LINE
  8
1DIM
 10
39863.26190446368
 20
-6814.82651730407
 11
40512.97945241969
 21
-6814.82651730407
  0
INSERT
  8
1DIM
  2
_OPEN30
 10
39823.26190446368
 20
-6814.82651730407
 30
0.0
 41
40.0
 42
40.0
 43
40.0
 50
180.0
  0
INSERT
  8
1DIM
  2
_OPEN30
 10
40552.97945241969
 20
-6814.82651730407
 30
0.0
 41
40.0
 42
40.0
 43
40.0
  0
TEXT
  8
1DIM
  6
CONTINUOUS
 62
   201
 10
40088.12067844169
 20
-6800.82651730407
 40
70.0
  1
730
  0
POINT
  8
DEFPOINTS
 62
     0
 10
39823.26190446368
 20
-6664.82651730407
 30
0.0
  0
POINT
  8
DEFPOINTS
 62
     0
 10
40552.97945241969
 20
-6664.82651730407
 30
0.0
  0
POINT
  8
DEFPOINTS
 62
     0
 10
40552.97945241969
 20
-6814.82651730407
 30
0.0
  0
ENDBLK
  8
0
  0
BLOCK
  8
0
  2
*D432
 70
     1
 10
0.0
 20
0.0
  0
LINE
  8
1DIM
 10
40652.97945241969
 20
-5889.154123474762
 11
40722.97945241969
 21
-5889.154123474762
  0
LINE
  8
1DIM
 10
40652.97945241969
 20
-6664.82651730407
 11
40722.97945241969
 21
-6664.82651730407
  0
LINE
  8
1DIM
 10
40702.97945241969
 20
-5929.154123474762
 11
40702.97945241969
 21
-6624.82651730407
  0
INSERT
  8
1DIM
  2
_OPEN30
 10
40702.97945241969
 20
-5889.154123474762
 30
0.0
 41
40.0
 42
40.0
 43
40.0
 50
90.0
  0
INSERT
  8
1DIM
  2
_OPEN30
 10
40702.97945241969
 20
-6664.82651730407
 30
0.0
 41
40.0
 42
40.0
 43
40.0
 50
270.0
  0
TEXT
  8
1DIM
  6
CONTINUOUS
 62
   201
 10
40688.97945241969
 20
-6376.990320389414
 40
70.0
  1
775
 50
90.0
  0
POINT
  8
DEFPOINTS
 62
     0
 10
40552.97945241969
 20
-5889.154123474762
 30
0.0
  0
POINT
  8
DEFPOINTS
 62
     0
 10
40552.97945241969
 20
-6664.82651730407
 30
0.0
  0
POINT
  8
DEFPOINTS
 62
     0
 10
40702.97945241969
 20
-6664.82651730407
 30
0.0
  0
ENDBLK
  8
0
  0
BLOCK
  8
0
  2
*D433
 70
     1
 10
0.0
 20
0.0
  0
LINE
  8
1DIM
 10
38103.97759424253
 20
-6764.82651730407
 11
38103.97759424253
 21
-6834.82651730407
  0
LINE
  8
1DIM
 10
39303.98016308193
 20
-6764.82651730407
 11
39303.98016308193
 21
-6834.82651730407
  0
LINE
  8
1DIM
 10
38143.97759424253
 20
-6814.82651730407
 11
39263.98016308193
 21
-6814.82651730407
  0
INSERT
  8
1DIM
  2
_OPEN30
 10
38103.97759424253
 20
-6814.82651730407
 30
0.0
 41
40.0
 42
40.0
 43
40.0
 50
180.0
  0
INSERT
  8
1DIM
  2
_OPEN30
 10
39303.98016308193
 20
-6814.82651730407
 30
0.0
 41
40.0
 42
40.0
 43
40.0
  0
TEXT
  8
1DIM
  6
CONTINUOUS
 62
   201
 10
38565.64554532889
 20
-6800.82651730407
 40
70.0
  1
1200
  0
POINT
  8
DEFPOINTS
 62
     0
 10
38103.97759424253
 20
-6664.82651730407
 30
0.0
  0
POINT
  8
DEFPOINTS
 62
     0
 10
39303.98016308193
 20
-6664.82651730407
 30
0.0
  0
POINT
  8
DEFPOINTS
 62
     0
 10
39303.98016308193
 20
-6814.82651730407
 30
0.0
  0
ENDBLK
  8
0
  0
BLOCK
  8
0
  2
*D434
 70
     1
 10
0.0
 20
0.0
  0
LINE
  8
1DIM
 10
37984.69530476676
 20
-6256.793880742678
 11
37914.69530476658
 21
-6256.793880742678
  0
LINE
  8
1DIM
 10
37984.69530476658
 20
-6664.82651730407
 11
37914.69530476658
 21
-6664.82651730407
  0
LINE
  8
1DIM
 10
37934.69530476658
 20
-6296.793880742678
 11
37934.69530476658
 21
-6624.82651730407
  0
INSERT
  8
1DIM
  2
_OPEN30
 10
37934.69530476658
 20
-6256.793880742678
 30
0.0
 41
40.0
 42
40.0
 43
40.0
 50
90.0
  0
INSERT
  8
1DIM
  2
_OPEN30
 10
37934.69530476658
 20
-6664.82651730407
 30
0.0
 41
40.0
 42
40.0
 43
40.0
 50
270.0
  0
TEXT
  8
1DIM
  6
CONTINUOUS
 62
   201
 10
37920.69530476658
 20
-6560.810199023377
 40
70.0
  1
410
 50
90.0
  0
POINT
  8
DEFPOINTS
 62
     0
 10
38084.69530476676
 20
-6256.793880742678
 30
0.0
  0
POINT
  8
DEFPOINTS
 62
     0
 10
38084.69530476658
 20
-6664.82651730407
 30
0.0
  0
POINT
  8
DEFPOINTS
 62
     0
 10
37934.69530476658
 20
-6664.82651730407
 30
0.0
  0
ENDBLK
  8
0
  0
ENDSEC
  0
SECTION
  2
ENTITIES
  0
LINE
  8
0
  6
CONTINUOUS
 62
     0
 10
38159.97758937033
 20
-6664.82651730407
 11
38159.97758937033
 21
-6367.814467248295
  0
LINE
  8
0
  6
CONTINUOUS
 62
     0
 10
38137.97758937033
 20
-6664.82651730407
 11
38136.97758937033
 21
-6664.82651730407
  0
LINE
  8
0
  6
CONTINUOUS
 62
     0
 10
38123.97758937033
 20
-6367.814467248295
 11
38123.97758937033
 21
-6664.82651730407
  0
LINE
  8
0
  6
CONTINUOUS
 62
     0
 10
38159.97758937033
 20
-6664.82651730407
 11
38123.97758937033
 21
-6664.82651730407
  0
LINE
  8
0
  6
CONTINUOUS
 62
     0
 10
38106.97759424253
 20
-6397.993401614985
 11
38123.97758937033
 21
-6397.993401614985
  0
LINE
  8
0
  6
CONTINUOUS
 62
     0
 10
38106.97759424253
 20
-6358.850259995429
 11
39300.98016308193
 21
-6358.850259995429
  0
LINE
  8
0
  6
CONTINUOUS
 62
     0
 10
38159.97758937033
 20
-6430.949337208825
 11
39247.98016795413
 21
-6430.949337208839
  0
LINE
  8
0
  6
CONTINUOUS
 62
     0
 10
38159.97758937033
 20
-6369.83987766585
 11
39247.98016795413
 21
-6369.839877665857
  0
LINE
  8
0
  6
CONTINUOUS
 62
     0
 10
38703.97887866224
 20
-6460.369276502453
 11
38159.97758937033
 21
-6460.369276502445
  0
LINE
  8
0
  6
CONTINUOUS
 62
     0
 10
39303.98016032477
 20
-5539.154123474762
 11
38103.97759699974
 21
-5539.154123474762
  0
LINE
  8
0
  6
CONTINUOUS
 62
     0
 10
38478.97759699974
 20
-4919.360921107766
 11
38553.97759699974
 21
-4894.943312623194
  0
LINE
  8
0
  6
CONTINUOUS
 62
     0
 10
38553.97759699974
 20
-4894.943312623205
 11
38628.97759699974
 21
-4919.360921107744
  0
LINE
  8
0
  6
CONTINUOUS
 62
     0
 10
38628.97759699974
 20
-4919.360921107766
 11
38703.97759699974
 21
-4894.943312623194
  0
LINE
  8
0
  6
CONTINUOUS
 62
     0
 10
38478.97759699974
 20
-4919.360921107766
 11
38403.97759699975
 21
-4894.943312623194
  0
LINE
  8
0
  6
CONTINUOUS
 62
     0
 10
38478.97759699974
 20
-4824.029418385884
 11
38403.97759699975
 21
-4894.943312623194
  0
LINE
  8
0
  6
CONTINUOUS
 62
     0
 10
38628.97759699974
 20
-4824.029418385884
 11
38703.97759699974
 21
-4894.943312623194
  0
LINE
  8
0
  6
CONTINUOUS
 62
     0
 10
38553.97759699974
 20
-4894.943312623205
 11
38628.97759699974
 21
-4824.029418385866
  0
LINE
  8
0
  6
CONTINUOUS
 62
     0
 10
38478.97759699974
 20
-4824.029418385884
 11
38553.97759699974
 21
-4894.943312623194
  0
LINE
  8
0
  6
CONTINUOUS
 62
     0
 10
38403.97759699974
 20
-5895.459167828659
 11
38553.97758937033
 21
-6037.28694695483
  0
LINE
  8
0
  6
CONTINUOUS
 62
     0
 10
38403.97759699974
 20
-6037.286939741075
 11
38553.97758937034
 21
-5895.459160614911
  0
LINE
  8
0
  6
CONTINUOUS
 62
     0
 10
38328.97759699975
 20
-4919.360921107766
 11
38253.97759699975
 21
-4894.943312623194
  0
LINE
  8
0
  6
CONTINUOUS
 62
     0
 10
38253.97759699975
 20
-4894.943312623205
 11
38178.97759699975
 21
-4919.360921107744
  0
LINE
  8
0
  6
CONTINUOUS
 62
     0
 10
38178.97759699975
 20
-4919.360921107766
 11
38106.13678172854
 21
-4895.646274321234
  0
LINE
  8
0
  6
CONTINUOUS
 62
     0
 10
38328.97759699975
 20
-4919.360921107766
 11
38403.97759699975
 21
-4894.943312623194
  0
LINE
  8
0
  6
CONTINUOUS
 62
     0
 10
38328.97759699975
 20
-4824.029418385884
 11
38403.97759699975
 21
-4894.943312623194
  0
LINE
  8
0
  6
CONTINUOUS
 62
     0
 10
38178.97759699975
 20
-4824.029418385884
 11
38106.97760187193
 21
-4892.106752246955
  0
LINE
  8
0
  6
CONTINUOUS
 62
     0
 10
38253.97759699975
 20
-4894.943312623205
 11
38178.97759699975
 21
-4824.029418385866
  0
LINE
  8
0
  6
CONTINUOUS
 62
     0
 10
38328.97759699975
 20
-4824.029418385884
 11
38253.97759699975
 21
-4894.943312623194
  0
LINE
  8
0
  6
CONTINUOUS
 62
     0
 10
38403.97759699974
 20
-5895.459167828659
 11
38253.97760462913
 21
-6037.28694695483
  0
LINE
  8
0
  6
CONTINUOUS
 62
     0
 10
38403.97759699974
 20
-6037.286939741075
 11
38253.97760462913
 21
-5895.459160614911
  0
LINE
  8
0
  6
CONTINUOUS
 62
     0
 10
38106.97759424253
 20
-5898.295706520998
 11
38253.97760462913
 21
-6037.286946954816
  0
LINE
  8
0
  6
CONTINUOUS
 62
     0
 10
38106.97759424254
 20
-6034.450401048728
 11
38253.97760462913
 21
-5895.459160614911
  0
ARC
  8
0
  6
CONTINUOUS
 62
     0
 10
38141.97758937033
 20
-6552.75724675595
 40
185.8166615027149
 50
84.441059174979
 51
95.558940825021
  0
ARC
  8
0
 10
38478.98472354063
 20
-6126.943988169841
 40
243.3267808240956
 50
72.047306194324
 51
107.952693805685
  0
ARC
  8
0
 10
38328.98778137321
 20
-6126.943985944227
 40
243.3267787068312
 50
72.047306032749
 51
107.952693967249
  0
ARC
  8
0
 10
38173.0949842503
 20
-6164.349465714745
 40
280.7938853551322
 50
73.256334852251
 51
103.61740334851
  0
ARC
  8
0
 10
38553.97758666521
 20
-5015.479611347144
 40
205.6165522158951
 50
68.607374959372
 51
111.392586240221
  0
ARC
  8
0
 10
38253.97789655862
 20
-5015.479560557544
 40
205.6165522158951
 50
68.607374959372
 51
111.392586240221
  0
ARC
  8
0
 10
38403.97795027477
 20
-5015.479611347155
 40
205.6165522158951
 50
68.607374959372
 51
111.392586240221
  0
ARC
  8
0
 10
38103.97295329448
 20
-5226.560631733146
 40
409.4585647774242
 50
79.445636207023
 51
89.579553973515
  0
ARC
  8
0
 10
38178.95942237002
 20
-4891.730345041739
 40
70.90713494200006
 50
83.850191338506
 51
100.065795010137
  0
ARC
  8
0
 10
38328.97634542319
 20
-4891.225121647694
 40
70.40301603963651
 50
83.819712200592
 51
96.178227313485
  0
ARC
  8
0
 10
38478.97885087881
 20
-4891.225110715076
 40
70.4030051093519
 50
83.821501497173
 51
96.179849248121
  0
ARC
  8
0
 10
38628.97884995575
 20
-4891.225121143895
 40
70.40301553724194
 50
83.821559520323
 51
96.180074730238
  0
POLYLINE
  8
0
 66
     1
  0
VERTEX
  8
0
 10
38106.97760187193
 20
-4893.137690010304
  0
VERTEX
  8
0
 10
38106.97760187193
 20
-4817.113091312503
 42
0.395960767139
  0
VERTEX
  8
0
 10
38103.9775771101
 20
-4814.863059131256
 42
0.395967788488
  0
VERTEX
  8
0
 10
38100.97760187196
 20
-4817.113057402656
  0
VERTEX
  8
0
 10
38100.97760187193
 20
-4893.137690010304
 42
0.395960767139
  0
VERTEX
  8
0
 10
38103.97762663376
 20
-4895.387722191551
 42
0.395967788488
  0
VERTEX
  8
0
 10
38106.97760187191
 20
-4893.137723920151
  0
SEQEND
  8
0
  0
POLYLINE
  8
0
 66
     1
  0
VERTEX
  8
0
 10
38100.97760187196
 20
-4824.917163046424
 42
0.149570519457
  0
VERTEX
  8
0
 10
38084.6953047666
 20
-4891.858397111557
  0
VERTEX
  8
0
 10
38084.6953047666
 20
-5467.973577211304
 42
0.028948486308
  0
VERTEX
  8
0
 10
38100.97760187196
 20
-5519.026770137315
  0
SEQEND
  8
0
  0
POLYLINE
  8
0
  6
CONTINUOUS
 62
     0
 66
     1
  0
VERTEX
  8
0
  6
CONTINUOUS
 62
     0
 10
38100.97760187193
 20
-4893.137690010304
  0
VERTEX
  8
0
  6
CONTINUOUS
 62
     0
 10
38100.97760187193
 20
-5536.15458037301
 42
0.999847698152
  0
VERTEX
  8
0
  6
CONTINUOUS
 62
     0
 10
38106.97760188652
 20
-5536.154580373031
  0
VERTEX
  8
0
  6
CONTINUOUS
 62
     0
 10
38106.13551314976
 20
-4894.679913995008
  0
SEQEND
  8
0
  6
CONTINUOUS
 62
     0
  0
LINE
  8
0
 10
38106.20343255767
 20
-4946.418617563359
 11
38178.97759699975
 21
-4919.360921107766
  0
POLYLINE
  8
0
 66
     1
  0
VERTEX
  8
0
 10
38328.97774870133
 20
-4919.360921107766
  0
VERTEX
  8
0
 10
38345.78338212565
 20
-4924.832299471613
  0
VERTEX
  8
0
 10
38347.46261363308
 20
-4925.437526314521
  0
VERTEX
  8
0
 10
38348.34312487956
 20
-4925.785759495838
  0
VERTEX
  8
0
 10
38349.22382768222
 20
-4926.133959146664
  0
VERTEX
  8
0
 10
38350.10482028308
 20
-4926.482108070461
  0
VERTEX
  8
0
 10
38350.98620092416
 20
-4926.830189070692
  0
VERTEX
  8
0
 10
38351.86806784745
 20
-4927.178184950822
  0
VERTEX
  8
0
 10
38352.75051929497
 20
-4927.52607851431
  0
VERTEX
  8
0
 10
38353.63365350876
 20
-4927.873852564624
  0
VERTEX
  8
0
 10
38354.51756873079
 20
-4928.221489905224
  0
VERTEX
  8
0
 10
38355.40236320311
 20
-4928.568973339573
  0
VERTEX
  8
0
 10
38356.28813516772
 20
-4928.916285671135
  0
VERTEX
  8
0
 10
38357.17498286663
 20
-4929.263409703372
  0
VERTEX
  8
0
 10
38358.06300454186
 20
-4929.610328239747
  0
VERTEX
  8
0
 10
38358.95229843542
 20
-4929.957024083726
  0
VERTEX
  8
0
 10
38359.84296278932
 20
-4930.303480038768
  0
VERTEX
  8
0
 10
38360.73509584558
 20
-4930.649678908337
  0
VERTEX
  8
0
 10
38361.62879584621
 20
-4930.995603495896
  0
VERTEX
  8
0
 10
38362.52416103322
 20
-4931.341236604909
  0
VERTEX
  8
0
 10
38363.42128964864
 20
-4931.686561038838
  0
VERTEX
  8
0
 10
38364.32027891782
 20
-4932.031557639178
  0
VERTEX
  8
0
 10
38365.22116703607
 20
-4932.376093327684
  0
VERTEX
  8
0
 10
38366.12390181623
 20
-4932.719860600712
  0
VERTEX
  8
0
 10
38367.02842342508
 20
-4933.0625371988
  0
VERTEX
  8
0
 10
38367.93467202941
 20
-4933.403800862483
  0
VERTEX
  8
0
 10
38368.84258779597
 20
-4933.7433293323
  0
VERTEX
  8
0
 10
38369.75211089158
 20
-4934.08080034879
  0
VERTEX
  8
0
 10
38370.66318148301
 20
-4934.415891652489
  0
VERTEX
  8
0
 10
38371.57573973704
 20
-4934.748280983937
  0
VERTEX
  8
0
 10
38372.48972582044
 20
-4935.077646083671
  0
VERTEX
  8
0
 10
38373.4050799
 20
-4935.403664692228
  0
VERTEX
  8
0
 10
38374.32174214251
 20
-4935.726014550146
  0
VERTEX
  8
0
 10
38375.23965271475
 20
-4936.044373397964
  0
VERTEX
  8
0
 10
38376.15875178349
 20
-4936.35841897622
  0
VERTEX
  8
0
 10
38377.07897951552
 20
-4936.667829025451
  0
VERTEX
  8
0
 10
38378.00027607763
 20
-4936.972281286196
  0
VERTEX
  8
0
 10
38378.92258163658
 20
-4937.27145349899
  0
VERTEX
  8
0
 10
38379.84583635917
 20
-4937.565023404374
  0
VERTEX
  8
0
 10
38380.76998041218
 20
-4937.852668742886
  0
VERTEX
  8
0
 10
38381.69495396237
 20
-4938.134067255061
  0
VERTEX
  8
0
 10
38382.62069717656
 20
-4938.40889668144
  0
VERTEX
  8
0
 10
38383.54715022151
 20
-4938.676834762559
  0
VERTEX
  8
0
 10
38384.47425326399
 20
-4938.937559238957
  0
VERTEX
  8
0
 10
38385.4019464708
 20
-4939.19074785117
  0
VERTEX
  8
0
 10
38386.33017000872
 20
-4939.436078339739
  0
VERTEX
  8
0
 10
38387.25886404453
 20
-4939.673228445199
  0
VERTEX
  8
0
 10
38388.18796874501
 20
-4939.901875908088
  0
VERTEX
  8
0
 10
38389.11742427693
 20
-4940.121698468947
  0
VERTEX
  8
0
 10
38390.0471708071
 20
-4940.33237386831
  0
VERTEX
  8
0
 10
38390.97714850228
 20
-4940.533579846718
  0
VERTEX
  8
0
 10
38391.90729752925
 20
-4940.724994144707
  0
VERTEX
  8
0
 10
38392.83755805481
 20
-4940.906294502815
  0
VERTEX
  8
0
 10
38393.76787024572
 20
-4941.077158661581
  0
VERTEX
  8
0
 10
38394.69817426878
 20
-4941.237264361542
  0
VERTEX
  8
0
 10
38395.62841029076
 20
-4941.386289343236
  0
VERTEX
  8
0
 10
38396.55851847845
 20
-4941.523911347202
  0
VERTEX
  8
0
 10
38397.48843899862
 20
-4941.649808113976
  0
VERTEX
  8
0
 10
38398.41811201807
 20
-4941.763657384097
  0
VERTEX
  8
0
 10
38399.34747770357
 20
-4941.865136898103
  0
VERTEX
  8
0
 10
38400.2764762219
 20
-4941.95392439653
  0
VERTEX
  8
0
 10
38401.20504773984
 20
-4942.02969761992
  0
VERTEX
  8
0
 10
38402.13313242418
 20
-4942.092134308806
  0
VERTEX
  8
0
 10
38403.06067044171
 20
-4942.140912203729
  0
VERTEX
  8
0
 10
38403.98760195923
 20
-4942.175709045437
  0
VERTEX
  8
0
 10
38404.91453385587
 20
-4942.140922333625
  0
VERTEX
  8
0
 10
38405.84207240641
 20
-4942.092154575227
  0
VERTEX
  8
0
 10
38406.77015777302
 20
-4942.02972802884
  0
VERTEX
  8
0
 10
38407.69873011899
 20
-4941.953964953272
  0
VERTEX
  8
0
 10
38408.62772960757
 20
-4941.865187607332
  0
VERTEX
  8
0
 10
38409.55709640202
 20
-4941.763718249827
  0
VERTEX
  8
0
 10
38410.48677066561
 20
-4941.649879139568
  0
VERTEX
  8
0
 10
38411.41669256157
 20
-4941.52399253536
  0
VERTEX
  8
0
 10
38412.3468022532
 20
-4941.386380696013
  0
VERTEX
  8
0
 10
38413.27703990374
 20
-4941.237365880334
  0
VERTEX
  8
0
 10
38414.20734567643
 20
-4941.077270347132
  0
VERTEX
  8
0
 10
38415.13765973457
 20
-4940.906416355216
  0
VERTEX
  8
0
 10
38416.0679222414
 20
-4940.725126163393
  0
VERTEX
  8
0
 10
38416.99807336017
 20
-4940.533722030471
  0
VERTEX
  8
0
 10
38417.92805325415
 20
-4940.332526215259
  0
VERTEX
  8
0
 10
38418.85780208661
 20
-4940.121860976566
  0
VERTEX
  8
0
 10
38419.7872600208
 20
-4939.902048573198
  0
VERTEX
  8
0
 10
38420.71636721997
 20
-4939.673411263965
  0
VERTEX
  8
0
 10
38421.6450638474
 20
-4939.436271307674
  0
VERTEX
  8
0
 10
38422.57329006634
 20
-4939.190950963134
  0
VERTEX
  8
0
 10
38423.50098604005
 20
-4938.937772489153
  0
VERTEX
  8
0
 10
38424.42809193178
 20
-4938.677058144539
  0
VERTEX
  8
0
 10
38425.35454790481
 20
-4938.409130188101
  0
VERTEX
  8
0
 10
38426.28029412239
 20
-4938.134310878647
  0
VERTEX
  8
0
 10
38427.20527074778
 20
-4937.852922474984
  0
VERTEX
  8
0
 10
38428.12941794423
 20
-4937.565287235921
  0
VERTEX
  8
0
 10
38429.05267587502
 20
-4937.271727420266
  0
VERTEX
  8
0
 10
38429.9749847034
 20
-4936.972565286827
  0
VERTEX
  8
0
 10
38430.89628459263
 20
-4936.668123094414
  0
VERTEX
  8
0
 10
38431.81651570596
 20
-4936.358723101834
  0
VERTEX
  8
0
 10
38432.73561820667
 20
-4936.044687567894
  0
VERTEX
  8
0
 10
38433.65353225802
 20
-4935.726338751405
  0
VERTEX
  8
0
 10
38434.57019802324
 20
-4935.403998911172
  0
VERTEX
  8
0
 10
38435.48555566563
 20
-4935.077990306005
  0
VERTEX
  8
0
 10
38436.39954534841
 20
-4934.748635194712
  0
VERTEX
  8
0
 10
38437.31210723487
 20
-4934.4162558361
  0
VERTEX
  8
0
 10
38438.22318148826
 20
-4934.08117448898
  0
VERTEX
  8
0
 10
38439.13270827183
 20
-4933.743713412158
  0
VERTEX
  8
0
 10
38440.04062774887
 20
-4933.404194864443
  0
VERTEX
  8
0
 10
38440.9468800826
 20
-4933.062941104642
  0
VERTEX
  8
0
 10
38441.85140543632
 20
-4932.720274391565
  0
VERTEX
  8
0
 10
38442.75414397325
 20
-4932.376516984019
  0
VERTEX
  8
0
 10
38443.65503585668
 20
-4932.031991140812
  0
VERTEX
  8
0
 10
38444.55402889608
 20
-4931.687004365024
  0
VERTEX
  8
0
 10
38445.45116128528
 20
-4931.34168973531
  0
VERTEX
  8
0
 10
38446.34653024946
 20
-4930.996066411241
  0
VERTEX
  8
0
 10
38447.24023403045
 20
-4930.650151590427
  0
VERTEX
  8
0
 10
38448.13237087006
 20
-4930.303962470481
  0
VERTEX
  8
0
 10
38449.02303901013
 20
-4929.957516249011
  0
VERTEX
  8
0
 10
38449.91233669247
 20
-4929.610830123629
  0
VERTEX
  8
0
 10
38450.80036215892
 20
-4929.263921291944
  0
VERTEX
  8
0
 10
38451.68721365129
 20
-4928.916806951568
  0
VERTEX
  8
0
 10
38452.57298941142
 20
-4928.569504300112
  0
VERTEX
  8
0
 10
38453.45778768112
 20
-4928.222030535187
  0
VERTEX
  8
0
 10
38454.34170670224
 20
-4927.874402854402
  0
VERTEX
  8
0
 10
38455.22484471658
 20
-4927.526638455367
  0
VERTEX
  8
0
 10
38456.10729996598
 20
-4927.178754535696
  0
VERTEX
  8
0
 10
38456.98917069227
 20
-4926.830768292996
  0
VERTEX
  8
0
 10
38457.87055513726
 20
-4926.48269692488
  0
VERTEX
  8
0
 10
38458.75155154279
 20
-4926.134557628958
  0
VERTEX
  8
0
 10
38459.63225815067
 20
-4925.786367602841
  0
VERTEX
  8
0
 10
38460.51277320273
 20
-4925.438144044139
  0
VERTEX
  8
0
 10
38462.19201132422
 20
-4924.832935552609
  0
VERTEX
  8
0
 10
38478.99770454103
 20
-4919.361740848055
  0
SEQEND
  8
0
  0
POLYLINE
  8
0
 66
     1
  0
VERTEX
  8
0
 10
38178.97767285053
 20
-4919.360921107766
  0
VERTEX
  8
0
 10
38195.78051400811
 20
-4924.831390398599
  0
VERTEX
  8
0
 10
38197.46224520822
 20
-4925.437410592524
  0
VERTEX
  8
0
 10
38198.34261009669
 20
-4925.785585925265
  0
VERTEX
  8
0
 10
38199.22316642874
 20
-4926.133727747226
  0
VERTEX
  8
0
 10
38200.10401239742
 20
-4926.481818870438
  0
VERTEX
  8
0
 10
38200.98524619579
 20
-4926.829842106937
  0
VERTEX
  8
0
 10
38201.8669660169
 20
-4927.177780268753
  0
VERTEX
  8
0
 10
38202.7492700538
 20
-4927.52561616792
  0
VERTEX
  8
0
 10
38203.63225649954
 20
-4927.873332616472
  0
VERTEX
  8
0
 10
38204.51602354718
 20
-4928.220912426443
  0
VERTEX
  8
0
 10
38205.40066938978
 20
-4928.568338409865
  0
VERTEX
  8
0
 10
38206.28629222036
 20
-4928.915593378771
  0
VERTEX
  8
0
 10
38207.17299023201
 20
-4929.262660145195
  0
VERTEX
  8
0
 10
38208.06086161777
 20
-4929.609521521169
  0
VERTEX
  8
0
 10
38208.95000457068
 20
-4929.956160318728
  0
VERTEX
  8
0
 10
38209.8405172838
 20
-4930.302559349904
  0
VERTEX
  8
0
 10
38210.7324979502
 20
-4930.64870142673
  0
VERTEX
  8
0
 10
38211.62604476291
 20
-4930.994569361241
  0
VERTEX
  8
0
 10
38212.52125591499
 20
-4931.340145965467
  0
VERTEX
  8
0
 10
38213.41822959949
 20
-4931.685414051443
  0
VERTEX
  8
0
 10
38214.317063024
 20
-4932.030354529382
  0
VERTEX
  8
0
 10
38215.21779475709
 20
-4932.374835144478
  0
VERTEX
  8
0
 10
38216.12037275713
 20
-4932.718548776988
  0
VERTEX
  8
0
 10
38217.02473722071
 20
-4933.061173328054
  0
VERTEX
  8
0
 10
38217.93082834444
 20
-4933.402386698816
  0
VERTEX
  8
0
 10
38218.83858632493
 20
-4933.741866790417
  0
VERTEX
  8
0
 10
38219.74795135876
 20
-4934.079291504
  0
VERTEX
  8
0
 10
38220.65886364254
 20
-4934.414338740706
  0
VERTEX
  8
0
 10
38221.57126337288
 20
-4934.746686401676
  0
VERTEX
  8
0
 10
38222.48509074637
 20
-4935.076012388055
  0
VERTEX
  8
0
 10
38223.40028595961
 20
-4935.401994600982
  0
VERTEX
  8
0
 10
38224.31678920921
 20
-4935.724310941601
  0
VERTEX
  8
0
 10
38225.23454069177
 20
-4936.042639311054
  0
VERTEX
  8
0
 10
38226.15348060387
 20
-4936.356657610481
  0
VERTEX
  8
0
 10
38227.07354914214
 20
-4936.666043741026
  0
VERTEX
  8
0
 10
38227.99468650316
 20
-4936.970475603833
  0
VERTEX
  8
0
 10
38228.91683288354
 20
-4937.26963110004
  0
VERTEX
  8
0
 10
38229.83992847989
 20
-4937.56318813079
  0
VERTEX
  8
0
 10
38230.76391348878
 20
-4937.850824597226
  0
VERTEX
  8
0
 10
38231.68872810684
 20
-4938.132218400491
  0
VERTEX
  8
0
 10
38232.61431253066
 20
-4938.407047441726
  0
VERTEX
  8
0
 10
38233.54060695685
 20
-4938.674989622072
  0
VERTEX
  8
0
 10
38234.46755158199
 20
-4938.935722842672
  0
VERTEX
  8
0
 10
38235.39508660271
 20
-4939.188925004668
  0
VERTEX
  8
0
 10
38236.32315221558
 20
-4939.434274009202
  0
VERTEX
  8
0
 10
38237.25168861722
 20
-4939.671447757417
  0
VERTEX
  8
0
 10
38238.18063600423
 20
-4939.900124150453
  0
VERTEX
  8
0
 10
38239.10993457321
 20
-4940.119981089454
  0
VERTEX
  8
0
 10
38240.03952452075
 20
-4940.330696475562
  0
VERTEX
  8
0
 10
38240.96934604346
 20
-4940.531948209917
  0
VERTEX
  8
0
 10
38241.89933933794
 20
-4940.723414193663
  0
VERTEX
  8
0
 10
38242.82944460079
 20
-4940.904772327941
  0
VERTEX
  8
0
 10
38243.75960202861
 20
-4941.075700513895
  0
VERTEX
  8
0
 10
38244.689751818
 20
-4941.235876652664
  0
VERTEX
  8
0
 10
38245.61983416557
 20
-4941.384978645391
  0
VERTEX
  8
0
 10
38246.54978926791
 20
-4941.522684393221
  0
VERTEX
  8
0
 10
38247.47955732162
 20
-4941.648671797292
  0
VERTEX
  8
0
 10
38248.40907852331
 20
-4941.762618758748
  0
VERTEX
  8
0
 10
38249.33829306957
 20
-4941.864203178731
  0
VERTEX
  8
0
 10
38250.26714115702
 20
-4941.953102958382
  0
VERTEX
  8
0
 10
38251.19556298224
 20
-4942.028995998846
  0
VERTEX
  8
0
 10
38252.12349874183
 20
-4942.091560201262
  0
VERTEX
  8
0
 10
38253.05088863241
 20
-4942.140473466772
  0
VERTEX
  8
0
 10
38253.97767285053
 20
-4942.175413696521
  0
VERTEX
  8
0
 10
38254.90445706869
 20
-4942.140473466772
  0
VERTEX
  8
0
 10
38255.83184695927
 20
-4942.091560201262
  0
VERTEX
  8
0
 10
38256.75978271886
 20
-4942.028995998846
  0
VERTEX
  8
0
 10
38257.68820454408
 20
-4941.953102958382
  0
VERTEX
  8
0
 10
38258.61705263153
 20
-4941.864203178732
  0
VERTEX
  8
0
 10
38259.54626717778
 20
-4941.762618758748
  0
VERTEX
  8
0
 10
38260.47578837947
 20
-4941.648671797292
  0
VERTEX
  8
0
 10
38261.40555643319
 20
-4941.522684393221
  0
VERTEX
  8
0
 10
38262.33551153552
 20
-4941.384978645392
  0
VERTEX
  8
0
 10
38263.26559388309
 20
-4941.235876652664
  0
VERTEX
  8
0
 10
38264.19574367248
 20
-4941.075700513895
  0
VERTEX
  8
0
 10
38265.12590110031
 20
-4940.904772327942
  0
VERTEX
  8
0
 10
38266.05600636316
 20
-4940.723414193663
  0
VERTEX
  8
0
 10
38266.98599965763
 20
-4940.531948209917
  0
VERTEX
  8
0
 10
38267.91582118035
 20
-4940.330696475562
  0
VERTEX
  8
0
 10
38268.84541112788
 20
-4940.119981089455
  0
VERTEX
  8
0
 10
38269.77470969687
 20
-4939.900124150453
  0
VERTEX
  8
0
 10
38270.70365708388
 20
-4939.671447757418
  0
VERTEX
  8
0
 10
38271.63219348552
 20
-4939.434274009202
  0
VERTEX
  8
0
 10
38272.56025909839
 20
-4939.188925004668
  0
VERTEX
  8
0
 10
38273.4877941191
 20
-4938.935722842672
  0
VERTEX
  8
0
 10
38274.41473874425
 20
-4938.674989622072
  0
VERTEX
  8
0
 10
38275.34103317043
 20
-4938.407047441726
  0
VERTEX
  8
0
 10
38276.26661759426
 20
-4938.132218400491
  0
VERTEX
  8
0
 10
38277.19143221232
 20
-4937.850824597226
  0
VERTEX
  8
0
 10
38278.11541722121
 20
-4937.56318813079
  0
VERTEX
  8
0
 10
38279.03851281755
 20
-4937.26963110004
  0
VERTEX
  8
0
 10
38279.96065919793
 20
-4936.970475603833
  0
VERTEX
  8
0
 10
38280.88179655896
 20
-4936.666043741026
  0
VERTEX
  8
0
 10
38281.80186509722
 20
-4936.356657610481
  0
VERTEX
  8
0
 10
38282.72080500933
 20
-4936.042639311054
  0
VERTEX
  8
0
 10
38283.63855649188
 20
-4935.7243109416
  0
VERTEX
  8
0
 10
38284.55505974148
 20
-4935.401994600982
  0
VERTEX
  8
0
 10
38285.47025495472
 20
-4935.076012388055
  0
VERTEX
  8
0
 10
38286.38408232821
 20
-4934.746686401676
  0
VERTEX
  8
0
 10
38287.29648205855
 20
-4934.414338740706
  0
VERTEX
  8
0
 10
38288.20739434233
 20
-4934.079291504
  0
VERTEX
  8
0
 10
38289.11675937616
 20
-4933.741866790417
  0
VERTEX
  8
0
 10
38290.02451735665
 20
-4933.402386698816
  0
VERTEX
  8
0
 10
38290.93060848039
 20
-4933.061173328054
  0
VERTEX
  8
0
 10
38291.83497294397
 20
-4932.718548776988
  0
VERTEX
  8
0
 10
38292.737550944
 20
-4932.374835144478
  0
VERTEX
  8
0
 10
38293.63828267709
 20
-4932.030354529382
  0
VERTEX
  8
0
 10
38294.5371161016
 20
-4931.685414051443
  0
VERTEX
  8
0
 10
38295.4340897861
 20
-4931.340145965467
  0
VERTEX
  8
0
 10
38296.32930093818
 20
-4930.994569361241
  0
VERTEX
  8
0
 10
38297.22284775089
 20
-4930.64870142673
  0
VERTEX
  8
0
 10
38298.11482841729
 20
-4930.302559349903
  0
VERTEX
  8
0
 10
38299.00534113041
 20
-4929.956160318728
  0
VERTEX
  8
0
 10
38299.89448408332
 20
-4929.609521521169
  0
VERTEX
  8
0
 10
38300.78235546908
 20
-4929.262660145195
  0
VERTEX
  8
0
 10
38301.66905348073
 20
-4928.915593378771
  0
VERTEX
  8
0
 10
38302.55467631132
 20
-4928.568338409865
  0
VERTEX
  8
0
 10
38303.43932215391
 20
-4928.220912426443
  0
VERTEX
  8
0
 10
38304.32308920155
 20
-4927.873332616472
  0
VERTEX
  8
0
 10
38305.20607564729
 20
-4927.52561616792
  0
VERTEX
  8
0
 10
38306.08837968419
 20
-4927.177780268752
  0
VERTEX
  8
0
 10
38306.9700995053
 20
-4926.829842106937
  0
VERTEX
  8
0
 10
38307.85133330367
 20
-4926.481818870438
  0
VERTEX
  8
0
 10
38308.73217927235
 20
-4926.133727747226
  0
VERTEX
  8
0
 10
38309.6127356044
 20
-4925.785585925265
  0
VERTEX
  8
0
 10
38310.49310049287
 20
-4925.437410592523
  0
VERTEX
  8
0
 10
38312.174831693
 20
-4924.831390398594
  0
VERTEX
  8
0
 10
38328.97767285057
 20
-4919.360921107766
  0
SEQEND
  8
0
  0
POLYLINE
  8
0
 66
     1
  0
VERTEX
  8
0
 10
38478.99770454105
 20
-4919.36174084805
  0
VERTEX
  8
0
 10
38495.80054569863
 20
-4924.832210138883
  0
VERTEX
  8
0
 10
38497.48227689874
 20
-4925.438230332808
  0
VERTEX
  8
0
 10
38498.36264178721
 20
-4925.786405665549
  0
VERTEX
  8
0
 10
38499.24319811926
 20
-4926.13454748751
  0
VERTEX
  8
0
 10
38500.12404408794
 20
-4926.482638610722
  0
VERTEX
  8
0
 10
38501.00527788631
 20
-4926.830661847221
  0
VERTEX
  8
0
 10
38501.88699770742
 20
-4927.178600009037
  0
VERTEX
  8
0
 10
38502.76930174432
 20
-4927.526435908204
  0
VERTEX
  8
0
 10
38503.65228819006
 20
-4927.874152356756
  0
VERTEX
  8
0
 10
38504.5360552377
 20
-4928.221732166727
  0
VERTEX
  8
0
 10
38505.42070108029
 20
-4928.569158150149
  0
VERTEX
  8
0
 10
38506.30632391088
 20
-4928.916413119055
  0
VERTEX
  8
0
 10
38507.19302192253
 20
-4929.263479885479
  0
VERTEX
  8
0
 10
38508.08089330829
 20
-4929.610341261453
  0
VERTEX
  8
0
 10
38508.9700362612
 20
-4929.956980059012
  0
VERTEX
  8
0
 10
38509.86054897432
 20
-4930.303379090188
  0
VERTEX
  8
0
 10
38510.75252964072
 20
-4930.649521167014
  0
VERTEX
  8
0
 10
38511.64607645343
 20
-4930.995389101525
  0
VERTEX
  8
0
 10
38512.54128760551
 20
-4931.340965705751
  0
VERTEX
  8
0
 10
38513.43826129001
 20
-4931.686233791727
  0
VERTEX
  8
0
 10
38514.33709471452
 20
-4932.031174269666
  0
VERTEX
  8
0
 10
38515.23782644761
 20
-4932.375654884762
  0
VERTEX
  8
0
 10
38516.14040444764
 20
-4932.719368517272
  0
VERTEX
  8
0
 10
38517.04476891123
 20
-4933.061993068338
  0
VERTEX
  8
0
 10
38517.95086003496
 20
-4933.4032064391
  0
VERTEX
  8
0
 10
38518.85861801545
 20
-4933.742686530701
  0
VERTEX
  8
0
 10
38519.76798304928
 20
-4934.080111244284
  0
VERTEX
  8
0
 10
38520.67889533306
 20
-4934.41515848099
  0
VERTEX
  8
0
 10
38521.5912950634
 20
-4934.74750614196
  0
VERTEX
  8
0
 10
38522.50512243689
 20
-4935.076832128339
  0
VERTEX
  8
0
 10
38523.42031765013
 20
-4935.402814341266
  0
VERTEX
  8
0
 10
38524.33682089973
 20
-4935.725130681885
  0
VERTEX
  8
0
 10
38525.25457238228
 20
-4936.043459051338
  0
VERTEX
  8
0
 10
38526.17351229439
 20
-4936.357477350765
  0
VERTEX
  8
0
 10
38527.09358083265
 20
-4936.66686348131
  0
VERTEX
  8
0
 10
38528.01471819368
 20
-4936.971295344117
  0
VERTEX
  8
0
 10
38528.93686457406
 20
-4937.270450840324
  0
VERTEX
  8
0
 10
38529.8599601704
 20
-4937.564007871074
  0
VERTEX
  8
0
 10
38530.7839451793
 20
-4937.85164433751
  0
VERTEX
  8
0
 10
38531.70875979736
 20
-4938.133038140775
  0
VERTEX
  8
0
 10
38532.63434422118
 20
-4938.40786718201
  0
VERTEX
  8
0
 10
38533.56063864737
 20
-4938.675809362356
  0
VERTEX
  8
0
 10
38534.48758327251
 20
-4938.936542582956
  0
VERTEX
  8
0
 10
38535.41511829323
 20
-4939.189744744952
  0
VERTEX
  8
0
 10
38536.3431839061
 20
-4939.435093749486
  0
VERTEX
  8
0
 10
38537.27172030774
 20
-4939.672267497701
  0
VERTEX
  8
0
 10
38538.20066769475
 20
-4939.900943890737
  0
VERTEX
  8
0
 10
38539.12996626372
 20
-4940.120800829738
  0
VERTEX
  8
0
 10
38540.05955621126
 20
-4940.331516215846
  0
VERTEX
  8
0
 10
38540.98937773397
 20
-4940.532767950201
  0
VERTEX
  8
0
 10
38541.91937102846
 20
-4940.724233933947
  0
VERTEX
  8
0
 10
38542.84947629131
 20
-4940.905592068225
  0
VERTEX
  8
0
 10
38543.77963371913
 20
-4941.076520254179
  0
VERTEX
  8
0
 10
38544.70978350852
 20
-4941.236696392948
  0
VERTEX
  8
0
 10
38545.63986585609
 20
-4941.385798385675
  0
VERTEX
  8
0
 10
38546.56982095843
 20
-4941.523504133505
  0
VERTEX
  8
0
 10
38547.49958901214
 20
-4941.649491537576
  0
VERTEX
  8
0
 10
38548.42911021383
 20
-4941.763438499032
  0
VERTEX
  8
0
 10
38549.35832476009
 20
-4941.865022919015
  0
VERTEX
  8
0
 10
38550.28717284754
 20
-4941.953922698666
  0
VERTEX
  8
0
 10
38551.21559467276
 20
-4942.02981573913
  0
VERTEX
  8
0
 10
38552.14353043235
 20
-4942.092379941546
  0
VERTEX
  8
0
 10
38553.07092032293
 20
-4942.141293207056
  0
VERTEX
  8
0
 10
38553.99770454105
 20
-4942.176233436805
  0
VERTEX
  8
0
 10
38554.92448875921
 20
-4942.141293207056
  0
VERTEX
  8
0
 10
38555.85187864979
 20
-4942.092379941546
  0
VERTEX
  8
0
 10
38556.77981440938
 20
-4942.02981573913
  0
VERTEX
  8
0
 10
38557.7082362346
 20
-4941.953922698666
  0
VERTEX
  8
0
 10
38558.63708432204
 20
-4941.865022919016
  0
VERTEX
  8
0
 10
38559.5662988683
 20
-4941.763438499032
  0
VERTEX
  8
0
 10
38560.49582006999
 20
-4941.649491537576
  0
VERTEX
  8
0
 10
38561.4255881237
 20
-4941.523504133505
  0
VERTEX
  8
0
 10
38562.35554322604
 20
-4941.385798385676
  0
VERTEX
  8
0
 10
38563.28562557361
 20
-4941.236696392948
  0
VERTEX
  8
0
 10
38564.215775363
 20
-4941.076520254179
  0
VERTEX
  8
0
 10
38565.14593279082
 20
-4940.905592068226
  0
VERTEX
  8
0
 10
38566.07603805367
 20
-4940.724233933947
  0
VERTEX
  8
0
 10
38567.00603134815
 20
-4940.532767950201
  0
VERTEX
  8
0
 10
38567.93585287087
 20
-4940.331516215846
  0
VERTEX
  8
0
 10
38568.8654428184
 20
-4940.120800829739
  0
VERTEX
  8
0
 10
38569.79474138738
 20
-4939.900943890737
  0
VERTEX
  8
0
 10
38570.72368877439
 20
-4939.672267497702
  0
VERTEX
  8
0
 10
38571.65222517603
 20
-4939.435093749486
  0
VERTEX
  8
0
 10
38572.58029078891
 20
-4939.189744744952
  0
VERTEX
  8
0
 10
38573.50782580962
 20
-4938.936542582956
  0
VERTEX
  8
0
 10
38574.43477043477
 20
-4938.675809362356
  0
VERTEX
  8
0
 10
38575.36106486095
 20
-4938.40786718201
  0
VERTEX
  8
0
 10
38576.28664928478
 20
-4938.133038140775
  0
VERTEX
  8
0
 10
38577.21146390284
 20
-4937.85164433751
  0
VERTEX
  8
0
 10
38578.13544891173
 20
-4937.564007871074
  0
VERTEX
  8
0
 10
38579.05854450807
 20
-4937.270450840324
  0
VERTEX
  8
0
 10
38579.98069088845
 20
-4936.971295344117
  0
VERTEX
  8
0
 10
38580.90182824948
 20
-4936.66686348131
  0
VERTEX
  8
0
 10
38581.82189678774
 20
-4936.357477350765
  0
VERTEX
  8
0
 10
38582.74083669985
 20
-4936.043459051338
  0
VERTEX
  8
0
 10
38583.6585881824
 20
-4935.725130681884
  0
VERTEX
  8
0
 10
38584.575091432
 20
-4935.402814341266
  0
VERTEX
  8
0
 10
38585.49028664524
 20
-4935.076832128339
  0
VERTEX
  8
0
 10
38586.40411401873
 20
-4934.74750614196
  0
VERTEX
  8
0
 10
38587.31651374907
 20
-4934.41515848099
  0
VERTEX
  8
0
 10
38588.22742603285
 20
-4934.080111244284
  0
VERTEX
  8
0
 10
38589.13679106668
 20
-4933.742686530701
  0
VERTEX
  8
0
 10
38590.04454904717
 20
-4933.4032064391
  0
VERTEX
  8
0
 10
38590.95064017091
 20
-4933.061993068338
  0
VERTEX
  8
0
 10
38591.85500463448
 20
-4932.719368517272
  0
VERTEX
  8
0
 10
38592.75758263452
 20
-4932.375654884762
  0
VERTEX
  8
0
 10
38593.65831436761
 20
-4932.031174269666
  0
VERTEX
  8
0
 10
38594.55714779212
 20
-4931.686233791727
  0
VERTEX
  8
0
 10
38595.45412147662
 20
-4931.340965705751
  0
VERTEX
  8
0
 10
38596.3493326287
 20
-4930.995389101525
  0
VERTEX
  8
0
 10
38597.24287944141
 20
-4930.649521167014
  0
VERTEX
  8
0
 10
38598.13486010781
 20
-4930.303379090187
  0
VERTEX
  8
0
 10
38599.02537282093
 20
-4929.956980059012
  0
VERTEX
  8
0
 10
38599.91451577384
 20
-4929.610341261453
  0
VERTEX
  8
0
 10
38600.80238715959
 20
-4929.263479885479
  0
VERTEX
  8
0
 10
38601.68908517125
 20
-4928.916413119055
  0
VERTEX
  8
0
 10
38602.57470800183
 20
-4928.569158150149
  0
VERTEX
  8
0
 10
38603.45935384442
 20
-4928.221732166727
  0
VERTEX
  8
0
 10
38604.34312089207
 20
-4927.874152356756
  0
VERTEX
  8
0
 10
38605.22610733781
 20
-4927.526435908204
  0
VERTEX
  8
0
 10
38606.10841137471
 20
-4927.178600009036
  0
VERTEX
  8
0
 10
38606.99013119582
 20
-4926.830661847221
  0
VERTEX
  8
0
 10
38607.87136499419
 20
-4926.482638610722
  0
VERTEX
  8
0
 10
38608.75221096287
 20
-4926.13454748751
  0
VERTEX
  8
0
 10
38609.63276729492
 20
-4925.786405665549
  0
VERTEX
  8
0
 10
38610.51313218339
 20
-4925.438230332807
  0
VERTEX
  8
0
 10
38612.19486338352
 20
-4924.832210138878
  0
VERTEX
  8
0
 10
38628.99770454109
 20
-4919.36174084805
  0
SEQEND
  8
0
  0
LINE
  8
0
  6
CONTINUOUS
 62
     0
 10
38928.98016032477
 20
-4919.360921107766
 11
38853.98016032477
 21
-4894.943312623194
  0
LINE
  8
0
  6
CONTINUOUS
 62
     0
 10
38853.98016032477
 20
-4894.943312623205
 11
38778.98016032477
 21
-4919.360921107744
  0
LINE
  8
0
  6
CONTINUOUS
 62
     0
 10
38778.98016032477
 20
-4919.360921107766
 11
38703.98016032477
 21
-4894.943312623194
  0
LINE
  8
0
  6
CONTINUOUS
 62
     0
 10
38928.98016032477
 20
-4919.360921107766
 11
39003.98016032475
 21
-4894.943312623194
  0
LINE
  8
0
  6
CONTINUOUS
 62
     0
 10
38928.98016032477
 20
-4824.029418385884
 11
39003.98016032475
 21
-4894.943312623194
  0
LINE
  8
0
  6
CONTINUOUS
 62
     0
 10
38778.98016032477
 20
-4824.029418385884
 11
38703.98016032477
 21
-4894.943312623194
  0
LINE
  8
0
  6
CONTINUOUS
 62
     0
 10
38853.98016032477
 20
-4894.943312623205
 11
38778.98016032477
 21
-4824.029418385866
  0
LINE
  8
0
  6
CONTINUOUS
 62
     0
 10
38928.98016032477
 20
-4824.029418385884
 11
38853.98016032477
 21
-4894.943312623194
  0
LINE
  8
0
  6
CONTINUOUS
 62
     0
 10
39078.98016032475
 20
-4919.360921107766
 11
39153.98016032475
 21
-4894.943312623194
  0
LINE
  8
0
  6
CONTINUOUS
 62
     0
 10
39153.98016032475
 20
-4894.943312623205
 11
39228.98016032475
 21
-4919.360921107744
  0
LINE
  8
0
  6
CONTINUOUS
 62
     0
 10
39228.98016032475
 20
-4919.360921107766
 11
39301.82097559597
 21
-4895.646274321234
  0
LINE
  8
0
  6
CONTINUOUS
 62
     0
 10
39078.98016032475
 20
-4919.360921107766
 11
39003.98016032475
 21
-4894.943312623194
  0
LINE
  8
0
  6
CONTINUOUS
 62
     0
 10
39078.98016032475
 20
-4824.029418385884
 11
39003.98016032475
 21
-4894.943312623194
  0
LINE
  8
0
  6
CONTINUOUS
 62
     0
 10
39228.98016032475
 20
-4824.029418385884
 11
39300.98015545257
 21
-4892.106752246955
  0
LINE
  8
0
  6
CONTINUOUS
 62
     0
 10
39153.98016032475
 20
-4894.943312623205
 11
39228.98016032475
 21
-4824.029418385866
  0
LINE
  8
0
  6
CONTINUOUS
 62
     0
 10
39078.98016032475
 20
-4824.029418385884
 11
39153.98016032475
 21
-4894.943312623194
  0
ARC
  8
0
 10
38853.98017065929
 20
-5015.479611347144
 40
205.6165522158951
 50
68.607413759779
 51
111.392625040628
  0
ARC
  8
0
 10
39153.97986076589
 20
-5015.479560557544
 40
205.6165522158951
 50
68.607413759779
 51
111.392625040628
  0
ARC
  8
0
 10
39003.97980704973
 20
-5015.479611347155
 40
205.6165522158951
 50
68.607413759779
 51
111.392625040628
  0
ARC
  8
0
 10
39303.98480403003
 20
-5226.560631733146
 40
409.4585647774242
 50
90.420446026485
 51
100.554363792977
  0
ARC
  8
0
 10
39228.99833495449
 20
-4891.730345041739
 40
70.90713494200006
 50
79.934204989863
 51
96.149808661494
  0
ARC
  8
0
 10
39078.98141190132
 20
-4891.225121647694
 40
70.40301603963651
 50
83.821772686515
 51
96.180287799408
  0
ARC
  8
0
 10
38928.97890644569
 20
-4891.225110715076
 40
70.4030051093519
 50
83.820150751879
 51
96.178498502827
  0
ARC
  8
0
 10
38778.97890736875
 20
-4891.225121143895
 40
70.40301553724194
 50
83.819925269762
 51
96.178440479677
  0
POLYLINE
  8
0
 66
     1
  0
VERTEX
  8
0
 10
39300.98015545257
 20
-4893.137690010304
  0
VERTEX
  8
0
 10
39300.98015545257
 20
-4817.113091312503
 42
-0.395960767139
  0
VERTEX
  8
0
 10
39303.9801802144
 20
-4814.863059131256
 42
-0.395967788488
  0
VERTEX
  8
0
 10
39306.98015545255
 20
-4817.113057402656
  0
VERTEX
  8
0
 10
39306.98015545257
 20
-4893.137690010304
 42
-0.395960767139
  0
VERTEX
  8
0
 10
39303.98013069074
 20
-4895.387722191551
 42
-0.395967788488
  0
VERTEX
  8
0
 10
39300.98015545259
 20
-4893.137723920151
  0
SEQEND
  8
0
  0
POLYLINE
  8
0
 66
     1
  0
VERTEX
  8
0
 10
39306.98015545255
 20
-4824.917163046424
 42
-0.149570519457
  0
VERTEX
  8
0
 10
39323.26245255791
 20
-4891.858397111557
  0
VERTEX
  8
0
 10
39323.26245255791
 20
-5467.973577211304
 42
-0.028948486308
  0
VERTEX
  8
0
 10
39306.98015545255
 20
-5519.026770137315
  0
SEQEND
  8
0
  0
POLYLINE
  8
0
  6
CONTINUOUS
 62
     0
 66
     1
  0
VERTEX
  8
0
  6
CONTINUOUS
 62
     0
 10
39306.98015545257
 20
-4893.137690010304
  0
VERTEX
  8
0
  6
CONTINUOUS
 62
     0
 10
39306.98015545257
 20
-5536.15458037301
 42
-0.999847698152
  0
VERTEX
  8
0
  6
CONTINUOUS
 62
     0
 10
39300.98015543799
 20
-5536.154580373031
  0
VERTEX
  8
0
  6
CONTINUOUS
 62
     0
 10
39301.82224417474
 20
-4894.679913995008
  0
SEQEND
  8
0
  6
CONTINUOUS
 62
     0
  0
LINE
  8
0
 10
39301.75432476684
 20
-4946.418617563359
 11
39228.98016032475
 21
-4919.360921107766
  0
POLYLINE
  8
0
 66
     1
  0
VERTEX
  8
0
 10
39078.98000862318
 20
-4919.360921107766
  0
VERTEX
  8
0
 10
39062.17437519885
 20
-4924.832299471613
  0
VERTEX
  8
0
 10
39060.49514369142
 20
-4925.437526314521
  0
VERTEX
  8
0
 10
39059.61463244494
 20
-4925.785759495838
  0
VERTEX
  8
0
 10
39058.73392964228
 20
-4926.133959146664
  0
VERTEX
  8
0
 10
39057.85293704143
 20
-4926.482108070461
  0
VERTEX
  8
0
 10
39056.97155640035
 20
-4926.830189070692
  0
VERTEX
  8
0
 10
39056.08968947706
 20
-4927.178184950822
  0
VERTEX
  8
0
 10
39055.20723802954
 20
-4927.52607851431
  0
VERTEX
  8
0
 10
39054.32410381574
 20
-4927.873852564624
  0
VERTEX
  8
0
 10
39053.44018859371
 20
-4928.221489905224
  0
VERTEX
  8
0
 10
39052.55539412139
 20
-4928.568973339573
  0
VERTEX
  8
0
 10
39051.66962215678
 20
-4928.916285671135
  0
VERTEX
  8
0
 10
39050.78277445788
 20
-4929.263409703372
  0
VERTEX
  8
0
 10
39049.89475278265
 20
-4929.610328239747
  0
VERTEX
  8
0
 10
39049.00545888909
 20
-4929.957024083726
  0
VERTEX
  8
0
 10
39048.11479453518
 20
-4930.303480038768
  0
VERTEX
  8
0
 10
39047.22266147893
 20
-4930.649678908337
  0
VERTEX
  8
0
 10
39046.3289614783
 20
-4930.995603495896
  0
VERTEX
  8
0
 10
39045.43359629128
 20
-4931.341236604909
  0
VERTEX
  8
0
 10
39044.53646767586
 20
-4931.686561038838
  0
VERTEX
  8
0
 10
39043.63747840669
 20
-4932.031557639178
  0
VERTEX
  8
0
 10
39042.73659028843
 20
-4932.376093327684
  0
VERTEX
  8
0
 10
39041.83385550827
 20
-4932.719860600712
  0
VERTEX
  8
0
 10
39040.92933389942
 20
-4933.0625371988
  0
VERTEX
  8
0
 10
39040.0230852951
 20
-4933.403800862483
  0
VERTEX
  8
0
 10
39039.11516952853
 20
-4933.7433293323
  0
VERTEX
  8
0
 10
39038.20564643292
 20
-4934.08080034879
  0
VERTEX
  8
0
 10
39037.29457584149
 20
-4934.415891652489
  0
VERTEX
  8
0
 10
39036.38201758746
 20
-4934.748280983937
  0
VERTEX
  8
0
 10
39035.46803150407
 20
-4935.077646083671
  0
VERTEX
  8
0
 10
39034.5526774245
 20
-4935.403664692228
  0
VERTEX
  8
0
 10
39033.63601518199
 20
-4935.726014550146
  0
VERTEX
  8
0
 10
39032.71810460975
 20
-4936.044373397964
  0
VERTEX
  8
0
 10
39031.79900554101
 20
-4936.35841897622
  0
VERTEX
  8
0
 10
39030.87877780898
 20
-4936.667829025451
  0
VERTEX
  8
0
 10
39029.95748124688
 20
-4936.972281286196
  0
VERTEX
  8
0
 10
39029.03517568792
 20
-4937.27145349899
  0
VERTEX
  8
0
 10
39028.11192096533
 20
-4937.565023404374
  0
VERTEX
  8
0
 10
39027.18777691232
 20
-4937.852668742886
  0
VERTEX
  8
0
 10
39026.26280336213
 20
-4938.134067255061
  0
VERTEX
  8
0
 10
39025.33706014795
 20
-4938.40889668144
  0
VERTEX
  8
0
 10
39024.410607103
 20
-4938.676834762559
  0
VERTEX
  8
0
 10
39023.48350406051
 20
-4938.937559238957
  0
VERTEX
  8
0
 10
39022.5558108537
 20
-4939.19074785117
  0
VERTEX
  8
0
 10
39021.62758731579
 20
-4939.436078339739
  0
VERTEX
  8
0
 10
39020.69889327997
 20
-4939.673228445199
  0
VERTEX
  8
0
 10
39019.7697885795
 20
-4939.901875908088
  0
VERTEX
  8
0
 10
39018.84033304757
 20
-4940.121698468947
  0
VERTEX
  8
0
 10
39017.91058651741
 20
-4940.33237386831
  0
VERTEX
  8
0
 10
39016.98060882222
 20
-4940.533579846718
  0
VERTEX
  8
0
 10
39016.05045979525
 20
-4940.724994144707
  0
VERTEX
  8
0
 10
39015.1201992697
 20
-4940.906294502815
  0
VERTEX
  8
0
 10
39014.18988707878
 20
-4941.077158661581
  0
VERTEX
  8
0
 10
39013.25958305573
 20
-4941.237264361542
  0
VERTEX
  8
0
 10
39012.32934703374
 20
-4941.386289343236
  0
VERTEX
  8
0
 10
39011.39923884605
 20
-4941.523911347202
  0
VERTEX
  8
0
 10
39010.46931832589
 20
-4941.649808113976
  0
VERTEX
  8
0
 10
39009.53964530644
 20
-4941.763657384097
  0
VERTEX
  8
0
 10
39008.61027962094
 20
-4941.865136898103
  0
VERTEX
  8
0
 10
39007.6812811026
 20
-4941.95392439653
  0
VERTEX
  8
0
 10
39006.75270958466
 20
-4942.02969761992
  0
VERTEX
  8
0
 10
39005.82462490032
 20
-4942.092134308806
  0
VERTEX
  8
0
 10
39004.8970868828
 20
-4942.140912203729
  0
VERTEX
  8
0
 10
39003.97015536528
 20
-4942.175709045437
  0
VERTEX
  8
0
 10
39003.04322346863
 20
-4942.140922333625
  0
VERTEX
  8
0
 10
39002.1156849181
 20
-4942.092154575227
  0
VERTEX
  8
0
 10
39001.18759955149
 20
-4942.02972802884
  0
VERTEX
  8
0
 10
39000.25902720551
 20
-4941.953964953272
  0
VERTEX
  8
0
 10
38999.33002771693
 20
-4941.865187607332
  0
VERTEX
  8
0
 10
38998.40066092248
 20
-4941.763718249827
  0
VERTEX
  8
0
 10
38997.4709866589
 20
-4941.649879139568
  0
VERTEX
  8
0
 10
38996.54106476293
 20
-4941.52399253536
  0
VERTEX
  8
0
 10
38995.6109550713
 20
-4941.386380696013
  0
VERTEX
  8
0
 10
38994.68071742076
 20
-4941.237365880334
  0
VERTEX
  8
0
 10
38993.75041164807
 20
-4941.077270347132
  0
VERTEX
  8
0
 10
38992.82009758993
 20
-4940.906416355216
  0
VERTEX
  8
0
 10
38991.88983508311
 20
-4940.725126163393
  0
VERTEX
  8
0
 10
38990.95968396433
 20
-4940.533722030471
  0
VERTEX
  8
0
 10
38990.02970407035
 20
-4940.332526215259
  0
VERTEX
  8
0
 10
38989.09995523789
 20
-4940.121860976566
  0
VERTEX
  8
0
 10
38988.1704973037
 20
-4939.902048573198
  0
VERTEX
  8
0
 10
38987.24139010453
 20
-4939.673411263965
  0
VERTEX
  8
0
 10
38986.31269347711
 20
-4939.436271307674
  0
VERTEX
  8
0
 10
38985.38446725816
 20
-4939.190950963134
  0
VERTEX
  8
0
 10
38984.45677128446
 20
-4938.937772489153
  0
VERTEX
  8
0
 10
38983.52966539272
 20
-4938.677058144539
  0
VERTEX
  8
0
 10
38982.60320941969
 20
-4938.409130188101
  0
VERTEX
  8
0
 10
38981.67746320212
 20
-4938.134310878647
  0
VERTEX
  8
0
 10
38980.75248657673
 20
-4937.852922474984
  0
VERTEX
  8
0
 10
38979.82833938027
 20
-4937.565287235921
  0
VERTEX
  8
0
 10
38978.90508144948
 20
-4937.271727420266
  0
VERTEX
  8
0
 10
38977.98277262111
 20
-4936.972565286827
  0
VERTEX
  8
0
 10
38977.06147273188
 20
-4936.668123094414
  0
VERTEX
  8
0
 10
38976.14124161854
 20
-4936.358723101834
  0
VERTEX
  8
0
 10
38975.22213911783
 20
-4936.044687567894
  0
VERTEX
  8
0
 10
38974.30422506649
 20
-4935.726338751405
  0
VERTEX
  8
0
 10
38973.38755930126
 20
-4935.403998911172
  0
VERTEX
  8
0
 10
38972.47220165888
 20
-4935.077990306005
  0
VERTEX
  8
0
 10
38971.55821197609
 20
-4934.748635194712
  0
VERTEX
  8
0
 10
38970.64565008964
 20
-4934.4162558361
  0
VERTEX
  8
0
 10
38969.73457583624
 20
-4934.08117448898
  0
VERTEX
  8
0
 10
38968.82504905267
 20
-4933.743713412158
  0
VERTEX
  8
0
 10
38967.91712957564
 20
-4933.404194864443
  0
VERTEX
  8
0
 10
38967.0108772419
 20
-4933.062941104642
  0
VERTEX
  8
0
 10
38966.10635188819
 20
-4932.720274391565
  0
VERTEX
  8
0
 10
38965.20361335125
 20
-4932.376516984019
  0
VERTEX
  8
0
 10
38964.30272146782
 20
-4932.031991140812
  0
VERTEX
  8
0
 10
38963.40372842843
 20
-4931.687004365024
  0
VERTEX
  8
0
 10
38962.50659603922
 20
-4931.34168973531
  0
VERTEX
  8
0
 10
38961.61122707505
 20
-4930.996066411241
  0
VERTEX
  8
0
 10
38960.71752329405
 20
-4930.650151590427
  0
VERTEX
  8
0
 10
38959.82538645445
 20
-4930.303962470481
  0
VERTEX
  8
0
 10
38958.93471831438
 20
-4929.957516249011
  0
VERTEX
  8
0
 10
38958.04542063204
 20
-4929.610830123629
  0
VERTEX
  8
0
 10
38957.15739516559
 20
-4929.263921291944
  0
VERTEX
  8
0
 10
38956.27054367321
 20
-4928.916806951568
  0
VERTEX
  8
0
 10
38955.38476791308
 20
-4928.569504300112
  0
VERTEX
  8
0
 10
38954.49996964338
 20
-4928.222030535187
  0
VERTEX
  8
0
 10
38953.61605062227
 20
-4927.874402854402
  0
VERTEX
  8
0
 10
38952.73291260793
 20
-4927.526638455367
  0
VERTEX
  8
0
 10
38951.85045735852
 20
-4927.178754535696
  0
VERTEX
  8
0
 10
38950.96858663223
 20
-4926.830768292996
  0
VERTEX
  8
0
 10
38950.08720218724
 20
-4926.48269692488
  0
VERTEX
  8
0
 10
38949.20620578172
 20
-4926.134557628958
  0
VERTEX
  8
0
 10
38948.32549917384
 20
-4925.786367602841
  0
VERTEX
  8
0
 10
38947.44498412177
 20
-4925.438144044139
  0
VERTEX
  8
0
 10
38945.76574600028
 20
-4924.832935552609
  0
VERTEX
  8
0
 10
38928.96005278347
 20
-4919.361740848055
  0
SEQEND
  8
0
  0
POLYLINE
  8
0
 66
     1
  0
VERTEX
  8
0
 10
39228.98008447397
 20
-4919.360921107766
  0
VERTEX
  8
0
 10
39212.17724331639
 20
-4924.831390398599
  0
VERTEX
  8
0
 10
39210.49551211629
 20
-4925.437410592524
  0
VERTEX
  8
0
 10
39209.61514722781
 20
-4925.785585925265
  0
VERTEX
  8
0
 10
39208.73459089576
 20
-4926.133727747226
  0
VERTEX
  8
0
 10
39207.85374492708
 20
-4926.481818870438
  0
VERTEX
  8
0
 10
39206.97251112871
 20
-4926.829842106937
  0
VERTEX
  8
0
 10
39206.0907913076
 20
-4927.177780268753
  0
VERTEX
  8
0
 10
39205.20848727071
 20
-4927.52561616792
  0
VERTEX
  8
0
 10
39204.32550082496
 20
-4927.873332616472
  0
VERTEX
  8
0
 10
39203.44173377732
 20
-4928.220912426443
  0
VERTEX
  8
0
 10
39202.55708793473
 20
-4928.568338409865
  0
VERTEX
  8
0
 10
39201.67146510414
 20
-4928.915593378771
  0
VERTEX
  8
0
 10
39200.78476709249
 20
-4929.262660145195
  0
VERTEX
  8
0
 10
39199.89689570673
 20
-4929.609521521169
  0
VERTEX
  8
0
 10
39199.00775275382
 20
-4929.956160318728
  0
VERTEX
  8
0
 10
39198.1172400407
 20
-4930.302559349904
  0
VERTEX
  8
0
 10
39197.2252593743
 20
-4930.64870142673
  0
VERTEX
  8
0
 10
39196.33171256159
 20
-4930.994569361241
  0
VERTEX
  8
0
 10
39195.43650140952
 20
-4931.340145965467
  0
VERTEX
  8
0
 10
39194.53952772501
 20
-4931.685414051443
  0
VERTEX
  8
0
 10
39193.64069430051
 20
-4932.030354529382
  0
VERTEX
  8
0
 10
39192.73996256742
 20
-4932.374835144478
  0
VERTEX
  8
0
 10
39191.83738456738
 20
-4932.718548776988
  0
VERTEX
  8
0
 10
39190.9330201038
 20
-4933.061173328054
  0
VERTEX
  8
0
 10
39190.02692898006
 20
-4933.402386698816
  0
VERTEX
  8
0
 10
39189.11917099958
 20
-4933.741866790417
  0
VERTEX
  8
0
 10
39188.20980596574
 20
-4934.079291504
  0
VERTEX
  8
0
 10
39187.29889368196
 20
-4934.414338740706
  0
VERTEX
  8
0
 10
39186.38649395162
 20
-4934.746686401676
  0
VERTEX
  8
0
 10
39185.47266657813
 20
-4935.076012388055
  0
VERTEX
  8
0
 10
39184.55747136489
 20
-4935.401994600982
  0
VERTEX
  8
0
 10
39183.64096811529
 20
-4935.724310941601
  0
VERTEX
  8
0
 10
39182.72321663274
 20
-4936.042639311054
  0
VERTEX
  8
0
 10
39181.80427672064
 20
-4936.356657610481
  0
VERTEX
  8
0
 10
39180.88420818237
 20
-4936.666043741026
  0
VERTEX
  8
0
 10
39179.96307082134
 20
-4936.970475603833
  0
VERTEX
  8
0
 10
39179.04092444096
 20
-4937.26963110004
  0
VERTEX
  8
0
 10
39178.11782884462
 20
-4937.56318813079
  0
VERTEX
  8
0
 10
39177.19384383572
 20
-4937.850824597226
  0
VERTEX
  8
0
 10
39176.26902921766
 20
-4938.132218400491
  0
VERTEX
  8
0
 10
39175.34344479384
 20
-4938.407047441726
  0
VERTEX
  8
0
 10
39174.41715036766
 20
-4938.674989622072
  0
VERTEX
  8
0
 10
39173.49020574251
 20
-4938.935722842672
  0
VERTEX
  8
0
 10
39172.5626707218
 20
-4939.188925004668
  0
VERTEX
  8
0
 10
39171.63460510892
 20
-4939.434274009202
  0
VERTEX
  8
0
 10
39170.70606870728
 20
-4939.671447757417
  0
VERTEX
  8
0
 10
39169.77712132027
 20
-4939.900124150453
  0
VERTEX
  8
0
 10
39168.8478227513
 20
-4940.119981089454
  0
VERTEX
  8
0
 10
39167.91823280376
 20
-4940.330696475562
  0
VERTEX
  8
0
 10
39166.98841128105
 20
-4940.531948209917
  0
VERTEX
  8
0
 10
39166.05841798656
 20
-4940.723414193663
  0
VERTEX
  8
0
 10
39165.12831272371
 20
-4940.904772327941
  0
VERTEX
  8
0
 10
39164.19815529589
 20
-4941.075700513895
  0
VERTEX
  8
0
 10
39163.2680055065
 20
-4941.235876652664
  0
VERTEX
  8
0
 10
39162.33792315894
 20
-4941.384978645391
  0
VERTEX
  8
0
 10
39161.40796805659
 20
-4941.522684393221
  0
VERTEX
  8
0
 10
39160.47820000289
 20
-4941.648671797292
  0
VERTEX
  8
0
 10
39159.54867880119
 20
-4941.762618758748
  0
VERTEX
  8
0
 10
39158.61946425493
 20
-4941.864203178731
  0
VERTEX
  8
0
 10
39157.69061616749
 20
-4941.953102958382
  0
VERTEX
  8
0
 10
39156.76219434226
 20
-4942.028995998846
  0
VERTEX
  8
0
 10
39155.83425858268
 20
-4942.091560201262
  0
VERTEX
  8
0
 10
39154.90686869209
 20
-4942.140473466772
  0
VERTEX
  8
0
 10
39153.98008447397
 20
-4942.175413696521
  0
VERTEX
  8
0
 10
39153.05330025581
 20
-4942.140473466772
  0
VERTEX
  8
0
 10
39152.12591036523
 20
-4942.091560201262
  0
VERTEX
  8
0
 10
39151.19797460565
 20
-4942.028995998846
  0
VERTEX
  8
0
 10
39150.26955278042
 20
-4941.953102958382
  0
VERTEX
  8
0
 10
39149.34070469298
 20
-4941.864203178732
  0
VERTEX
  8
0
 10
39148.41149014673
 20
-4941.762618758748
  0
VERTEX
  8
0
 10
39147.48196894503
 20
-4941.648671797292
  0
VERTEX
  8
0
 10
39146.55220089132
 20
-4941.522684393221
  0
VERTEX
  8
0
 10
39145.62224578898
 20
-4941.384978645392
  0
VERTEX
  8
0
 10
39144.69216344141
 20
-4941.235876652664
  0
VERTEX
  8
0
 10
39143.76201365202
 20
-4941.075700513895
  0
VERTEX
  8
0
 10
39142.8318562242
 20
-4940.904772327942
  0
VERTEX
  8
0
 10
39141.90175096135
 20
-4940.723414193663
  0
VERTEX
  8
0
 10
39140.97175766687
 20
-4940.531948209917
  0
VERTEX
  8
0
 10
39140.04193614415
 20
-4940.330696475562
  0
VERTEX
  8
0
 10
39139.11234619662
 20
-4940.119981089455
  0
VERTEX
  8
0
 10
39138.18304762764
 20
-4939.900124150453
  0
VERTEX
  8
0
 10
39137.25410024063
 20
-4939.671447757418
  0
VERTEX
  8
0
 10
39136.32556383899
 20
-4939.434274009202
  0
VERTEX
  8
0
 10
39135.39749822611
 20
-4939.188925004668
  0
VERTEX
  8
0
 10
39134.4699632054
 20
-4938.935722842672
  0
VERTEX
  8
0
 10
39133.54301858025
 20
-4938.674989622072
  0
VERTEX
  8
0
 10
39132.61672415408
 20
-4938.407047441726
  0
VERTEX
  8
0
 10
39131.69113973025
 20
-4938.132218400491
  0
VERTEX
  8
0
 10
39130.76632511218
 20
-4937.850824597226
  0
VERTEX
  8
0
 10
39129.84234010329
 20
-4937.56318813079
  0
VERTEX
  8
0
 10
39128.91924450695
 20
-4937.26963110004
  0
VERTEX
  8
0
 10
39127.99709812657
 20
-4936.970475603833
  0
VERTEX
  8
0
 10
39127.07596076554
 20
-4936.666043741026
  0
VERTEX
  8
0
 10
39126.15589222728
 20
-4936.356657610481
  0
VERTEX
  8
0
 10
39125.23695231517
 20
-4936.042639311054
  0
VERTEX
  8
0
 10
39124.31920083262
 20
-4935.7243109416
  0
VERTEX
  8
0
 10
39123.40269758302
 20
-4935.401994600982
  0
VERTEX
  8
0
 10
39122.48750236978
 20
-4935.076012388055
  0
VERTEX
  8
0
 10
39121.5736749963
 20
-4934.746686401676
  0
VERTEX
  8
0
 10
39120.66127526596
 20
-4934.414338740706
  0
VERTEX
  8
0
 10
39119.75036298217
 20
-4934.079291504
  0
VERTEX
  8
0
 10
39118.84099794834
 20
-4933.741866790417
  0
VERTEX
  8
0
 10
39117.93323996785
 20
-4933.402386698816
  0
VERTEX
  8
0
 10
39117.02714884411
 20
-4933.061173328054
  0
VERTEX
  8
0
 10
39116.12278438054
 20
-4932.718548776988
  0
VERTEX
  8
0
 10
39115.2202063805
 20
-4932.374835144478
  0
VERTEX
  8
0
 10
39114.31947464741
 20
-4932.030354529382
  0
VERTEX
  8
0
 10
39113.4206412229
 20
-4931.685414051443
  0
VERTEX
  8
0
 10
39112.5236675384
 20
-4931.340145965467
  0
VERTEX
  8
0
 10
39111.62845638632
 20
-4930.994569361241
  0
VERTEX
  8
0
 10
39110.73490957361
 20
-4930.64870142673
  0
VERTEX
  8
0
 10
39109.84292890722
 20
-4930.302559349903
  0
VERTEX
  8
0
 10
39108.95241619409
 20
-4929.956160318728
  0
VERTEX
  8
0
 10
39108.06327324118
 20
-4929.609521521169
  0
VERTEX
  8
0
 10
39107.17540185543
 20
-4929.262660145195
  0
VERTEX
  8
0
 10
39106.28870384378
 20
-4928.915593378771
  0
VERTEX
  8
0
 10
39105.40308101319
 20
-4928.568338409865
  0
VERTEX
  8
0
 10
39104.5184351706
 20
-4928.220912426443
  0
VERTEX
  8
0
 10
39103.63466812296
 20
-4927.873332616472
  0
VERTEX
  8
0
 10
39102.75168167721
 20
-4927.52561616792
  0
VERTEX
  8
0
 10
39101.86937764032
 20
-4927.177780268752
  0
VERTEX
  8
0
 10
39100.98765781921
 20
-4926.829842106937
  0
VERTEX
  8
0
 10
39100.10642402084
 20
-4926.481818870438
  0
VERTEX
  8
0
 10
39099.22557805215
 20
-4926.133727747226
  0
VERTEX
  8
0
 10
39098.3450217201
 20
-4925.785585925265
  0
VERTEX
  8
0
 10
39097.46465683163
 20
-4925.437410592523
  0
VERTEX
  8
0
 10
39095.7829256315
 20
-4924.831390398594
  0
VERTEX
  8
0
 10
39078.98008447394
 20
-4919.360921107766
  0
SEQEND
  8
0
  0
POLYLINE
  8
0
 66
     1
  0
VERTEX
  8
0
 10
38928.96005278346
 20
-4919.36174084805
  0
VERTEX
  8
0
 10
38912.15721162588
 20
-4924.832210138883
  0
VERTEX
  8
0
 10
38910.47548042577
 20
-4925.438230332808
  0
VERTEX
  8
0
 10
38909.5951155373
 20
-4925.786405665549
  0
VERTEX
  8
0
 10
38908.71455920525
 20
-4926.13454748751
  0
VERTEX
  8
0
 10
38907.83371323656
 20
-4926.482638610722
  0
VERTEX
  8
0
 10
38906.95247943819
 20
-4926.830661847221
  0
VERTEX
  8
0
 10
38906.07075961708
 20
-4927.178600009037
  0
VERTEX
  8
0
 10
38905.18845558019
 20
-4927.526435908204
  0
VERTEX
  8
0
 10
38904.30546913444
 20
-4927.874152356756
  0
VERTEX
  8
0
 10
38903.4217020868
 20
-4928.221732166727
  0
VERTEX
  8
0
 10
38902.53705624421
 20
-4928.569158150149
  0
VERTEX
  8
0
 10
38901.65143341362
 20
-4928.916413119055
  0
VERTEX
  8
0
 10
38900.76473540197
 20
-4929.263479885479
  0
VERTEX
  8
0
 10
38899.87686401622
 20
-4929.610341261453
  0
VERTEX
  8
0
 10
38898.98772106331
 20
-4929.956980059012
  0
VERTEX
  8
0
 10
38898.09720835018
 20
-4930.303379090188
  0
VERTEX
  8
0
 10
38897.20522768379
 20
-4930.649521167014
  0
VERTEX
  8
0
 10
38896.31168087108
 20
-4930.995389101525
  0
VERTEX
  8
0
 10
38895.416469719
 20
-4931.340965705751
  0
VERTEX
  8
0
 10
38894.5194960345
 20
-4931.686233791727
  0
VERTEX
  8
0
 10
38893.62066260999
 20
-4932.031174269666
  0
VERTEX
  8
0
 10
38892.7199308769
 20
-4932.375654884762
  0
VERTEX
  8
0
 10
38891.81735287686
 20
-4932.719368517272
  0
VERTEX
  8
0
 10
38890.91298841328
 20
-4933.061993068338
  0
VERTEX
  8
0
 10
38890.00689728955
 20
-4933.4032064391
  0
VERTEX
  8
0
 10
38889.09913930906
 20
-4933.742686530701
  0
VERTEX
  8
0
 10
38888.18977427523
 20
-4934.080111244284
  0
VERTEX
  8
0
 10
38887.27886199144
 20
-4934.41515848099
  0
VERTEX
  8
0
 10
38886.3664622611
 20
-4934.74750614196
  0
VERTEX
  8
0
 10
38885.45263488762
 20
-4935.076832128339
  0
VERTEX
  8
0
 10
38884.53743967437
 20
-4935.402814341266
  0
VERTEX
  8
0
 10
38883.62093642478
 20
-4935.725130681885
  0
VERTEX
  8
0
 10
38882.70318494222
 20
-4936.043459051338
  0
VERTEX
  8
0
 10
38881.78424503012
 20
-4936.357477350765
  0
VERTEX
  8
0
 10
38880.86417649185
 20
-4936.66686348131
  0
VERTEX
  8
0
 10
38879.94303913083
 20
-4936.971295344117
  0
VERTEX
  8
0
 10
38879.02089275044
 20
-4937.270450840324
  0
VERTEX
  8
0
 10
38878.0977971541
 20
-4937.564007871074
  0
VERTEX
  8
0
 10
38877.17381214521
 20
-4937.85164433751
  0
VERTEX
  8
0
 10
38876.24899752715
 20
-4938.133038140775
  0
VERTEX
  8
0
 10
38875.32341310332
 20
-4938.40786718201
  0
VERTEX
  8
0
 10
38874.39711867714
 20
-4938.675809362356
  0
VERTEX
  8
0
 10
38873.470174052
 20
-4938.936542582956
  0
VERTEX
  8
0
 10
38872.54263903128
 20
-4939.189744744952
  0
VERTEX
  8
0
 10
38871.6145734184
 20
-4939.435093749486
  0
VERTEX
  8
0
 10
38870.68603701676
 20
-4939.672267497701
  0
VERTEX
  8
0
 10
38869.75708962975
 20
-4939.900943890737
  0
VERTEX
  8
0
 10
38868.82779106078
 20
-4940.120800829738
  0
VERTEX
  8
0
 10
38867.89820111324
 20
-4940.331516215846
  0
VERTEX
  8
0
 10
38866.96837959053
 20
-4940.532767950201
  0
VERTEX
  8
0
 10
38866.03838629604
 20
-4940.724233933947
  0
VERTEX
  8
0
 10
38865.10828103319
 20
-4940.905592068225
  0
VERTEX
  8
0
 10
38864.17812360537
 20
-4941.076520254179
  0
VERTEX
  8
0
 10
38863.24797381598
 20
-4941.236696392948
  0
VERTEX
  8
0
 10
38862.31789146842
 20
-4941.385798385675
  0
VERTEX
  8
0
 10
38861.38793636607
 20
-4941.523504133505
  0
VERTEX
  8
0
 10
38860.45816831237
 20
-4941.649491537576
  0
VERTEX
  8
0
 10
38859.52864711067
 20
-4941.763438499032
  0
VERTEX
  8
0
 10
38858.59943256441
 20
-4941.865022919015
  0
VERTEX
  8
0
 10
38857.67058447697
 20
-4941.953922698666
  0
VERTEX
  8
0
 10
38856.74216265175
 20
-4942.02981573913
  0
VERTEX
  8
0
 10
38855.81422689216
 20
-4942.092379941546
  0
VERTEX
  8
0
 10
38854.88683700158
 20
-4942.141293207056
  0
VERTEX
  8
0
 10
38853.96005278346
 20
-4942.176233436805
  0
VERTEX
  8
0
 10
38853.0332685653
 20
-4942.141293207056
  0
VERTEX
  8
0
 10
38852.10587867472
 20
-4942.092379941546
  0
VERTEX
  8
0
 10
38851.17794291513
 20
-4942.02981573913
  0
VERTEX
  8
0
 10
38850.24952108991
 20
-4941.953922698666
  0
VERTEX
  8
0
 10
38849.32067300246
 20
-4941.865022919016
  0
VERTEX
  8
0
 10
38848.39145845621
 20
-4941.763438499032
  0
VERTEX
  8
0
 10
38847.46193725451
 20
-4941.649491537576
  0
VERTEX
  8
0
 10
38846.5321692008
 20
-4941.523504133505
  0
VERTEX
  8
0
 10
38845.60221409846
 20
-4941.385798385676
  0
VERTEX
  8
0
 10
38844.67213175089
 20
-4941.236696392948
  0
VERTEX
  8
0
 10
38843.7419819615
 20
-4941.076520254179
  0
VERTEX
  8
0
 10
38842.81182453368
 20
-4940.905592068226
  0
VERTEX
  8
0
 10
38841.88171927083
 20
-4940.724233933947
  0
VERTEX
  8
0
 10
38840.95172597635
 20
-4940.532767950201
  0
VERTEX
  8
0
 10
38840.02190445364
 20
-4940.331516215846
  0
VERTEX
  8
0
 10
38839.0923145061
 20
-4940.120800829739
  0
VERTEX
  8
0
 10
38838.16301593712
 20
-4939.900943890737
  0
VERTEX
  8
0
 10
38837.23406855011
 20
-4939.672267497702
  0
VERTEX
  8
0
 10
38836.30553214847
 20
-4939.435093749486
  0
VERTEX
  8
0
 10
38835.3774665356
 20
-4939.189744744952
  0
VERTEX
  8
0
 10
38834.44993151489
 20
-4938.936542582956
  0
VERTEX
  8
0
 10
38833.52298688974
 20
-4938.675809362356
  0
VERTEX
  8
0
 10
38832.59669246356
 20
-4938.40786718201
  0
VERTEX
  8
0
 10
38831.67110803973
 20
-4938.133038140775
  0
VERTEX
  8
0
 10
38830.74629342167
 20
-4937.85164433751
  0
VERTEX
  8
0
 10
38829.82230841277
 20
-4937.564007871074
  0
VERTEX
  8
0
 10
38828.89921281643
 20
-4937.270450840324
  0
VERTEX
  8
0
 10
38827.97706643605
 20
-4936.971295344117
  0
VERTEX
  8
0
 10
38827.05592907502
 20
-4936.66686348131
  0
VERTEX
  8
0
 10
38826.13586053676
 20
-4936.357477350765
  0
VERTEX
  8
0
 10
38825.21692062465
 20
-4936.043459051338
  0
VERTEX
  8
0
 10
38824.2991691421
 20
-4935.725130681884
  0
VERTEX
  8
0
 10
38823.3826658925
 20
-4935.402814341266
  0
VERTEX
  8
0
 10
38822.46747067926
 20
-4935.076832128339
  0
VERTEX
  8
0
 10
38821.55364330578
 20
-4934.74750614196
  0
VERTEX
  8
0
 10
38820.64124357544
 20
-4934.41515848099
  0
VERTEX
  8
0
 10
38819.73033129166
 20
-4934.080111244284
  0
VERTEX
  8
0
 10
38818.82096625782
 20
-4933.742686530701
  0
VERTEX
  8
0
 10
38817.91320827734
 20
-4933.4032064391
  0
VERTEX
  8
0
 10
38817.0071171536
 20
-4933.061993068338
  0
VERTEX
  8
0
 10
38816.10275269002
 20
-4932.719368517272
  0
VERTEX
  8
0
 10
38815.20017468998
 20
-4932.375654884762
  0
VERTEX
  8
0
 10
38814.29944295689
 20
-4932.031174269666
  0
VERTEX
  8
0
 10
38813.40060953239
 20
-4931.686233791727
  0
VERTEX
  8
0
 10
38812.50363584788
 20
-4931.340965705751
  0
VERTEX
  8
0
 10
38811.60842469581
 20
-4930.995389101525
  0
VERTEX
  8
0
 10
38810.7148778831
 20
-4930.649521167014
  0
VERTEX
  8
0
 10
38809.8228972167
 20
-4930.303379090187
  0
VERTEX
  8
0
 10
38808.93238450358
 20
-4929.956980059012
  0
VERTEX
  8
0
 10
38808.04324155067
 20
-4929.610341261453
  0
VERTEX
  8
0
 10
38807.15537016491
 20
-4929.263479885479
  0
VERTEX
  8
0
 10
38806.26867215326
 20
-4928.916413119055
  0
VERTEX
  8
0
 10
38805.38304932267
 20
-4928.569158150149
  0
VERTEX
  8
0
 10
38804.49840348008
 20
-4928.221732166727
  0
VERTEX
  8
0
 10
38803.61463643244
 20
-4927.874152356756
  0
VERTEX
  8
0
 10
38802.73164998669
 20
-4927.526435908204
  0
VERTEX
  8
0
 10
38801.8493459498
 20
-4927.178600009036
  0
VERTEX
  8
0
 10
38800.96762612869
 20
-4926.830661847221
  0
VERTEX
  8
0
 10
38800.08639233032
 20
-4926.482638610722
  0
VERTEX
  8
0
 10
38799.20554636163
 20
-4926.13454748751
  0
VERTEX
  8
0
 10
38798.32499002959
 20
-4925.786405665549
  0
VERTEX
  8
0
 10
38797.44462514111
 20
-4925.438230332807
  0
VERTEX
  8
0
 10
38795.76289394098
 20
-4924.832210138878
  0
VERTEX
  8
0
 10
38778.96005278342
 20
-4919.36174084805
  0
SEQEND
  8
0
  0
POLYLINE
  8
0
 66
     1
  0
VERTEX
  8
0
 10
38106.31536101022
 20
-5031.681920136636
  0
VERTEX
  8
0
 10
38703.97887866165
 20
-5032.824373121986
  0
VERTEX
  8
0
 10
39301.64239631429
 20
-5031.681920136636
  0
SEQEND
  8
0
  0
POLYLINE
  8
0
 66
     1
  0
VERTEX
  8
0
 10
38778.98005134476
 20
-4824.029367596254
 42
0.093616327792
  0
VERTEX
  8
0
 10
38703.97887866225
 20
-4809.863008345359
 42
0.093616327792
  0
VERTEX
  8
0
 10
38628.97770597975
 20
-4824.029367596254
  0
SEQEND
  8
0
  0
POLYLINE
  8
0
 66
     1
  0
VERTEX
  8
0
 10
38628.97759699972
 20
-4919.360921107744
  0
VERTEX
  8
0
 10
38645.7804381573
 20
-4924.831390398577
  0
VERTEX
  8
0
 10
38647.46216935741
 20
-4925.437410592502
  0
VERTEX
  8
0
 10
38648.34253424588
 20
-4925.785585925243
  0
VERTEX
  8
0
 10
38649.22309057793
 20
-4926.133727747204
  0
VERTEX
  8
0
 10
38650.10393654661
 20
-4926.481818870417
  0
VERTEX
  8
0
 10
38650.98517034498
 20
-4926.829842106915
  0
VERTEX
  8
0
 10
38651.86689016609
 20
-4927.177780268731
  0
VERTEX
  8
0
 10
38652.74919420299
 20
-4927.525616167898
  0
VERTEX
  8
0
 10
38653.63218064873
 20
-4927.87333261645
  0
VERTEX
  8
0
 10
38654.51594769637
 20
-4928.220912426421
  0
VERTEX
  8
0
 10
38655.40059353897
 20
-4928.568338409843
  0
VERTEX
  8
0
 10
38656.28621636955
 20
-4928.915593378749
  0
VERTEX
  8
0
 10
38657.1729143812
 20
-4929.262660145173
  0
VERTEX
  8
0
 10
38658.06078576696
 20
-4929.609521521147
  0
VERTEX
  8
0
 10
38658.94992871987
 20
-4929.956160318706
  0
VERTEX
  8
0
 10
38659.84044143299
 20
-4930.302559349882
  0
VERTEX
  8
0
 10
38660.73242209939
 20
-4930.648701426709
  0
VERTEX
  8
0
 10
38661.6259689121
 20
-4930.994569361219
  0
VERTEX
  8
0
 10
38662.52118006418
 20
-4931.340145965445
  0
VERTEX
  8
0
 10
38663.41815374868
 20
-4931.685414051422
  0
VERTEX
  8
0
 10
38664.31698717319
 20
-4932.03035452936
  0
VERTEX
  8
0
 10
38665.21771890628
 20
-4932.374835144456
  0
VERTEX
  8
0
 10
38666.12029690632
 20
-4932.718548776967
  0
VERTEX
  8
0
 10
38667.0246613699
 20
-4933.061173328032
  0
VERTEX
  8
0
 10
38667.93075249363
 20
-4933.402386698795
  0
VERTEX
  8
0
 10
38668.83851047412
 20
-4933.741866790395
  0
VERTEX
  8
0
 10
38669.74787550795
 20
-4934.079291503978
  0
VERTEX
  8
0
 10
38670.65878779173
 20
-4934.414338740684
  0
VERTEX
  8
0
 10
38671.57118752207
 20
-4934.746686401654
  0
VERTEX
  8
0
 10
38672.48501489556
 20
-4935.076012388033
  0
VERTEX
  8
0
 10
38673.4002101088
 20
-4935.40199460096
  0
VERTEX
  8
0
 10
38674.3167133584
 20
-4935.724310941579
  0
VERTEX
  8
0
 10
38675.23446484096
 20
-4936.042639311032
  0
VERTEX
  8
0
 10
38676.15340475306
 20
-4936.356657610459
  0
VERTEX
  8
0
 10
38677.07347329133
 20
-4936.666043741005
  0
VERTEX
  8
0
 10
38677.99461065235
 20
-4936.970475603811
  0
VERTEX
  8
0
 10
38678.91675703273
 20
-4937.269631100018
  0
VERTEX
  8
0
 10
38679.83985262908
 20
-4937.563188130768
  0
VERTEX
  8
0
 10
38680.76383763797
 20
-4937.850824597204
  0
VERTEX
  8
0
 10
38681.68865225603
 20
-4938.132218400469
  0
VERTEX
  8
0
 10
38682.61423667985
 20
-4938.407047441704
  0
VERTEX
  8
0
 10
38683.54053110604
 20
-4938.67498962205
  0
VERTEX
  8
0
 10
38684.46747573118
 20
-4938.93572284265
  0
VERTEX
  8
0
 10
38685.3950107519
 20
-4939.188925004646
  0
VERTEX
  8
0
 10
38686.32307636477
 20
-4939.434274009181
  0
VERTEX
  8
0
 10
38687.25161276641
 20
-4939.671447757395
  0
VERTEX
  8
0
 10
38688.18056015342
 20
-4939.900124150431
  0
VERTEX
  8
0
 10
38689.1098587224
 20
-4940.119981089432
  0
VERTEX
  8
0
 10
38690.03944866994
 20
-4940.33069647554
  0
VERTEX
  8
0
 10
38690.96927019265
 20
-4940.531948209895
  0
VERTEX
  8
0
 10
38691.89926348713
 20
-4940.723414193641
  0
VERTEX
  8
0
 10
38692.82936874998
 20
-4940.904772327919
  0
VERTEX
  8
0
 10
38693.7595261778
 20
-4941.075700513873
  0
VERTEX
  8
0
 10
38694.68967596719
 20
-4941.235876652642
  0
VERTEX
  8
0
 10
38695.61975831476
 20
-4941.384978645369
  0
VERTEX
  8
0
 10
38696.5497134171
 20
-4941.522684393199
  0
VERTEX
  8
0
 10
38697.47948147081
 20
-4941.64867179727
  0
VERTEX
  8
0
 10
38698.4090026725
 20
-4941.762618758727
  0
VERTEX
  8
0
 10
38699.33821721876
 20
-4941.864203178709
  0
VERTEX
  8
0
 10
38700.26706530621
 20
-4941.95310295836
  0
VERTEX
  8
0
 10
38701.19548713143
 20
-4942.028995998824
  0
VERTEX
  8
0
 10
38702.12342289102
 20
-4942.09156020124
  0
VERTEX
  8
0
 10
38703.0508127816
 20
-4942.14047346675
  0
VERTEX
  8
0
 10
38703.97759699972
 20
-4942.175413696499
  0
VERTEX
  8
0
 10
38704.90438121788
 20
-4942.14047346675
  0
VERTEX
  8
0
 10
38705.83177110846
 20
-4942.09156020124
  0
VERTEX
  8
0
 10
38706.75970686805
 20
-4942.028995998824
  0
VERTEX
  8
0
 10
38707.68812869327
 20
-4941.95310295836
  0
VERTEX
  8
0
 10
38708.61697678072
 20
-4941.86420317871
  0
VERTEX
  8
0
 10
38709.54619132697
 20
-4941.762618758727
  0
VERTEX
  8
0
 10
38710.47571252866
 20
-4941.64867179727
  0
VERTEX
  8
0
 10
38711.40548058238
 20
-4941.522684393199
  0
VERTEX
  8
0
 10
38712.33543568471
 20
-4941.38497864537
  0
VERTEX
  8
0
 10
38713.26551803228
 20
-4941.235876652642
  0
VERTEX
  8
0
 10
38714.19566782167
 20
-4941.075700513873
  0
VERTEX
  8
0
 10
38715.1258252495
 20
-4940.90477232792
  0
VERTEX
  8
0
 10
38716.05593051235
 20
-4940.723414193641
  0
VERTEX
  8
0
 10
38716.98592380682
 20
-4940.531948209895
  0
VERTEX
  8
0
 10
38717.91574532954
 20
-4940.33069647554
  0
VERTEX
  8
0
 10
38718.84533527707
 20
-4940.119981089433
  0
VERTEX
  8
0
 10
38719.77463384606
 20
-4939.900124150431
  0
VERTEX
  8
0
 10
38720.70358123307
 20
-4939.671447757396
  0
VERTEX
  8
0
 10
38721.6321176347
 20
-4939.434274009181
  0
VERTEX
  8
0
 10
38722.56018324758
 20
-4939.188925004646
  0
VERTEX
  8
0
 10
38723.48771826829
 20
-4938.93572284265
  0
VERTEX
  8
0
 10
38724.41466289344
 20
-4938.67498962205
  0
VERTEX
  8
0
 10
38725.34095731962
 20
-4938.407047441704
  0
VERTEX
  8
0
 10
38726.26654174345
 20
-4938.132218400469
  0
VERTEX
  8
0
 10
38727.19135636151
 20
-4937.850824597204
  0
VERTEX
  8
0
 10
38728.1153413704
 20
-4937.563188130768
  0
VERTEX
  8
0
 10
38729.03843696674
 20
-4937.269631100018
  0
VERTEX
  8
0
 10
38729.96058334712
 20
-4936.970475603811
  0
VERTEX
  8
0
 10
38730.88172070815
 20
-4936.666043741005
  0
VERTEX
  8
0
 10
38731.80178924641
 20
-4936.356657610459
  0
VERTEX
  8
0
 10
38732.72072915852
 20
-4936.042639311032
  0
VERTEX
  8
0
 10
38733.63848064107
 20
-4935.724310941579
  0
VERTEX
  8
0
 10
38734.55498389067
 20
-4935.40199460096
  0
VERTEX
  8
0
 10
38735.47017910391
 20
-4935.076012388033
  0
VERTEX
  8
0
 10
38736.3840064774
 20
-4934.746686401654
  0
VERTEX
  8
0
 10
38737.29640620774
 20
-4934.414338740684
  0
VERTEX
  8
0
 10
38738.20731849152
 20
-4934.079291503978
  0
VERTEX
  8
0
 10
38739.11668352535
 20
-4933.741866790395
  0
VERTEX
  8
0
 10
38740.02444150584
 20
-4933.402386698795
  0
VERTEX
  8
0
 10
38740.93053262958
 20
-4933.061173328032
  0
VERTEX
  8
0
 10
38741.83489709315
 20
-4932.718548776967
  0
VERTEX
  8
0
 10
38742.73747509319
 20
-4932.374835144456
  0
VERTEX
  8
0
 10
38743.63820682628
 20
-4932.03035452936
  0
VERTEX
  8
0
 10
38744.53704025079
 20
-4931.685414051422
  0
VERTEX
  8
0
 10
38745.43401393529
 20
-4931.340145965445
  0
VERTEX
  8
0
 10
38746.32922508737
 20
-4930.994569361219
  0
VERTEX
  8
0
 10
38747.22277190008
 20
-4930.648701426709
  0
VERTEX
  8
0
 10
38748.11475256648
 20
-4930.302559349881
  0
VERTEX
  8
0
 10
38749.0052652796
 20
-4929.956160318706
  0
VERTEX
  8
0
 10
38749.89440823251
 20
-4929.609521521147
  0
VERTEX
  8
0
 10
38750.78227961827
 20
-4929.262660145173
  0
VERTEX
  8
0
 10
38751.66897762992
 20
-4928.915593378749
  0
VERTEX
  8
0
 10
38752.55460046051
 20
-4928.568338409843
  0
VERTEX
  8
0
 10
38753.4392463031
 20
-4928.220912426421
  0
VERTEX
  8
0
 10
38754.32301335074
 20
-4927.87333261645
  0
VERTEX
  8
0
 10
38755.20599979648
 20
-4927.525616167898
  0
VERTEX
  8
0
 10
38756.08830383338
 20
-4927.17778026873
  0
VERTEX
  8
0
 10
38756.97002365449
 20
-4926.829842106915
  0
VERTEX
  8
0
 10
38757.85125745286
 20
-4926.481818870417
  0
VERTEX
  8
0
 10
38758.73210342154
 20
-4926.133727747204
  0
VERTEX
  8
0
 10
38759.61265975359
 20
-4925.785585925243
  0
VERTEX
  8
0
 10
38760.49302464206
 20
-4925.437410592501
  0
VERTEX
  8
0
 10
38762.17475584219
 20
-4924.831390398572
  0
VERTEX
  8
0
 10
38778.97759699976
 20
-4919.360921107745
  0
SEQEND
  8
0
  0
POLYLINE
  8
0
 66
     1
 70
     1
  0
VERTEX
  8
0
 10
38106.97759424253
 20
-6397.993401614985
  0
VERTEX
  8
0
 10
38106.97759424253
 20
-5890.87137427969
 42
0.349457823367
  0
VERTEX
  8
0
 10
38103.97756948067
 20
-5888.621376008288
 42
0.349469439213
  0
VERTEX
  8
0
 10
38100.97759424253
 20
-5890.871374279689
  0
VERTEX
  8
0
 10
38100.97764376627
 20
-6259.045135974648
  0
VERTEX
  8
0
 10
38100.97759424253
 20
-6397.993401614985
 42
0.999847695351
  0
SEQEND
  8
0
  0
POLYLINE
  8
0
 66
     1
  0
VERTEX
  8
0
 10
38106.97759424257
 20
-6259.045135974649
 42
0.349469439216
  0
VERTEX
  8
0
 10
38103.97761900442
 20
-6256.795137703248
 42
0.349469439213
  0
VERTEX
  8
0
 10
38100.97764376627
 20
-6259.045135974648
  0
SEQEND
  8
0
  0
ARC
  8
0
  6
CONTINUOUS
 62
     0
 10
39969.74843104488
 20
-8966.466722390142
 40
2531.574270630285
 50
79.232436890361
 51
90.505310127858
  0
LINE
  8
0
  6
CONTINUOUS
 62
     0
 10
40522.16831423264
 20
-5901.378732541837
 11
40504.50084509085
 21
-5896.419358795879
  0
ARC
  8
0
  6
CONTINUOUS
 62
     0
 10
40512.97945241969
 20
-5934.113497220736
 40
33.99999999999999
 50
344.320222873789
 51
74.320222873712
  0
LINE
  8
0
  6
CONTINUOUS
 62
     0
 10
40330.00019226524
 20
-6295.091977406954
 11
39848.89344494212
 21
-6261.449716362694
  0
LINE
  8
0
 10
40298.31721445672
 20
-6387.106026195607
 11
40464.98245680561
 21
-5903.075016435497
  0
LINE
  8
0
 10
40406.97858806905
 20
-6400.719021022075
 11
40425.26869814441
 21
-6403.062660647366
  0
POLYLINE
  8
0
  6
CONTINUOUS
 62
     0
 66
     1
  0
VERTEX
  8
0
  6
CONTINUOUS
 62
     0
 10
40327.97787453278
 20
-6300.965214563686
  0
VERTEX
  8
0
  6
CONTINUOUS
 62
     0
 10
39851.41403346295
 20
-6267.640624470666
 42
0.143509240964
  0
VERTEX
  8
0
  6
CONTINUOUS
 62
     0
 10
39848.66667096134
 20
-6268.241325696205
 42
0.255515587259
  0
VERTEX
  8
0
  6
CONTINUOUS
 62
     0
 10
39831.05983815616
 20
-6295.702014964015
  0
VERTEX
  8
0
  6
CONTINUOUS
 62
     0
 10
39829.34472675485
 20
-6320.229250707124
 42
0.414213562374
  0
VERTEX
  8
0
  6
CONTINUOUS
 62
     0
 10
39860.89018435645
 20
-6356.518148523263
  0
VERTEX
  8
0
  6
CONTINUOUS
 62
     0
 10
40407.39712691148
 20
-6394.73363672052
 42
0.355691801166
  0
VERTEX
  8
0
  6
CONTINUOUS
 62
     0
 10
40421.85273829402
 20
-6384.551388998686
  0
VERTEX
  8
0
  6
CONTINUOUS
 62
     0
 10
40545.71421709859
 20
-5943.302359033681
  0
SEQEND
  8
0
  6
CONTINUOUS
 62
     0
  0
POLYLINE
  8
0
 66
     1
  0
VERTEX
  8
0
 10
39958.95941879444
 20
-6369.390468825627
  0
VERTEX
  8
0
 10
39906.99959431451
 20
-6664.826593598008
  0
VERTEX
  8
0
 10
39876.90830779484
 20
-6664.826593598008
  0
VERTEX
  8
0
 10
39908.33198733639
 20
-6365.850253946933
  0
SEQEND
  8
0
  0
POLYLINE
  8
0
  6
CONTINUOUS
 62
     0
 66
     1
  0
VERTEX
  8
0
  6
CONTINUOUS
 62
     0
 10
40457.84577646059
 20
-6278.529157487053
  0
VERTEX
  8
0
  6
CONTINUOUS
 62
     0
 10
40470.44749454847
 20
-6281.671118688454
 42
-0.354204493237
  0
VERTEX
  8
0
  6
CONTINUOUS
 62
     0
 10
40480.29445150306
 20
-6294.74262405344
  0
VERTEX
  8
0
  6
CONTINUOUS
 62
     0
 10
40478.52601222341
 20
-6344.944550311941
 42
0.043715020134
  0
VERTEX
  8
0
  6
CONTINUOUS
 62
     0
 10
40483.07581465616
 20
-6432.08913886002
  0
VERTEX
  8
0
  6
CONTINUOUS
 62
     0
 10
40515.76369429836
 20
-6664.826593598008
  0
VERTEX
  8
0
  6
CONTINUOUS
 62
     0
 10
40485.02530158751
 20
-6664.826593598008
  0
VERTEX
  8
0
  6
CONTINUOUS
 62
     0
 10
40425.26869814441
 20
-6403.062660647366
  0
VERTEX
  8
0
  6
CONTINUOUS
 62
     0
 10
40444.18203371532
 20
-6327.205414950083
  0
SEQEND
  8
0
  6
CONTINUOUS
 62
     0
  0
POLYLINE
  8
0
  6
CONTINUOUS
 62
     0
 66
     1
 70
     1
  0
VERTEX
  8
0
  6
CONTINUOUS
 62
     0
 10
40406.97858806905
 20
-6400.719021022075
 42
0.355691801166
  0
VERTEX
  8
0
  6
CONTINUOUS
 62
     0
 10
40427.62946147264
 20
-6386.172952848031
  0
VERTEX
  8
0
  6
CONTINUOUS
 62
     0
 10
40551.49094027722
 20
-5944.923922883026
 42
0.414213562373
  0
VERTEX
  8
0
  6
CONTINUOUS
 62
     0
 10
40523.78987808204
 20
-5895.60200936323
  0
VERTEX
  8
0
  6
CONTINUOUS
 62
     0
 10
40506.12240894019
 20
-5890.642635617244
 42
0.299981283723
  0
VERTEX
  8
0
  6
CONTINUOUS
 62
     0
 10
40464.17644299784
 20
-5904.042808665142
 42
0.173613668844
  0
VERTEX
  8
0
  6
CONTINUOUS
 62
     0
 10
40330.00019226524
 20
-6295.091977406962
 42
0.132207973201
  0
VERTEX
  8
0
  6
CONTINUOUS
 62
     0
 10
39858.02800212646
 20
-6258.681969331988
 42
0.344305701721
  0
VERTEX
  8
0
  6
CONTINUOUS
 62
     0
 10
39825.0744538546
 20
-6295.283476121548
  0
VERTEX
  8
0
  6
CONTINUOUS
 62
     0
 10
39823.35934245329
 20
-6319.810711864658
 42
0.414213562374
  0
VERTEX
  8
0
  6
CONTINUOUS
 62
     0
 10
39860.471645514
 20
-6362.503532824824
  0
SEQEND
  8
0
  6
CONTINUOUS
 62
     0
  0
POLYLINE
  8
0
 66
     1
  0
VERTEX
  8
0
 10
40304.51374025474
 20
-6387.539329489765
  0
VERTEX
  8
0
 10
40470.26552604097
 20
-5906.161190215216
 42
-0.282629792974
  0
VERTEX
  8
0
 10
40504.5008450909
 20
-5896.419358795899
  0
SEQEND
  8
0
  0
DIMENSION
  8
1DIM
  2
*D430
 10
40328.04450396256
 20
-5739.154123474762
 11
40075.65320421311
 21
-5690.154123474762
 70
    32
 13
39823.26190446367
 23
-5889.154123474762
 33
0.0
 14
40328.04450396256
 24
-5889.154123474762
 34
0.0
  0
DIMENSION
  8
1DIM
  2
*D431
 10
40552.97945241969
 20
-6814.82651730407
 11
40188.12067844169
 21
-6765.82651730407
 70
    32
 13
39823.26190446368
 23
-6664.82651730407
 33
0.0
 14
40552.97945241969
 24
-6664.82651730407
 34
0.0
  0
DIMENSION
  8
1DIM
  2
*D432
 10
40702.97945241969
 20
-6664.82651730407
 11
40653.97945241969
 21
-6276.990320389416
 70
    32
  1
775
 13
40552.97945241969
 23
-5889.154123474762
 33
0.0
 14
40552.97945241969
 24
-6664.82651730407
 34
0.0
 50
90.0
  0
LINE
  8
0
  6
CONTINUOUS
 62
     0
 10
39247.98016795413
 20
-6664.82651730407
 11
39247.98016795413
 21
-6367.814467248295
  0
LINE
  8
0
  6
CONTINUOUS
 62
     0
 10
39269.98016795413
 20
-6664.82651730407
 11
39270.98016795413
 21
-6664.82651730407
  0
LINE
  8
0
  6
CONTINUOUS
 62
     0
 10
39283.98016795413
 20
-6367.814467248295
 11
39283.98016795413
 21
-6664.82651730407
  0
LINE
  8
0
  6
CONTINUOUS
 62
     0
 10
39247.98016795413
 20
-6664.82651730407
 11
39283.98016795413
 21
-6664.82651730407
  0
LINE
  8
0
  6
CONTINUOUS
 62
     0
 10
39300.98016308193
 20
-6397.993401614985
 11
39283.98016795413
 21
-6397.993401614985
  0
LINE
  8
0
  6
CONTINUOUS
 62
     0
 10
38703.97887866222
 20
-6460.369276502453
 11
39247.98016795413
 21
-6460.369276502445
  0
LINE
  8
0
  6
CONTINUOUS
 62
     0
 10
39003.98016032473
 20
-5895.459167828659
 11
38853.98016795413
 21
-6037.28694695483
  0
LINE
  8
0
  6
CONTINUOUS
 62
     0
 10
39003.98016032473
 20
-6037.286939741075
 11
38853.98016795412
 21
-5895.459160614911
  0
LINE
  8
0
  6
CONTINUOUS
 62
     0
 10
39003.98016032473
 20
-5895.459167828659
 11
39153.98015269533
 21
-6037.28694695483
  0
LINE
  8
0
  6
CONTINUOUS
 62
     0
 10
39003.98016032473
 20
-6037.286939741075
 11
39153.98015269533
 21
-5895.459160614911
  0
LINE
  8
0
  6
CONTINUOUS
 62
     0
 10
39300.98016308193
 20
-5898.295706520998
 11
39153.98015269533
 21
-6037.286946954816
  0
LINE
  8
0
  6
CONTINUOUS
 62
     0
 10
39300.98016308192
 20
-6034.450401048728
 11
39153.98015269533
 21
-5895.459160614911
  0
ARC
  8
0
  6
CONTINUOUS
 62
     0
 10
39265.98016795413
 20
-6552.75724675595
 40
185.8166615027148
 50
84.441059174979
 51
95.558940825021
  0
ARC
  8
0
 10
38928.97303378383
 20
-6126.943988169841
 40
243.3267808240955
 50
72.047306194315
 51
107.952693805676
  0
ARC
  8
0
 10
39078.96997595125
 20
-6126.943985944227
 40
243.3267787068311
 50
72.047306032751
 51
107.952693967251
  0
ARC
  8
0
 10
39234.86277307416
 20
-6164.349465714745
 40
280.7938853551321
 50
76.38259665149
 51
106.743665147749
  0
POLYLINE
  8
0
 66
     1
 70
     1
  0
VERTEX
  8
0
 10
39300.98016308193
 20
-6397.993401614985
  0
VERTEX
  8
0
 10
39300.98016308193
 20
-5890.87137427969
 42
-0.349457823367
  0
VERTEX
  8
0
 10
39303.98018784379
 20
-5888.621376008288
 42
-0.349469439213
  0
VERTEX
  8
0
 10
39306.98016308193
 20
-5890.871374279689
  0
VERTEX
  8
0
 10
39306.98011355819
 20
-6259.045135974648
  0
VERTEX
  8
0
 10
39306.98016308193
 20
-6397.993401614985
 42
-0.999847695351
  0
SEQEND
  8
0
  0
POLYLINE
  8
0
 66
     1
  0
VERTEX
  8
0
 10
39306.98011355819
 20
-6259.045135974648
 42
-0.349469439216
  0
VERTEX
  8
0
 10
39303.98013832004
 20
-6261.29513424605
 42
-0.349469439213
  0
VERTEX
  8
0
 10
39300.98016308189
 20
-6259.045135974649
  0
SEQEND
  8
0
  0
POLYLINE
  8
0
  6
CONTINUOUS
 62
     0
 66
     1
  0
VERTEX
  8
0
  6
CONTINUOUS
 62
     0
 10
39300.98016308189
 20
-6259.045135974653
 42
0.015558684636
  0
VERTEX
  8
0
  6
CONTINUOUS
 62
     0
 10
38703.97887866224
 20
-6240.46360817714
 42
0.015558684636
  0
VERTEX
  8
0
  6
CONTINUOUS
 62
     0
 10
38106.97759424257
 20
-6259.045135974649
  0
SEQEND
  8
0
  6
CONTINUOUS
 62
     0
  0
POLYLINE
  8
0
  6
CONTINUOUS
 62
     0
 66
     1
  0
VERTEX
  8
0
  6
CONTINUOUS
 62
     0
 10
38853.98016795412
 20
-5895.459160614911
  0
VERTEX
  8
0
  6
CONTINUOUS
 62
     0
 10
38703.97887866224
 20
-6037.288166004242
  0
VERTEX
  8
0
  6
CONTINUOUS
 62
     0
 10
38553.97758937034
 20
-5895.459160614911
  0
SEQEND
  8
0
  6
CONTINUOUS
 62
     0
  0
POLYLINE
  8
0
  6
CONTINUOUS
 62
     0
 66
     1
  0
VERTEX
  8
0
  6
CONTINUOUS
 62
     0
 10
38853.98016795413
 20
-6037.286946954816
  0
VERTEX
  8
0
  6
CONTINUOUS
 62
     0
 10
38703.97887866222
 20
-5895.461484394035
  0
VERTEX
  8
0
  6
CONTINUOUS
 62
     0
 10
38553.97758937033
 20
-6037.286946954816
  0
SEQEND
  8
0
  6
CONTINUOUS
 62
     0
  0
POLYLINE
  8
0
 66
     1
  0
VERTEX
  8
0
 10
38853.97118642489
 20
-5895.464634448872
 42
0.157952795042
  0
VERTEX
  8
0
 10
38703.97887866224
 20
-5895.461484394035
 42
0.157952795042
  0
VERTEX
  8
0
 10
38553.98657089957
 20
-5895.464634448872
  0
SEQEND
  8
0
  0
DIMENSION
  8
1DIM
  2
*D433
 10
39303.98016308193
 20
-6814.82651730407
 11
38703.97887866223
 21
-6765.82651730407
 70
    32
 13
38103.97759424253
 23
-6664.82651730407
 33
0.0
 14
39303.98016308193
 24
-6664.82651730407
 34
0.0
  0
DIMENSION
  8
1DIM
  2
*D434
 10
37934.69530476658
 20
-6664.82651730407
 11
37885.69530476658
 21
-6460.810199023374
 70
    32
  1
410
 13
38084.69530476676
 23
-6256.793880742678
 33
0.0
 14
38084.69530476658
 24
-6664.82651730407
 34
0.0
 50
90.0
  0
ENDSEC
  0
EOF
