  0
SECTION
  2
HEADER
  9
$ACADVER
  1
AC1004
  9
$INSBASE
 10
0.0
 20
0.0
  9
$EXTMIN
 10
38500.69530476658
 20
-6834.82651730407
  9
$EXTMAX
 10
40722.97945241968
 20
-4809.86300834163
  9
$LIMMIN
 10
0.0
 20
0.0
  9
$LIMMAX
 10
12.0
 20
9.0
  9
$ORTHOMODE
 70
     0
  9
$REGENMODE
 70
     1
  9
$FILLMODE
 70
     1
  9
$QTEXTMODE
 70
     0
  9
$DRAGMODE
 70
     2
  9
$LTSCALE
 40
0.5
  9
$OSMODE
 70
  2175
  9
$ATTMODE
 70
     1
  9
$TEXTSIZE
 40
4.0
  9
$TRACEWID
 40
0.05
  9
$TEXTSTYLE
  7
STANDARD
  9
$CLAYER
  8
0
  9
$CELTYPE
  6
BYLAYER
  9
$CECOLOR
 62
   256
  9
$DIMSCALE
 40
20.0
  9
$DIMASZ
 40
2.0
  9
$DIMEXO
 40
0.0
  9
$DIMDLI
 40
7.0
  9
$DIMRND
 40
0.0
  9
$DIMDLE
 40
0.0
  9
$DIMEXE
 40
1.0
  9
$DIMTP
 40
0.0
  9
$DIMTM
 40
0.0
  9
$DIMTXT
 40
3.5
  9
$DIMCEN
 40
0.0
  9
$DIMTSZ
 40
0.0
  9
$DIMTOL
 70
     0
  9
$DIMLIM
 70
     0
  9
$DIMTIH
 70
     0
  9
$DIMTOH
 70
     0
  9
$DIMSE1
 70
     0
  9
$DIMSE2
 70
     0
  9
$DIMTAD
 70
     1
  9
$DIMZIN
 70
     8
  9
$DIMBLK
  1

  9
$DIMASO
 70
     1
  9
$DIMSHO
 70
     1
  9
$DIMPOST
  1
 
  9
$DIMAPOST
  1

  9
$DIMALT
 70
     0
  9
$DIMALTD
 70
     2
  9
$DIMALTF
 40
25.4
  9
$DIMLFAC
 40
1.0
  9
$DIMTOFL
 70
     1
  9
$DIMTVP
 40
0.0
  9
$DIMTIX
 70
     0
  9
$DIMSOXD
 70
     0
  9
$DIMSAH
 70
     1
  9
$DIMBLK1
  1
OPEN30
  9
$DIMBLK2
  1
OPEN30
  9
$LUNITS
 70
     2
  9
$LUPREC
 70
     4
  9
$SKETCHINC
 40
0.1
  9
$FILLETRAD
 40
5.8
  9
$AUNITS
 70
     0
  9
$AUPREC
 70
     2
  9
$MENU
  1
acad
  9
$ELEVATION
 40
0.0
  9
$THICKNESS
 40
0.0
  9
$LIMCHECK
 70
     0
  9
$CHAMFERA
 40
0.0
  9
$CHAMFERB
 40
0.0
  9
$SKPOLY
 70
     0
  9
$TDCREATE
 40
2448750.487089225
  9
$TDUPDATE
 40
2459431.406152928
  9
$TDINDWG
 40
2.6011160185
  9
$TDUSRTIMER
 40
2.6011159722
  9
$USRTIMER
 70
     1
  9
$ANGBASE
 50
0.0
  9
$ANGDIR
 70
     0
  9
$PDMODE
 70
     0
  9
$PDSIZE
 40
0.0
  9
$PLINEWID
 40
1.0
  9
$COORDS
 70
     2
  9
$SPLFRAME
 70
     0
  9
$SPLINETYPE
 70
     6
  9
$SPLINESEGS
 70
     8
  9
$ATTDIA
 70
     0
  9
$ATTREQ
 70
     1
  9
$SURFTAB1
 70
     6
  9
$SURFTAB2
 70
     6
  9
$SURFTYPE
 70
     6
  9
$SURFU
 70
     6
  9
$SURFV
 70
     6
  9
$UCSNAME
  2

  9
$UCSORG
 10
0.0
 20
0.0
 30
0.0
  9
$UCSXDIR
 10
1.0
 20
0.0
 30
0.0
  9
$UCSYDIR
 10
0.0
 20
1.0
 30
0.0
  9
$USERI1
 70
     0
  9
$USERI2
 70
     0
  9
$USERI3
 70
     0
  9
$USERI4
 70
     0
  9
$USERI5
 70
     0
  9
$USERR1
 40
0.0
  9
$USERR2
 40
0.0
  9
$USERR3
 40
0.0
  9
$USERR4
 40
0.0
  9
$USERR5
 40
0.0
  9
$WORLDVIEW
 70
     1
  0
ENDSEC
  0
SECTION
  2
TABLES
  0
TABLE
  2
LTYPE
 70
    12
  0
LTYPE
  2
CONTINUOUS
 70
     0
  3
Solid line
 72
    65
 73
     0
 40
0.0
  0
LTYPE
  2
HIDDEN
 70
     0
  3
Hidden __ __ __ __ __ __ __ __ __ __ __ __ __ _
 72
    65
 73
     2
 40
9.525
 49
6.35
 49
-3.175
  0
LTYPE
  2
PHANTOM2
 70
     0
  3
Phantom (0.5x) ___ _ _ ___ _ _ ___ _ _ ___ _ _
 72
    65
 73
     6
 40
31.75
 49
15.875
 49
-3.175
 49
3.175
 49
-3.175
 49
3.175
 49
-3.175
  0
LTYPE
  2
CENTER2
 70
     0
  3
Center (.5x) ___ _ ___ _ ___ _ ___ _ ___ _ ___
 72
    65
 73
     4
 40
28.575
 49
19.05
 49
-3.175
 49
3.175
 49
-3.175
  0
LTYPE
  2
HADAN
 70
     0
  3
Hadansen
 72
    65
 73
     4
 40
58.0
 49
50.0
 49
-2.0
 49
-4.0
 49
-2.0
  0
LTYPE
  2
BATTING
 70
     0
  3
Batting SSSSSSSSSSSSSSSSSSSSSSSSSSSSSSSSSSSSSSS
 72
    65
 73
     4
 40
10.16254
 49
0.00254
 49
-2.54
 49
-5.08
 49
-2.54
  0
LTYPE
  2
DASHED2
 70
     0
  3
Dashed (0.5x) _ _ _ _ _ _ _ _ _ _ _ _ _ _ _ _ _
 72
    65
 73
     2
 40
9.525
 49
6.35
 49
-3.175
  0
LTYPE
  2
FENCELINE1
 70
     0
  3
Fenceline circle -0-----0----0-----0----0-----0
 72
    65
 73
     4
 40
36.83
 49
3.81
 49
-2.54
 49
-2.54
 49
27.94
  0
LTYPE
  2
FENCELINE2
 70
     0
  3
Fenceline square -[]-----[]----[]-----[]----[]-
 72
    65
 73
     4
 40
36.83
 49
3.81
 49
-2.54
 49
-2.54
 49
27.94
  0
LTYPE
  2
TRACKS
 70
     0
  3
Tracks -|-|-|-|-|-|-|-|-|-|-|-|-|-|-|-|-|-|-|-|
 72
    65
 73
     2
 40
7.62
 49
3.81
 49
3.81
  0
LTYPE
  2
ZIGZAG
 70
     0
  3
Zig zag /\/\/\/\/\/\/\/\/\/\/\/\/\/\/\/\/\/\/\/
 72
    65
 73
     4
 40
20.32254
 49
0.00254
 49
-5.08
 49
-10.16
 49
-5.08
  0
LTYPE
  2
BORDER2
 70
     0
  3
Border (0.5x) __.__.__.__.__.__.__.__.__.__.__.
 72
    65
 73
     6
 40
22.225
 49
6.35
 49
-3.175
 49
6.35
 49
-3.175
 49
0.0
 49
-3.175
  0
ENDTAB
  0
TABLE
  2
LAYER
 70
    38
  0
LAYER
  2
0
 70
     0
 62
     7
  6
CONTINUOUS
  0
LAYER
  2
1DIM
 70
     0
 62
     8
  6
CONTINUOUS
  0
LAYER
  2
2VIEWPORT
 70
     0
 62
    -1
  6
CONTINUOUS
  0
LAYER
  2
01
 70
     0
 62
     1
  6
CONTINUOUS
  0
LAYER
  2
DEFPOINTS
 70
     0
 62
     7
  6
CONTINUOUS
  0
LAYER
  2
1HIDDEN
 70
     0
 62
     8
  6
HIDDEN
  0
LAYER
  2
1PHANTOM
 70
     0
 62
   254
  6
PHANTOM2
  0
LAYER
  2
03
 70
     0
 62
     3
  6
CONTINUOUS
  0
LAYER
  2
02
 70
     0
 62
     2
  6
CONTINUOUS
  0
LAYER
  2
1TEXT
 70
     0
 62
   201
  6
CONTINUOUS
  0
LAYER
  2
04
 70
     0
 62
     4
  6
CONTINUOUS
  0
LAYER
  2
POINT
 70
     0
 62
     7
  6
CONTINUOUS
  0
LAYER
  2
1HATCH
 70
     0
 62
     8
  6
CONTINUOUS
  0
LAYER
  2
05
 70
     0
 62
     5
  6
CONTINUOUS
  0
LAYER
  2
06
 70
     0
 62
     6
  6
CONTINUOUS
  0
LAYER
  2
07
 70
     0
 62
   143
  6
CONTINUOUS
  0
LAYER
  2
08
 70
     0
 62
    95
  6
CONTINUOUS
  0
LAYER
  2
09
 70
     0
 62
    15
  6
CONTINUOUS
  0
LAYER
  2
10
 70
     0
 62
   213
  6
CONTINUOUS
  0
LAYER
  2
11
 70
     0
 62
     7
  6
CONTINUOUS
  0
LAYER
  2
1CENTER
 70
     0
 62
   221
  6
CONTINUOUS
  0
LAYER
  2
1DIM1
 70
     0
 62
   221
  6
CONTINUOUS
  0
LAYER
  2
1DIM2
 70
     0
 62
   254
  6
CONTINUOUS
  0
LAYER
  2
1DIM3
 70
     0
 62
     8
  6
CONTINUOUS
  0
LAYER
  2
2BATTING
 70
     0
 62
     7
  6
BATTING
  0
LAYER
  2
2FENCELINE1
 70
     0
 62
     7
  6
FENCELINE1
  0
LAYER
  2
2FENCELINE2
 70
     0
 62
     7
  6
FENCELINE2
  0
LAYER
  2
2TRACKS
 70
     0
 62
     7
  6
TRACKS
  0
LAYER
  2
2ZIGZAG
 70
     0
 62
     7
  6
ZIGZAG
  0
LAYER
  2
2HADAN
 70
     0
 62
     7
  6
HADAN
  0
LAYER
  2
1TEXT2
 70
     0
 62
   221
  6
CONTINUOUS
  0
LAYER
  2
99WAKU
 70
     0
 62
   253
  6
CONTINUOUS
  0
LAYER
  2
MIDFINE
 70
     0
 62
     9
  6
CONTINUOUS
  0
LAYER
  2
THICK
 70
     0
 62
   252
  6
CONTINUOUS
  0
LAYER
  2
ZZ
 70
     0
 62
    -8
  6
CONTINUOUS
  0
LAYER
  2
ZZXX
 70
     0
 62
   243
  6
CONTINUOUS
  0
LAYER
  2
MAKE2D$VISIBLE$LINES
 70
     0
 62
     7
  6
CONTINUOUS
  0
LAYER
  2
MAKE2D$VISIBLE$TANGENTS
 70
     0
 62
     7
  6
CONTINUOUS
  0
ENDTAB
  0
TABLE
  2
STYLE
 70
     4
  0
STYLE
  2
STANDARD
 70
     0
 40
0.0
 41
1.0
 50
0.0
 71
     0
 42
4.0
  3
romans.shx
  4
extfont2.shx
  0
STYLE
  2
KAI
 70
     0
 40
0.0
 41
1.0
 50
0.0
 71
     0
 42
4.0
  3
HGSeikaishotaiPRO.ttf
  4

  0
STYLE
  2

 70
     1
 40
0.2
 41
1.0
 50
0.0
 71
     0
 42
4.0
  3
ltypeshp.shx
  4

  0
STYLE
  2
TATE2
 70
     4
 40
0.0
 41
1.0
 50
0.0
 71
     0
 42
4.0
  3
romans.shx
  4
@extfont2.shx
  0
ENDTAB
  0
TABLE
  2
VIEW
 70
     0
  0
ENDTAB
  0
ENDSEC
  0
SECTION
  2
BLOCKS
  0
BLOCK
  8
0
  2
_OPEN30
 70
     0
 10
0.0
 20
0.0
  0
LINE
  8
0
  6
BYBLOCK
 62
     0
 10
-1.0
 20
0.26794919
 11
0.0
 21
0.0
  0
LINE
  8
0
  6
BYBLOCK
 62
     0
 10
0.0
 20
0.0
 11
-1.0
 21
-0.26794919
  0
LINE
  8
0
  6
BYBLOCK
 62
     0
 10
0.0
 20
0.0
 11
-1.0
 21
0.0
  0
ENDBLK
  8
0
  0
BLOCK
  8
0
  2
NOCIRCLE
 70
     2
 10
0.0
 20
0.0
  0
CIRCLE
  8
0
  6
BYBLOCK
 62
     0
 10
0.0
 20
0.0
 40
4.2
  0
ATTDEF
  8
1TEXT
 10
-1.904761904762
 20
-2.0
 40
4.0
  1
0
 72
     4
 11
0.0
 21
0.0
  3
NO.
  2
NO
 70
     0
  0
ENDBLK
  8
0
  0
BLOCK
  8
0
  2
_OPEN
 70
     0
 10
0.0
 20
0.0
  0
LINE
  8
0
  6
BYBLOCK
 62
     0
 10
-1.0
 20
0.166667
 11
0.0
 21
0.0
  0
LINE
  8
0
  6
BYBLOCK
 62
     0
 10
-1.0
 20
-0.166667
 11
0.0
 21
0.0
  0
LINE
  8
0
  6
BYBLOCK
 62
     0
 10
0.0
 20
0.0
 11
-1.0
 21
0.0
  0
ENDBLK
  8
0
  0
BLOCK
  8
0
  2
YA__
 70
     0
 10
0.0
 20
0.0
  0
INSERT
  8
0
  2
YA_
 10
0.0
 20
0.0
 30
0.0
 50
180.0
  0
ENDBLK
  8
0
  0
BLOCK
  8
0
  2
YA_
 70
     0
 10
0.0
 20
0.0
  0
LINE
  8
0
 10
-5.598760219962
 20
0.622116757674
 11
-2.488360049962
 21
0.622116757674
  0
LINE
  8
0
 10
-5.598760219962
 20
-0.622043242326
 11
-2.488359989962
 21
-0.622043242326
  0
LINE
  8
0
 10
-5.598760219962
 20
0.622116757674
 11
-5.598760219962
 21
-0.622043242326
  0
LINE
  8
0
 10
-2.488360079962
 20
1.346879757674
 11
-2.488360049962
 21
0.622116757674
  0
LINE
  8
0
 10
0.155480482306
 20
-1.993947296099
 11
0.155480380551
 21
1.993947304034
  0
LINE
  8
0
 10
-0.000039515118
 20
-1.99999999961
 11
-0.000039719246
 21
1.999999999606
  0
LINE
  8
0
 10
-0.155559515297
 20
-1.993941131829
 11
-0.155559619962
 21
0.000036757674
  0
LINE
  8
0
 10
-0.155559619962
 20
0.000036757674
 11
-0.155559718965
 21
1.99394111594
  0
LINE
  8
0
 10
-2.488359989962
 20
-0.622043242326
 11
-2.488359959962
 21
-1.346806242326
  0
LINE
  8
0
 10
-0.155559619962
 20
0.000036757674
 11
-2.488360199962
 21
-1.346806242326
  0
LINE
  8
0
 10
-0.155559619962
 20
0.000036757674
 11
-2.488360079962
 21
1.346879757674
  0
POINT
  8
POINT
 10
0.0
 20
0.0
 30
0.0
  0
ENDBLK
  8
0
  0
BLOCK
  8
0
  2
金属脚
 70
     0
 10
0.0
 20
0.0
  0
LINE
  8
0
  6
BYBLOCK
 62
     0
 10
0.0
 20
0.0
 11
125.0
 21
0.0
  0
LINE
  8
0
  6
BYBLOCK
 62
     0
 10
7.011342610203
 20
-155.999982357025
 11
23.011342610203
 21
-155.999982357025
  0
LINE
  8
0
  6
BYBLOCK
 62
     0
 10
7.011342610203
 20
-155.999982357025
 11
7.011342610203
 21
-145.999982357025
  0
LINE
  8
0
  6
BYBLOCK
 62
     0
 10
23.011342610203
 20
-155.999982357025
 11
23.011342610218
 21
-145.999982357025
  0
LINE
  8
0
  6
BYBLOCK
 62
     0
 10
4.0
 20
-145.999982357025
 11
22.0
 21
-145.999982357025
  0
LINE
  8
0
  6
BYBLOCK
 62
     0
 10
4.0
 20
-5.999982357025
 11
4.0
 21
-145.999982357025
  0
LINE
  8
0
  6
BYBLOCK
 62
     0
 10
22.0
 20
-5.999982357025
 11
104.0
 21
-5.999982357025
  0
LINE
  8
0
  6
BYBLOCK
 62
     0
 10
22.0
 20
-145.999982357025
 11
26.0
 21
-145.999982357025
  0
ARC
  8
0
  6
BYBLOCK
 62
     0
 10
31.0
 20
-32.999982357025
 40
5.0
 50
90.0
 51
180.0
  0
LINE
  8
0
  6
BYBLOCK
 62
     0
 10
26.0
 20
-145.999982357025
 11
26.0
 21
-32.999982357025
  0
LINE
  8
0
  6
BYBLOCK
 62
     0
 10
31.0
 20
-27.999982357025
 11
104.0
 21
-27.999982357025
  0
LINE
  8
0
  6
BYBLOCK
 62
     0
 10
104.0
 20
-27.999982357025
 11
104.0
 21
-5.999982357025
  0
LINE
  8
0
  6
BYBLOCK
 62
     0
 10
125.0
 20
-5.999982357025
 11
119.999885559082
 21
-5.999982357025
  0
LINE
  8
0
  6
BYBLOCK
 62
     0
 10
125.0
 20
-5.999982357025
 11
125.0
 21
0.0
  0
LINE
  8
0
  6
BYBLOCK
 62
     0
 10
119.999885559082
 20
-5.999982357025
 11
0.0
 21
-5.999982357025
  0
LINE
  8
0
  6
BYBLOCK
 62
     0
 10
0.0
 20
-5.999982357025
 11
0.0
 21
0.0
  0
ENDBLK
  8
0
  0
BLOCK
  8
0
  2
A-A
 70
     0
 10
0.0
 20
0.0
  0
LINE
  8
0
 10
0.0
 20
0.0
 11
53.759996799999
 21
0.0
  0
LINE
  8
0
 10
8.0321632
 20
10.63999856
 11
11.2933376
 21
1.68
  0
LINE
  8
0
 10
3.36
 20
1.68000624
 11
6.6211696
 21
10.63998944
  0
LINE
  8
0
 10
9.8630848
 20
1.68
 11
11.2933392
 21
1.68
  0
LINE
  8
0
 10
8.905750399999
 20
4.31024896
 11
9.8630848
 21
1.67999952
  0
LINE
  8
0
 10
4.7902528
 20
1.68000016
 11
5.7475856
 21
4.31024864
  0
LINE
  8
0
 10
3.36
 20
1.68
 11
4.7902528
 21
1.68
  0
LINE
  8
0
 10
5.7475856
 20
4.31024928
 11
8.905750399999
 21
4.31024928
  0
LINE
  8
0
 10
6.171791999999
 20
5.47574928
 11
8.4815424
 21
5.47574928
  0
LINE
  8
0
 10
6.171791999999
 20
5.4757488
 11
7.3266672
 21
8.64873968
  0
LINE
  8
0
 10
7.326668799999
 20
8.64873888
 11
8.481544
 21
5.4757488
  0
LINE
  8
0
 10
12.678397759999
 20
5.57759664
 11
16.441594239999
 21
5.57759664
  0
LINE
  8
0
 10
12.678397759999
 20
6.65279616
 11
16.441594239999
 21
6.65279616
  0
ARC
  8
0
 10
12.678397759999
 20
5.93599664
 40
0.3583999840000001
 50
179.99994
 51
270.0
  0
ARC
  8
0
 10
12.678397759999
 20
6.29439616
 40
0.3583999840000001
 50
90.0
 51
179.99994
  0
LINE
  8
0
 10
12.319997759999
 20
6.29439616
 11
12.319997759999
 21
5.93599664
  0
ARC
  8
0
 10
16.441594239999
 20
6.29439616
 40
0.3583999840000001
 50
0.0
 51
90.0
  0
ARC
  8
0
 10
16.441594239999
 20
5.93599664
 40
0.3583999840000001
 50
270.0
 51
0.0
  0
LINE
  8
0
 10
16.79999424
 20
6.29439616
 11
16.79999424
 21
5.93599664
  0
LINE
  8
0
 10
6.621172799999
 20
10.63999856
 11
8.0321632
 21
10.63999856
  0
LINE
  8
0
 10
25.952162927999
 20
10.63999936
 11
29.21333792
 21
1.68000064
  0
LINE
  8
0
 10
21.279999519999
 20
1.68000528
 11
24.541168639999
 21
10.639988
  0
LINE
  8
0
 10
23.667586079999
 20
4.31024928
 11
26.8257509616
 21
4.31024928
  0
LINE
  8
0
 10
22.7102536
 20
1.67999904
 11
23.667586559999
 21
4.31024784
  0
LINE
  8
0
 10
21.28000064
 20
1.68
 11
22.71025168
 21
1.68
  0
LINE
  8
0
 10
24.09179248
 20
5.47574928
 11
26.401542576
 21
5.47574928
  0
LINE
  8
0
 10
24.091794239999
 20
5.475748
 11
25.24666896
 21
8.64873888
  0
LINE
  8
0
 10
25.2466664
 20
8.64873968
 11
26.401541424
 21
5.475748
  0
LINE
  8
0
 10
26.8257489648
 20
4.31024816
 11
27.783081824
 21
1.67999952
  0
LINE
  8
0
 10
27.783083439999
 20
1.68
 11
29.21333888
 21
1.68
  0
POINT
  8
0
 10
26.8799984
 20
0.0
 30
0.0
  0
POINT
  8
0
 10
26.8799984
 20
0.0
 30
0.0
  0
LINE
  8
0
 10
24.541171999999
 20
10.63999856
 11
25.952163024
 21
10.63999856
  0
TEXT
  8
0
 10
35.978853279999
 20
1.99199984
 40
8.0
  1
断面
 41
0.8643459
  0
ENDBLK
  8
0
  0
BLOCK
  8
0
  2
AA
 70
     0
 10
0.0
 20
0.0
  0
LINE
  8
0
 10
0.000001680067
 20
0.00000565232
 11
2.9117599
 21
7.9999905
  0
LINE
  8
0
 10
3.5416694
 20
6.2220893
 11
4.5728078
 21
3.3890617
  0
LINE
  8
0
 10
2.5105312
 20
3.3890617
 11
3.5416694
 21
6.2220888
  0
LINE
  8
0
 10
4.171576
 20
7.999999
 11
7.0833392
 21
0.000000048888
  0
LINE
  8
0
 10
2.1317739
 20
2.3484368
 11
4.9515643
 21
2.3484368
  0
LINE
  8
0
 10
2.5105309
 20
3.3890619
 11
4.5728073
 21
3.3890619
  0
LINE
  8
0
 10
0.000001907349
 20
0.0
 11
1.2770123
 21
0.0
  0
POINT
  8
0
 10
0.0
 20
0.0
 30
0.0
  0
LINE
  8
0
 10
1.2770127
 20
-0.000000009364
 11
2.1317742
 21
2.3484364
  0
LINE
  8
0
 10
5.8063259
 20
0.0
 11
7.0833392
 21
0.0
  0
LINE
  8
0
 10
4.9515648
 20
2.3484368
 11
5.8063259
 21
0.000000268506
  0
LINE
  8
0
 10
2.9117632
 20
7.999999
 11
4.171576
 21
7.999999
  0
ENDBLK
  8
0
  0
BLOCK
  8
0
  2
訂正1
 70
     0
 10
0.0
 20
0.0
  0
LINE
  8
1HATCH
 10
0.000000135843
 20
2.025
 11
2.33826804
 21
-2.0250009
  0
LINE
  8
1HATCH
 10
-2.33826867
 20
-2.025
 11
2.33826849
 21
-2.025
  0
TEXT
  8
1TEXT
 10
-0.434499620191
 20
-1.510450886077
 40
1.8
  1
1
 41
0.66666667
 72
     1
 11
0.051214667951
 21
-1.510450886077
  0
LINE
  8
1HATCH
 10
0.000000476316
 20
2.02500018
 11
-2.33826849
 21
-2.02499937
  0
ENDBLK
  8
0
  0
BLOCK
  8
0
  2
_NONE
 70
     0
 10
0.0
 20
0.0
  0
ENDBLK
  8
0
  0
BLOCK
  8
0
  2
*D406
 70
     1
 10
0.0
 20
0.0
  0
LINE
  8
1DIM
 10
38753.97730210665
 20
-6764.82651730407
 11
38753.97730210665
 21
-6834.82651730407
  0
LINE
  8
1DIM
 10
39303.98332109611
 20
-6764.82651730407
 11
39303.98332109611
 21
-6834.82651730407
  0
LINE
  8
1DIM
 10
38793.97730210665
 20
-6814.82651730407
 11
39263.98332109611
 21
-6814.82651730407
  0
INSERT
  8
1DIM
  2
_OPEN30
 10
38753.97730210665
 20
-6814.82651730407
 30
0.0
 41
40.0
 42
40.0
 43
40.0
 50
180.0
  0
INSERT
  8
1DIM
  2
_OPEN30
 10
39303.98332109611
 20
-6814.82651730407
 30
0.0
 41
40.0
 42
40.0
 43
40.0
  0
TEXT
  8
1DIM
  6
CONTINUOUS
 62
   201
 10
38928.98031160138
 20
-6800.82651730407
 40
70.0
  1
550
  0
POINT
  8
DEFPOINTS
 62
     0
 10
38753.97730210665
 20
-6664.82651730407
 30
0.0
  0
POINT
  8
DEFPOINTS
 62
     0
 10
39303.98332109611
 20
-6664.82651730407
 30
0.0
  0
POINT
  8
DEFPOINTS
 62
     0
 10
39303.98332109611
 20
-6814.82651730407
 30
0.0
  0
ENDBLK
  8
0
  0
BLOCK
  8
0
  2
*D407
 70
     1
 10
0.0
 20
0.0
  0
LINE
  8
1DIM
 10
39823.26190446367
 20
-5783.617207423299
 11
39823.26190446367
 21
-5713.617207423299
  0
LINE
  8
1DIM
 10
40328.04450396256
 20
-5783.617207423299
 11
40328.04450396256
 21
-5713.617207423299
  0
LINE
  8
1DIM
 10
39863.26190446367
 20
-5733.617207423299
 11
40288.04450396256
 21
-5733.617207423299
  0
INSERT
  8
1DIM
  2
_OPEN30
 10
39823.26190446367
 20
-5733.617207423299
 30
0.0
 41
40.0
 42
40.0
 43
40.0
 50
180.0
  0
INSERT
  8
1DIM
  2
_OPEN30
 10
40328.04450396256
 20
-5733.617207423299
 30
0.0
 41
40.0
 42
40.0
 43
40.0
  0
TEXT
  8
1DIM
  6
CONTINUOUS
 62
   201
 10
39975.65320421311
 20
-5719.617207423299
 40
70.0
  1
505
  0
POINT
  8
DEFPOINTS
 62
     0
 10
39823.26190446367
 20
-5883.617207423299
 30
0.0
  0
POINT
  8
DEFPOINTS
 62
     0
 10
40328.04450396256
 20
-5883.617207423299
 30
0.0
  0
POINT
  8
DEFPOINTS
 62
     0
 10
40328.04450396256
 20
-5733.617207423299
 30
0.0
  0
ENDBLK
  8
0
  0
BLOCK
  8
0
  2
*D408
 70
     1
 10
0.0
 20
0.0
  0
LINE
  8
1DIM
 10
39823.26190446367
 20
-6764.82651730407
 11
39823.26190446367
 21
-6834.82651730407
  0
LINE
  8
1DIM
 10
40552.97945241968
 20
-6764.82651730407
 11
40552.97945241968
 21
-6834.82651730407
  0
LINE
  8
1DIM
 10
39863.26190446367
 20
-6814.82651730407
 11
40512.97945241968
 21
-6814.82651730407
  0
INSERT
  8
1DIM
  2
_OPEN30
 10
39823.26190446367
 20
-6814.82651730407
 30
0.0
 41
40.0
 42
40.0
 43
40.0
 50
180.0
  0
INSERT
  8
1DIM
  2
_OPEN30
 10
40552.97945241968
 20
-6814.82651730407
 30
0.0
 41
40.0
 42
40.0
 43
40.0
  0
TEXT
  8
1DIM
  6
CONTINUOUS
 62
   201
 10
40088.12067844167
 20
-6800.82651730407
 40
70.0
  1
730
  0
POINT
  8
DEFPOINTS
 62
     0
 10
39823.26190446367
 20
-6664.82651730407
 30
0.0
  0
POINT
  8
DEFPOINTS
 62
     0
 10
40552.97945241968
 20
-6664.82651730407
 30
0.0
  0
POINT
  8
DEFPOINTS
 62
     0
 10
40552.97945241968
 20
-6814.82651730407
 30
0.0
  0
ENDBLK
  8
0
  0
BLOCK
  8
0
  2
*D410
 70
     1
 10
0.0
 20
0.0
  0
LINE
  8
1DIM
 10
38634.69530476658
 20
-6256.797544881463
 11
38564.69530476658
 21
-6256.797544881463
  0
LINE
  8
1DIM
 10
38634.69530476658
 20
-6664.82651730407
 11
38564.69530476658
 21
-6664.82651730407
  0
LINE
  8
1DIM
 10
38584.69530476658
 20
-6296.797544881463
 11
38584.69530476658
 21
-6624.82651730407
  0
INSERT
  8
1DIM
  2
_OPEN30
 10
38584.69530476658
 20
-6256.797544881463
 30
0.0
 41
40.0
 42
40.0
 43
40.0
 50
90.0
  0
INSERT
  8
1DIM
  2
_OPEN30
 10
38584.69530476658
 20
-6664.82651730407
 30
0.0
 41
40.0
 42
40.0
 43
40.0
 50
270.0
  0
TEXT
  8
1DIM
  6
CONTINUOUS
 62
   201
 10
38570.69530476658
 20
-6560.81203109277
 40
70.0
  1
410
 50
90.0
  0
POINT
  8
DEFPOINTS
 62
     0
 10
38734.69530476658
 20
-6256.797544881463
 30
0.0
  0
POINT
  8
DEFPOINTS
 62
     0
 10
38734.69530476658
 20
-6664.82651730407
 30
0.0
  0
POINT
  8
DEFPOINTS
 62
     0
 10
38584.69530476658
 20
-6664.82651730407
 30
0.0
  0
ENDBLK
  8
0
  0
BLOCK
  8
0
  2
*D411
 70
     1
 10
0.0
 20
0.0
  0
LINE
  8
1DIM
 10
40652.97945241968
 20
-5889.154123474762
 11
40722.97945241968
 21
-5889.154123474762
  0
LINE
  8
1DIM
 10
40652.97945241968
 20
-6664.82651730407
 11
40722.97945241968
 21
-6664.82651730407
  0
LINE
  8
1DIM
 10
40702.97945241968
 20
-5929.154123474762
 11
40702.97945241968
 21
-6624.82651730407
  0
INSERT
  8
1DIM
  2
_OPEN30
 10
40702.97945241968
 20
-5889.154123474762
 30
0.0
 41
40.0
 42
40.0
 43
40.0
 50
90.0
  0
INSERT
  8
1DIM
  2
_OPEN30
 10
40702.97945241968
 20
-6664.82651730407
 30
0.0
 41
40.0
 42
40.0
 43
40.0
 50
270.0
  0
TEXT
  8
1DIM
  6
CONTINUOUS
 62
   201
 10
40688.97945241968
 20
-6376.990320389414
 40
70.0
  1
775
 50
90.0
  0
POINT
  8
DEFPOINTS
 62
     0
 10
40552.97945241968
 20
-5889.154123474762
 30
0.0
  0
POINT
  8
DEFPOINTS
 62
     0
 10
40552.97945241968
 20
-6664.82651730407
 30
0.0
  0
POINT
  8
DEFPOINTS
 62
     0
 10
40702.97945241968
 20
-6664.82651730407
 30
0.0
  0
ENDBLK
  8
0
  0
ENDSEC
  0
SECTION
  2
ENTITIES
  0
LINE
  8
0
  6
CONTINUOUS
 62
     0
 10
38756.97759424253
 20
-6358.850259995429
 11
39300.98317502804
 21
-6358.850259995429
  0
LINE
  8
0
  6
CONTINUOUS
 62
     0
 10
38773.97758937033
 20
-6398.034812760568
 11
38756.97730210666
 21
-6398.034812760568
  0
LINE
  8
0
  6
CONTINUOUS
 62
     0
 10
38800.97758937033
 20
-6430.949337208825
 11
39256.98317990025
 21
-6430.949337208839
  0
LINE
  8
0
  6
CONTINUOUS
 62
     0
 10
38800.97758937033
 20
-6369.83987766585
 11
39256.98317990025
 21
-6369.839877665857
  0
LINE
  8
0
  6
CONTINUOUS
 62
     0
 10
39256.98317990025
 20
-6460.36927650246
 11
38800.97758937033
 21
-6460.369276502445
  0
LINE
  8
0
  6
CONTINUOUS
 62
     0
 10
39028.9842640936
 20
-5539.154123474762
 11
38753.97759699973
 21
-5539.154123474762
  0
LINE
  8
0
  6
CONTINUOUS
 62
     0
 10
38756.97760187193
 20
-5510.512665724933
 11
38756.97760187193
 21
-5510.669291130818
  0
ARC
  8
0
  6
CONTINUOUS
 62
     0
 10
38751.06488025575
 20
-5031.113858689694
 40
0.0873517450888999
 50
136.726214760726
 51
177.648225117999
  0
POLYLINE
  8
0
  6
CONTINUOUS
 62
     0
 66
     1
  0
VERTEX
  8
0
  6
CONTINUOUS
 62
     0
 10
38756.97760187193
 20
-4893.137690010304
  0
VERTEX
  8
0
  6
CONTINUOUS
 62
     0
 10
38756.96546659777
 20
-4893.371275864014
  0
VERTEX
  8
0
  6
CONTINUOUS
 62
     0
 10
38756.92751797718
 20
-4893.610721681704
  0
VERTEX
  8
0
  6
CONTINUOUS
 62
     0
 10
38756.86179874649
 20
-4893.85299209247
  0
VERTEX
  8
0
  6
CONTINUOUS
 62
     0
 10
38756.76696677512
 20
-4894.0945900699
  0
VERTEX
  8
0
  6
CONTINUOUS
 62
     0
 10
38756.64245389241
 20
-4894.331673547831
  0
VERTEX
  8
0
  6
CONTINUOUS
 62
     0
 10
38756.48858840558
 20
-4894.560218050027
  0
VERTEX
  8
0
  6
CONTINUOUS
 62
     0
 10
38756.30666143465
 20
-4894.776214822118
  0
VERTEX
  8
0
  6
CONTINUOUS
 62
     0
 10
38756.09892221548
 20
-4894.975886820749
  0
VERTEX
  8
0
  6
CONTINUOUS
 62
     0
 10
38755.86849625113
 20
-4895.155899976816
  0
VERTEX
  8
0
  6
CONTINUOUS
 62
     0
 10
38755.61923113208
 20
-4895.313545934775
  0
VERTEX
  8
0
  6
CONTINUOUS
 62
     0
 10
38755.3554856511
 20
-4895.446875654633
  0
VERTEX
  8
0
  6
CONTINUOUS
 62
     0
 10
38755.08188600062
 20
-4895.554770336608
  0
VERTEX
  8
0
  6
CONTINUOUS
 62
     0
 10
38754.80307651646
 20
-4895.636945491264
  0
VERTEX
  8
0
  6
CONTINUOUS
 62
     0
 10
38754.52349102916
 20
-4895.693893457941
  0
VERTEX
  8
0
  6
CONTINUOUS
 62
     0
 10
38754.24716518562
 20
-4895.726777238808
  0
VERTEX
  8
0
  6
CONTINUOUS
 62
     0
 10
38753.97760187193
 20
-4895.737292869946
  0
VERTEX
  8
0
  6
CONTINUOUS
 62
     0
 10
38753.70803855824
 20
-4895.726777238809
  0
VERTEX
  8
0
  6
CONTINUOUS
 62
     0
 10
38753.43171271469
 20
-4895.69389345794
  0
VERTEX
  8
0
  6
CONTINUOUS
 62
     0
 10
38753.15212722739
 20
-4895.636945491265
  0
VERTEX
  8
0
  6
CONTINUOUS
 62
     0
 10
38752.87331774324
 20
-4895.554770336608
  0
VERTEX
  8
0
  6
CONTINUOUS
 62
     0
 10
38752.59971809277
 20
-4895.446875654633
  0
VERTEX
  8
0
  6
CONTINUOUS
 62
     0
 10
38752.33597261177
 20
-4895.313545934775
  0
VERTEX
  8
0
  6
CONTINUOUS
 62
     0
 10
38752.08670749273
 20
-4895.155899976815
  0
VERTEX
  8
0
  6
CONTINUOUS
 62
     0
 10
38751.85628152838
 20
-4894.975886820749
  0
VERTEX
  8
0
  6
CONTINUOUS
 62
     0
 10
38751.6485423092
 20
-4894.776214822118
  0
VERTEX
  8
0
  6
CONTINUOUS
 62
     0
 10
38751.46661533827
 20
-4894.560218050027
  0
VERTEX
  8
0
  6
CONTINUOUS
 62
     0
 10
38751.31274985144
 20
-4894.33167354783
  0
VERTEX
  8
0
  6
CONTINUOUS
 62
     0
 10
38751.18823696874
 20
-4894.094590069901
  0
VERTEX
  8
0
  6
CONTINUOUS
 62
     0
 10
38751.09340499737
 20
-4893.85299209247
  0
VERTEX
  8
0
  6
CONTINUOUS
 62
     0
 10
38751.02768576668
 20
-4893.610721681704
  0
VERTEX
  8
0
  6
CONTINUOUS
 62
     0
 10
38750.98973714608
 20
-4893.371275864014
  0
VERTEX
  8
0
  6
CONTINUOUS
 62
     0
 10
38750.97760187193
 20
-4893.137690010305
  0
SEQEND
  8
0
  6
CONTINUOUS
 62
     0
  0
LINE
  8
0
  6
CONTINUOUS
 62
     0
 10
38803.97759699973
 20
-4919.360921107766
 11
38878.97759699973
 21
-4894.943312623194
  0
LINE
  8
0
  6
CONTINUOUS
 62
     0
 10
38878.97759699973
 20
-4894.943312623205
 11
38953.97759699973
 21
-4919.360921107744
  0
LINE
  8
0
  6
CONTINUOUS
 62
     0
 10
38953.97759699973
 20
-4919.360921107766
 11
39028.97759699973
 21
-4894.943312623194
  0
LINE
  8
0
  6
CONTINUOUS
 62
     0
 10
38803.97759699973
 20
-4919.360921107766
 11
38756.97734090548
 21
-4904.059136414644
  0
LINE
  8
0
  6
CONTINUOUS
 62
     0
 10
38803.97759699973
 20
-4824.029418385884
 11
38756.97760187193
 21
-4868.468787501175
  0
LINE
  8
0
  6
CONTINUOUS
 62
     0
 10
38953.97759699973
 20
-4824.029418385884
 11
39028.97759699973
 21
-4894.943312623194
  0
LINE
  8
0
  6
CONTINUOUS
 62
     0
 10
38878.97759699973
 20
-4894.943312623205
 11
38953.97759699973
 21
-4824.029418385866
  0
LINE
  8
0
  6
CONTINUOUS
 62
     0
 10
38803.97759699973
 20
-4824.029418385884
 11
38878.97759699973
 21
-4894.943312623194
  0
LINE
  8
0
  6
CONTINUOUS
 62
     0
 10
38756.97759424253
 20
-5921.933685338444
 11
38878.97758937033
 21
-6037.28694695483
  0
LINE
  8
0
  6
CONTINUOUS
 62
     0
 10
38756.97759424253
 20
-6010.81242223129
 11
38878.97758937034
 21
-5895.459160614911
  0
LINE
  8
0
  6
CONTINUOUS
 62
     0
 10
39028.97740177099
 20
-5895.459337993597
 11
38878.97758937033
 21
-6037.286946954816
  0
LINE
  8
0
  6
CONTINUOUS
 62
     0
 10
39028.97784332433
 20
-6037.287187073015
 11
38878.97758937034
 21
-5895.459160614911
  0
POLYLINE
  8
0
  6
CONTINUOUS
 62
     0
 66
     1
  0
VERTEX
  8
0
  6
CONTINUOUS
 62
     0
 10
38756.97759424256
 20
-6259.04513597465
  0
VERTEX
  8
0
  6
CONTINUOUS
 62
     0
 10
38756.97560589336
 20
-6258.971709971172
  0
VERTEX
  8
0
  6
CONTINUOUS
 62
     0
 10
38756.97026088147
 20
-6258.898301232736
  0
VERTEX
  8
0
  6
CONTINUOUS
 62
     0
 10
38756.96163926162
 20
-6258.825055927739
  0
VERTEX
  8
0
  6
CONTINUOUS
 62
     0
 10
38756.94982108859
 20
-6258.752120224583
  0
VERTEX
  8
0
  6
CONTINUOUS
 62
     0
 10
38756.93488641713
 20
-6258.67964029167
  0
VERTEX
  8
0
  6
CONTINUOUS
 62
     0
 10
38756.91691530202
 20
-6258.607762297396
  0
VERTEX
  8
0
  6
CONTINUOUS
 62
     0
 10
38756.895987798
 20
-6258.536632410163
  0
VERTEX
  8
0
  6
CONTINUOUS
 62
     0
 10
38756.87218395986
 20
-6258.46639679837
  0
VERTEX
  8
0
  6
CONTINUOUS
 62
     0
 10
38756.84558384233
 20
-6258.397201630417
  0
VERTEX
  8
0
  6
CONTINUOUS
 62
     0
 10
38756.81626750885
 20
-6258.329193032653
  0
VERTEX
  8
0
  6
CONTINUOUS
 62
     0
 10
38756.78432103225
 20
-6258.262487958476
  0
VERTEX
  8
0
  6
CONTINUOUS
 62
     0
 10
38756.74984698844
 20
-6258.197123245738
  0
VERTEX
  8
0
  6
CONTINUOUS
 62
     0
 10
38756.71295076145
 20
-6258.133122100438
  0
VERTEX
  8
0
  6
CONTINUOUS
 62
     0
 10
38756.67373773529
 20
-6258.070507728576
  0
VERTEX
  8
0
  6
CONTINUOUS
 62
     0
 10
38756.63231329394
 20
-6258.009303336149
  0
VERTEX
  8
0
  6
CONTINUOUS
 62
     0
 10
38756.58878282141
 20
-6257.949532129157
  0
VERTEX
  8
0
  6
CONTINUOUS
 62
     0
 10
38756.5432517017
 20
-6257.891217313599
  0
VERTEX
  8
0
  6
CONTINUOUS
 62
     0
 10
38756.49582531882
 20
-6257.834382095473
  0
VERTEX
  8
0
  6
CONTINUOUS
 62
     0
 10
38756.44660905677
 20
-6257.77904968078
  0
VERTEX
  8
0
  6
CONTINUOUS
 62
     0
 10
38756.39570829954
 20
-6257.725243275517
  0
VERTEX
  8
0
  6
CONTINUOUS
 62
     0
 10
38756.34322843115
 20
-6257.672986085683
  0
VERTEX
  8
0
  6
CONTINUOUS
 62
     0
 10
38756.28927483559
 20
-6257.622301317279
  0
VERTEX
  8
0
  6
CONTINUOUS
 62
     0
 10
38756.23394661088
 20
-6257.573208323321
  0
VERTEX
  8
0
  6
CONTINUOUS
 62
     0
 10
38756.17730909325
 20
-6257.525705762583
  0
VERTEX
  8
0
  6
CONTINUOUS
 62
     0
 10
38756.11941633276
 20
-6257.47978537601
  0
VERTEX
  8
0
  6
CONTINUOUS
 62
     0
 10
38756.06032237151
 20
-6257.435438899658
  0
VERTEX
  8
0
  6
CONTINUOUS
 62
     0
 10
38756.00008125159
 20
-6257.392658069582
  0
VERTEX
  8
0
  6
CONTINUOUS
 62
     0
 10
38755.93874701508
 20
-6257.351434621835
  0
VERTEX
  8
0
  6
CONTINUOUS
 62
     0
 10
38755.87637370409
 20
-6257.311760292472
  0
VERTEX
  8
0
  6
CONTINUOUS
 62
     0
 10
38755.8130153607
 20
-6257.273626817549
  0
VERTEX
  8
0
  6
CONTINUOUS
 62
     0
 10
38755.74872602699
 20
-6257.237025933116
  0
VERTEX
  8
0
  6
CONTINUOUS
 62
     0
 10
38755.68355974507
 20
-6257.201949375232
  0
VERTEX
  8
0
  6
CONTINUOUS
 62
     0
 10
38755.61757055701
 20
-6257.168388879951
  0
VERTEX
  8
0
  6
CONTINUOUS
 62
     0
 10
38755.55081250493
 20
-6257.136336183326
  0
VERTEX
  8
0
  6
CONTINUOUS
 62
     0
 10
38755.48333963089
 20
-6257.105783021413
  0
VERTEX
  8
0
  6
CONTINUOUS
 62
     0
 10
38755.41520597701
 20
-6257.076721130265
  0
VERTEX
  8
0
  6
CONTINUOUS
 62
     0
 10
38755.34646558535
 20
-6257.049142245938
  0
VERTEX
  8
0
  6
CONTINUOUS
 62
     0
 10
38755.27717249718
 20
-6257.023038104532
  0
VERTEX
  8
0
  6
CONTINUOUS
 62
     0
 10
38755.20737563422
 20
-6256.998400729084
  0
VERTEX
  8
0
  6
CONTINUOUS
 62
     0
 10
38755.13710668945
 20
-6256.975223108253
  0
VERTEX
  8
0
  6
CONTINUOUS
 62
     0
 10
38755.06639373551
 20
-6256.953498433606
  0
VERTEX
  8
0
  6
CONTINUOUS
 62
     0
 10
38754.99526484502
 20
-6256.933219896711
  0
VERTEX
  8
0
  6
CONTINUOUS
 62
     0
 10
38754.92374809063
 20
-6256.914380689138
  0
VERTEX
  8
0
  6
CONTINUOUS
 62
     0
 10
38754.85187154498
 20
-6256.896974002451
  0
VERTEX
  8
0
  6
CONTINUOUS
 62
     0
 10
38754.77966328071
 20
-6256.880993028221
  0
VERTEX
  8
0
  6
CONTINUOUS
 62
     0
 10
38754.70715137044
 20
-6256.866430958017
  0
VERTEX
  8
0
  6
CONTINUOUS
 62
     0
 10
38754.63436388682
 20
-6256.853280983403
  0
VERTEX
  8
0
  6
CONTINUOUS
 62
     0
 10
38754.56132890249
 20
-6256.841536295949
  0
VERTEX
  8
0
  6
CONTINUOUS
 62
     0
 10
38754.48807449007
 20
-6256.831190087225
  0
VERTEX
  8
0
  6
CONTINUOUS
 62
     0
 10
38754.41462872222
 20
-6256.822235548796
  0
VERTEX
  8
0
  6
CONTINUOUS
 62
     0
 10
38754.34101967156
 20
-6256.814665872231
  0
VERTEX
  8
0
  6
CONTINUOUS
 62
     0
 10
38754.26727536102
 20
-6256.80847532011
  0
VERTEX
  8
0
  6
CONTINUOUS
 62
     0
 10
38754.19342350921
 20
-6256.803664712541
  0
VERTEX
  8
0
  6
CONTINUOUS
 62
     0
 10
38754.11949171959
 20
-6256.800237350451
  0
VERTEX
  8
0
  6
CONTINUOUS
 62
     0
 10
38754.0455075954
 20
-6256.798196539422
  0
VERTEX
  8
0
  6
CONTINUOUS
 62
     0
 10
38753.9714987399
 20
-6256.79754558504
  0
VERTEX
  8
0
  6
CONTINUOUS
 62
     0
 10
38753.89749275632
 20
-6256.798287792887
  0
VERTEX
  8
0
  6
CONTINUOUS
 62
     0
 10
38753.82351724793
 20
-6256.800426468546
  0
VERTEX
  8
0
  6
CONTINUOUS
 62
     0
 10
38753.74959981797
 20
-6256.803964917602
  0
VERTEX
  8
0
  6
CONTINUOUS
 62
     0
 10
38753.67576806968
 20
-6256.808906445637
  0
VERTEX
  8
0
  6
CONTINUOUS
 62
     0
 10
38753.6020496063
 20
-6256.815254358236
  0
VERTEX
  8
0
  6
CONTINUOUS
 62
     0
 10
38753.52847203109
 20
-6256.823011960981
  0
VERTEX
  8
0
  6
CONTINUOUS
 62
     0
 10
38753.4550629473
 20
-6256.832182559457
  0
VERTEX
  8
0
  6
CONTINUOUS
 62
     0
 10
38753.38184995817
 20
-6256.842769459246
  0
VERTEX
  8
0
  6
CONTINUOUS
 62
     0
 10
38753.30886066696
 20
-6256.854775965932
  0
VERTEX
  8
0
  6
CONTINUOUS
 62
     0
 10
38753.23612267689
 20
-6256.868205385099
  0
VERTEX
  8
0
  6
CONTINUOUS
 62
     0
 10
38753.16366359124
 20
-6256.88306102233
  0
VERTEX
  8
0
  6
CONTINUOUS
 62
     0
 10
38753.09151101324
 20
-6256.89934618321
  0
VERTEX
  8
0
  6
CONTINUOUS
 62
     0
 10
38753.01969254614
 20
-6256.91706417332
  0
VERTEX
  8
0
  6
CONTINUOUS
 62
     0
 10
38752.94823579319
 20
-6256.936218298245
  0
VERTEX
  8
0
  6
CONTINUOUS
 62
     0
 10
38752.87716835764
 20
-6256.956811863569
  0
VERTEX
  8
0
  6
CONTINUOUS
 62
     0
 10
38752.80651784272
 20
-6256.978848174874
  0
VERTEX
  8
0
  6
CONTINUOUS
 62
     0
 10
38752.7363118517
 20
-6257.002330537744
  0
VERTEX
  8
0
  6
CONTINUOUS
 62
     0
 10
38752.66657937374
 20
-6257.02726263248
  0
VERTEX
  8
0
  6
CONTINUOUS
 62
     0
 10
38752.59736372656
 20
-6257.053652013429
  0
VERTEX
  8
0
  6
CONTINUOUS
 62
     0
 10
38752.52871669042
 20
-6257.081508522984
  0
VERTEX
  8
0
  6
CONTINUOUS
 62
     0
 10
38752.46069015535
 20
-6257.110842033209
  0
VERTEX
  8
0
  6
CONTINUOUS
 62
     0
 10
38752.39333601133
 20
-6257.141662416168
  0
VERTEX
  8
0
  6
CONTINUOUS
 62
     0
 10
38752.3267061484
 20
-6257.173979543925
  0
VERTEX
  8
0
  6
CONTINUOUS
 62
     0
 10
38752.26085245655
 20
-6257.207803288546
  0
VERTEX
  8
0
  6
CONTINUOUS
 62
     0
 10
38752.19582682582
 20
-6257.243143522092
  0
VERTEX
  8
0
  6
CONTINUOUS
 62
     0
 10
38752.13168114619
 20
-6257.280010116629
  0
VERTEX
  8
0
  6
CONTINUOUS
 62
     0
 10
38752.06846730768
 20
-6257.318412944222
  0
VERTEX
  8
0
  6
CONTINUOUS
 62
     0
 10
38752.00623720032
 20
-6257.358361876934
  0
VERTEX
  8
0
  6
CONTINUOUS
 62
     0
 10
38751.9450427141
 20
-6257.39986678683
  0
VERTEX
  8
0
  6
CONTINUOUS
 62
     0
 10
38751.88493573903
 20
-6257.442937545973
  0
VERTEX
  8
0
  6
CONTINUOUS
 62
     0
 10
38751.82596816514
 20
-6257.487584026428
  0
VERTEX
  8
0
  6
CONTINUOUS
 62
     0
 10
38751.76819214101
 20
-6257.533815942201
  0
VERTEX
  8
0
  6
CONTINUOUS
 62
     0
 10
38751.7116744383
 20
-6257.581634069238
  0
VERTEX
  8
0
  6
CONTINUOUS
 62
     0
 10
38751.65650399563
 20
-6257.631025634299
  0
VERTEX
  8
0
  6
CONTINUOUS
 62
     0
 10
38751.60277160141
 20
-6257.681976733536
  0
VERTEX
  8
0
  6
CONTINUOUS
 62
     0
 10
38751.550568044
 20
-6257.7344734631
  0
VERTEX
  8
0
  6
CONTINUOUS
 62
     0
 10
38751.49998411177
 20
-6257.788501919145
  0
VERTEX
  8
0
  6
CONTINUOUS
 62
     0
 10
38751.45111059312
 20
-6257.84404819782
  0
VERTEX
  8
0
  6
CONTINUOUS
 62
     0
 10
38751.40403971035
 20
-6257.901101033247
  0
VERTEX
  8
0
  6
CONTINUOUS
 62
     0
 10
38751.35886990332
 20
-6257.959660597559
  0
VERTEX
  8
0
  6
CONTINUOUS
 62
     0
 10
38751.31570129655
 20
-6258.019730162225
  0
VERTEX
  8
0
  6
CONTINUOUS
 62
     0
 10
38751.27463401465
 20
-6258.081312998769
  0
VERTEX
  8
0
  6
CONTINUOUS
 62
     0
 10
38751.23576818221
 20
-6258.144412378712
  0
VERTEX
  8
0
  6
CONTINUOUS
 62
     0
 10
38751.19920579569
 20
-6258.209003617839
  0
VERTEX
  8
0
  6
CONTINUOUS
 62
     0
 10
38751.16505840544
 20
-6258.274919349279
  0
VERTEX
  8
0
  6
CONTINUOUS
 62
     0
 10
38751.13344060194
 20
-6258.341946802899
  0
VERTEX
  8
0
  6
CONTINUOUS
 62
     0
 10
38751.10446697694
 20
-6258.409873189476
  0
VERTEX
  8
0
  6
CONTINUOUS
 62
     0
 10
38751.0782520483
 20
-6258.478486841171
  0
VERTEX
  8
0
  6
CONTINUOUS
 62
     0
 10
38751.05489544786
 20
-6258.547801969101
  0
VERTEX
  8
0
  6
CONTINUOUS
 62
     0
 10
38751.03446397045
 20
-6258.618331049678
  0
VERTEX
  8
0
  6
CONTINUOUS
 62
     0
 10
38751.01702002549
 20
-6258.690653103151
  0
VERTEX
  8
0
  6
CONTINUOUS
 62
     0
 10
38751.0026265673
 20
-6258.765323249216
  0
VERTEX
  8
0
  6
CONTINUOUS
 62
     0
 10
38750.99137720892
 20
-6258.841551806662
  0
VERTEX
  8
0
  6
CONTINUOUS
 62
     0
 10
38750.9834119502
 20
-6258.916514404012
  0
VERTEX
  8
0
  6
CONTINUOUS
 62
     0
 10
38750.97887465162
 20
-6258.987217330999
  0
VERTEX
  8
0
  6
CONTINUOUS
 62
     0
 10
38750.97760651307
 20
-6259.051501553425
  0
SEQEND
  8
0
  6
CONTINUOUS
 62
     0
  0
ARC
  8
0
  6
CONTINUOUS
 62
     0
 10
38953.98133637557
 20
-6127.046755544251
 40
243.4295481209518
 50
72.055143182839
 51
107.94485681716
  0
ARC
  8
0
  6
CONTINUOUS
 62
     0
 10
38803.36917247213
 20
-6131.649531289214
 40
248.0009155180434
 50
72.246434055416
 51
101.488544907859
  0
ARC
  8
0
  6
CONTINUOUS
 62
     0
 10
38878.9775866652
 20
-5015.479611347144
 40
205.6165522158951
 50
68.607374959375
 51
111.39258624023
  0
ARC
  8
0
  6
CONTINUOUS
 62
     0
 10
38728.97731674388
 20
-5226.560631733168
 40
409.4585647774242
 50
79.445636207022
 51
86.078843354424
  0
ARC
  8
0
  6
CONTINUOUS
 62
     0
 10
39969.74843104486
 20
-8966.466722390142
 40
2531.574270630285
 50
79.232436890361
 51
90.505310127858
  0
LINE
  8
0
  6
CONTINUOUS
 62
     0
 10
40522.16831423263
 20
-5901.378732541837
 11
40504.50084509084
 21
-5896.419358795879
  0
ARC
  8
0
  6
CONTINUOUS
 62
     0
 10
40512.97945241968
 20
-5934.113497220736
 40
33.99999999999999
 50
344.320222873789
 51
74.320222873712
  0
LINE
  8
0
  6
CONTINUOUS
 62
     0
 10
40330.00019226522
 20
-6295.091977406954
 11
39848.89344494211
 21
-6261.449716362694
  0
LINE
  8
0
 10
40298.31721445671
 20
-6387.106026195607
 11
40464.9824568056
 21
-5903.075016435497
  0
POLYLINE
  8
0
  6
CONTINUOUS
 62
     0
 66
     1
 70
     1
  0
VERTEX
  8
0
  6
CONTINUOUS
 62
     0
 10
38756.97759424253
 20
-5890.865018175512
  0
VERTEX
  8
0
  6
CONTINUOUS
 62
     0
 10
38756.97604375868
 20
-5890.800932336793
  0
VERTEX
  8
0
  6
CONTINUOUS
 62
     0
 10
38756.97192886854
 20
-5890.736845489293
  0
VERTEX
  8
0
  6
CONTINUOUS
 62
     0
 10
38756.96530275243
 20
-5890.672854825461
  0
VERTEX
  8
0
  6
CONTINUOUS
 62
     0
 10
38756.95621859068
 20
-5890.609057537748
  0
VERTEX
  8
0
  6
CONTINUOUS
 62
     0
 10
38756.9447295636
 20
-5890.5455508186
  0
VERTEX
  8
0
  6
CONTINUOUS
 62
     0
 10
38756.93088885152
 20
-5890.482431860467
  0
VERTEX
  8
0
  6
CONTINUOUS
 62
     0
 10
38756.91474963479
 20
-5890.4197978558
  0
VERTEX
  8
0
  6
CONTINUOUS
 62
     0
 10
38756.89636509369
 20
-5890.357745997046
  0
VERTEX
  8
0
  6
CONTINUOUS
 62
     0
 10
38756.87578840858
 20
-5890.296373476654
  0
VERTEX
  8
0
  6
CONTINUOUS
 62
     0
 10
38756.85307275977
 20
-5890.235777487076
  0
VERTEX
  8
0
  6
CONTINUOUS
 62
     0
 10
38756.82827132758
 20
-5890.176055220758
  0
VERTEX
  8
0
  6
CONTINUOUS
 62
     0
 10
38756.80143821131
 20
-5890.11729942238
  0
VERTEX
  8
0
  6
CONTINUOUS
 62
     0
 10
38756.77263738862
 20
-5890.059555025907
  0
VERTEX
  8
0
  6
CONTINUOUS
 62
     0
 10
38756.7419388479
 20
-5890.002837873635
  0
VERTEX
  8
0
  6
CONTINUOUS
 62
     0
 10
38756.70941266264
 20
-5889.947163396037
  0
VERTEX
  8
0
  6
CONTINUOUS
 62
     0
 10
38756.67512890632
 20
-5889.89254702359
  0
VERTEX
  8
0
  6
CONTINUOUS
 62
     0
 10
38756.63915765243
 20
-5889.83900418677
  0
VERTEX
  8
0
  6
CONTINUOUS
 62
     0
 10
38756.60156897445
 20
-5889.786550316049
  0
VERTEX
  8
0
  6
CONTINUOUS
 62
     0
 10
38756.56243294587
 20
-5889.735200841905
  0
VERTEX
  8
0
  6
CONTINUOUS
 62
     0
 10
38756.52181964018
 20
-5889.684971194813
  0
VERTEX
  8
0
  6
CONTINUOUS
 62
     0
 10
38756.47979913086
 20
-5889.635876805247
  0
VERTEX
  8
0
  6
CONTINUOUS
 62
     0
 10
38756.43644149139
 20
-5889.587933103682
  0
VERTEX
  8
0
  6
CONTINUOUS
 62
     0
 10
38756.39181679527
 20
-5889.541155520595
  0
VERTEX
  8
0
  6
CONTINUOUS
 62
     0
 10
38756.34599511597
 20
-5889.495559486459
  0
VERTEX
  8
0
  6
CONTINUOUS
 62
     0
 10
38756.29904652698
 20
-5889.451160431751
  0
VERTEX
  8
0
  6
CONTINUOUS
 62
     0
 10
38756.25103929288
 20
-5889.407972678177
  0
VERTEX
  8
0
  6
CONTINUOUS
 62
     0
 10
38756.20202181392
 20
-5889.36599837164
  0
VERTEX
  8
0
  6
CONTINUOUS
 62
     0
 10
38756.15203020666
 20
-5889.325232128771
  0
VERTEX
  8
0
  6
CONTINUOUS
 62
     0
 10
38756.10110040558
 20
-5889.28566845459
  0
VERTEX
  8
0
  6
CONTINUOUS
 62
     0
 10
38756.04926834514
 20
-5889.247301854106
  0
VERTEX
  8
0
  6
CONTINUOUS
 62
     0
 10
38755.99656995978
 20
-5889.21012683234
  0
VERTEX
  8
0
  6
CONTINUOUS
 62
     0
 10
38755.94304118399
 20
-5889.174137894304
  0
VERTEX
  8
0
  6
CONTINUOUS
 62
     0
 10
38755.88871795224
 20
-5889.139329545016
  0
VERTEX
  8
0
  6
CONTINUOUS
 62
     0
 10
38755.83363619896
 20
-5889.105696289491
  0
VERTEX
  8
0
  6
CONTINUOUS
 62
     0
 10
38755.77783185865
 20
-5889.073232632742
  0
VERTEX
  8
0
  6
CONTINUOUS
 62
     0
 10
38755.72134086576
 20
-5889.041933079788
  0
VERTEX
  8
0
  6
CONTINUOUS
 62
     0
 10
38755.66419915476
 20
-5889.01179213564
  0
VERTEX
  8
0
  6
CONTINUOUS
 62
     0
 10
38755.60644266009
 20
-5888.982804305318
  0
VERTEX
  8
0
  6
CONTINUOUS
 62
     0
 10
38755.54810731625
 20
-5888.954964093837
  0
VERTEX
  8
0
  6
CONTINUOUS
 62
     0
 10
38755.48922905768
 20
-5888.928266006209
  0
VERTEX
  8
0
  6
CONTINUOUS
 62
     0
 10
38755.42984381886
 20
-5888.90270454745
  0
VERTEX
  8
0
  6
CONTINUOUS
 62
     0
 10
38755.36998753424
 20
-5888.878274222579
  0
VERTEX
  8
0
  6
CONTINUOUS
 62
     0
 10
38755.30969613829
 20
-5888.854969536609
  0
VERTEX
  8
0
  6
CONTINUOUS
 62
     0
 10
38755.24900513861
 20
-5888.832785018481
  0
VERTEX
  8
0
  6
CONTINUOUS
 62
     0
 10
38755.18794145583
 20
-5888.811715678407
  0
VERTEX
  8
0
  6
CONTINUOUS
 62
     0
 10
38755.1265240565
 20
-5888.79175697241
  0
VERTEX
  8
0
  6
CONTINUOUS
 62
     0
 10
38755.06477160707
 20
-5888.772904373325
  0
VERTEX
  8
0
  6
CONTINUOUS
 62
     0
 10
38755.00270277403
 20
-5888.755153353988
  0
VERTEX
  8
0
  6
CONTINUOUS
 62
     0
 10
38754.94033622385
 20
-5888.738499387238
  0
VERTEX
  8
0
  6
CONTINUOUS
 62
     0
 10
38754.877690623
 20
-5888.72293794591
  0
VERTEX
  8
0
  6
CONTINUOUS
 62
     0
 10
38754.81478463795
 20
-5888.708464502844
  0
VERTEX
  8
0
  6
CONTINUOUS
 62
     0
 10
38754.75163693517
 20
-5888.695074530872
  0
VERTEX
  8
0
  6
CONTINUOUS
 62
     0
 10
38754.68826618114
 20
-5888.682763502835
  0
VERTEX
  8
0
  6
CONTINUOUS
 62
     0
 10
38754.62469104232
 20
-5888.671526891567
  0
VERTEX
  8
0
  6
CONTINUOUS
 62
     0
 10
38754.5609301852
 20
-5888.661360169908
  0
VERTEX
  8
0
  6
CONTINUOUS
 62
     0
 10
38754.49700227624
 20
-5888.652258810694
  0
VERTEX
  8
0
  6
CONTINUOUS
 62
     0
 10
38754.4329259819
 20
-5888.644218286759
  0
VERTEX
  8
0
  6
CONTINUOUS
 62
     0
 10
38754.36871996867
 20
-5888.637234070944
  0
VERTEX
  8
0
  6
CONTINUOUS
 62
     0
 10
38754.30440289948
 20
-5888.631301712307
  0
VERTEX
  8
0
  6
CONTINUOUS
 62
     0
 10
38754.23999330616
 20
-5888.626419584843
  0
VERTEX
  8
0
  6
CONTINUOUS
 62
     0
 10
38754.17550955385
 20
-5888.622589654206
  0
VERTEX
  8
0
  6
CONTINUOUS
 62
     0
 10
38754.11096999691
 20
-5888.619814118395
  0
VERTEX
  8
0
  6
CONTINUOUS
 62
     0
 10
38754.04639298969
 20
-5888.618095175404
  0
VERTEX
  8
0
  6
CONTINUOUS
 62
     0
 10
38753.98179688657
 20
-5888.617435023231
  0
VERTEX
  8
0
  6
CONTINUOUS
 62
     0
 10
38753.91720004188
 20
-5888.617835859875
  0
VERTEX
  8
0
  6
CONTINUOUS
 62
     0
 10
38753.85262081001
 20
-5888.619299883331
  0
VERTEX
  8
0
  6
CONTINUOUS
 62
     0
 10
38753.7880775453
 20
-5888.621829291599
  0
VERTEX
  8
0
  6
CONTINUOUS
 62
     0
 10
38753.7235886021
 20
-5888.625426282674
  0
VERTEX
  8
0
  6
CONTINUOUS
 62
     0
 10
38753.65917233479
 20
-5888.630093054555
  0
VERTEX
  8
0
  6
CONTINUOUS
 62
     0
 10
38753.59484709771
 20
-5888.635831805239
  0
VERTEX
  8
0
  6
CONTINUOUS
 62
     0
 10
38753.53063124523
 20
-5888.642644732724
  0
VERTEX
  8
0
  6
CONTINUOUS
 62
     0
 10
38753.4665431317
 20
-5888.650534035005
  0
VERTEX
  8
0
  6
CONTINUOUS
 62
     0
 10
38753.40260111149
 20
-5888.659501910081
  0
VERTEX
  8
0
  6
CONTINUOUS
 62
     0
 10
38753.33882353895
 20
-5888.66955055595
  0
VERTEX
  8
0
  6
CONTINUOUS
 62
     0
 10
38753.27522876845
 20
-5888.680682170608
  0
VERTEX
  8
0
  6
CONTINUOUS
 62
     0
 10
38753.21183515432
 20
-5888.692898952054
  0
VERTEX
  8
0
  6
CONTINUOUS
 62
     0
 10
38753.14866105095
 20
-5888.706203098282
  0
VERTEX
  8
0
  6
CONTINUOUS
 62
     0
 10
38753.08572481268
 20
-5888.720596807294
  0
VERTEX
  8
0
  6
CONTINUOUS
 62
     0
 10
38753.02304479389
 20
-5888.736082277085
  0
VERTEX
  8
0
  6
CONTINUOUS
 62
     0
 10
38752.96063934892
 20
-5888.752661705652
  0
VERTEX
  8
0
  6
CONTINUOUS
 62
     0
 10
38752.89852683212
 20
-5888.770337290993
  0
VERTEX
  8
0
  6
CONTINUOUS
 62
     0
 10
38752.83672559787
 20
-5888.789111231104
  0
VERTEX
  8
0
  6
CONTINUOUS
 62
     0
 10
38752.77525400052
 20
-5888.808985723984
  0
VERTEX
  8
0
  6
CONTINUOUS
 62
     0
 10
38752.71413039444
 20
-5888.829962967635
  0
VERTEX
  8
0
  6
CONTINUOUS
 62
     0
 10
38752.65337598336
 20
-5888.852045930442
  0
VERTEX
  8
0
  6
CONTINUOUS
 62
     0
 10
38752.59302273116
 20
-5888.875240490052
  0
VERTEX
  8
0
  6
CONTINUOUS
 62
     0
 10
38752.53310514134
 20
-5888.899553210746
  0
VERTEX
  8
0
  6
CONTINUOUS
 62
     0
 10
38752.47365771734
 20
-5888.924990656799
  0
VERTEX
  8
0
  6
CONTINUOUS
 62
     0
 10
38752.41471496264
 20
-5888.951559392493
  0
VERTEX
  8
0
  6
CONTINUOUS
 62
     0
 10
38752.35631138073
 20
-5888.979265982103
  0
VERTEX
  8
0
  6
CONTINUOUS
 62
     0
 10
38752.29848147506
 20
-5889.008116989911
  0
VERTEX
  8
0
  6
CONTINUOUS
 62
     0
 10
38752.24125974912
 20
-5889.038118980193
  0
VERTEX
  8
0
  6
CONTINUOUS
 62
     0
 10
38752.18468070638
 20
-5889.06927851723
  0
VERTEX
  8
0
  6
CONTINUOUS
 62
     0
 10
38752.12877885029
 20
-5889.101602165299
  0
VERTEX
  8
0
  6
CONTINUOUS
 62
     0
 10
38752.07358868434
 20
-5889.135096488678
  0
VERTEX
  8
0
  6
CONTINUOUS
 62
     0
 10
38752.01914471201
 20
-5889.169768051646
  0
VERTEX
  8
0
  6
CONTINUOUS
 62
     0
 10
38751.96548143676
 20
-5889.205623418483
  0
VERTEX
  8
0
  6
CONTINUOUS
 62
     0
 10
38751.91263336206
 20
-5889.242669153465
  0
VERTEX
  8
0
  6
CONTINUOUS
 62
     0
 10
38751.86063499138
 20
-5889.280911820872
  0
VERTEX
  8
0
  6
CONTINUOUS
 62
     0
 10
38751.8095208282
 20
-5889.320357984984
  0
VERTEX
  8
0
  6
CONTINUOUS
 62
     0
 10
38751.75932617106
 20
-5889.361013724114
  0
VERTEX
  8
0
  6
CONTINUOUS
 62
     0
 10
38751.71009979575
 20
-5889.402876878831
  0
VERTEX
  8
0
  6
CONTINUOUS
 62
     0
 10
38751.66190172602
 20
-5889.445938414619
  0
VERTEX
  8
0
  6
CONTINUOUS
 62
     0
 10
38751.61479233023
 20
-5889.490189086328
  0
VERTEX
  8
0
  6
CONTINUOUS
 62
     0
 10
38751.56883197671
 20
-5889.535619648804
  0
VERTEX
  8
0
  6
CONTINUOUS
 62
     0
 10
38751.52408103381
 20
-5889.582220856895
  0
VERTEX
  8
0
  6
CONTINUOUS
 62
     0
 10
38751.48059986989
 20
-5889.629983465451
  0
VERTEX
  8
0
  6
CONTINUOUS
 62
     0
 10
38751.43844887427
 20
-5889.678898267935
  0
VERTEX
  8
0
  6
CONTINUOUS
 62
     0
 10
38751.39769048545
 20
-5889.728959827532
  0
VERTEX
  8
0
  6
CONTINUOUS
 62
     0
 10
38751.35839088175
 20
-5889.780169587425
  0
VERTEX
  8
0
  6
CONTINUOUS
 62
     0
 10
38751.32061663949
 20
-5889.832529722965
  0
VERTEX
  8
0
  6
CONTINUOUS
 62
     0
 10
38751.28443433501
 20
-5889.886042409501
  0
VERTEX
  8
0
  6
CONTINUOUS
 62
     0
 10
38751.2499105446
 20
-5889.940709822385
  0
VERTEX
  8
0
  6
CONTINUOUS
 62
     0
 10
38751.21711202443
 20
-5889.996531451291
  0
VERTEX
  8
0
  6
CONTINUOUS
 62
     0
 10
38751.18611003273
 20
-5890.053439549404
  0
VERTEX
  8
0
  6
CONTINUOUS
 62
     0
 10
38751.15698054302
 20
-5890.111295948799
  0
VERTEX
  8
0
  6
CONTINUOUS
 62
     0
 10
38751.12979975135
 20
-5890.169959158527
  0
VERTEX
  8
0
  6
CONTINUOUS
 62
     0
 10
38751.10464385376
 20
-5890.22928768764
  0
VERTEX
  8
0
  6
CONTINUOUS
 62
     0
 10
38751.08158904332
 20
-5890.289140090525
  0
VERTEX
  8
0
  6
CONTINUOUS
 62
     0
 10
38751.06070423523
 20
-5890.349485354718
  0
VERTEX
  8
0
  6
CONTINUOUS
 62
     0
 10
38751.04203542726
 20
-5890.410640214805
  0
VERTEX
  8
0
  6
CONTINUOUS
 62
     0
 10
38751.02562411762
 20
-5890.472989681475
  0
VERTEX
  8
0
  6
CONTINUOUS
 62
     0
 10
38751.01151180449
 20
-5890.536918765413
  0
VERTEX
  8
0
  6
CONTINUOUS
 62
     0
 10
38750.99974253307
 20
-5890.602700756775
  0
VERTEX
  8
0
  6
CONTINUOUS
 62
     0
 10
38750.99039114541
 20
-5890.66925808646
  0
VERTEX
  8
0
  6
CONTINUOUS
 62
     0
 10
38750.98355293154
 20
-5890.734616264802
  0
VERTEX
  8
0
  6
CONTINUOUS
 62
     0
 10
38750.97932354927
 20
-5890.796784669807
  0
VERTEX
  8
0
  6
CONTINUOUS
 62
     0
 10
38750.97773280246
 20
-5890.853954291238
  0
VERTEX
  8
0
  6
CONTINUOUS
 62
     0
 10
38750.97759424253
 20
-5913.147717095337
  0
VERTEX
  8
0
  6
CONTINUOUS
 62
     0
 10
38750.97759424251
 20
-5945.869033833556
  0
VERTEX
  8
0
  6
CONTINUOUS
 62
     0
 10
38750.97759424249
 20
-5978.590350571779
  0
VERTEX
  8
0
  6
CONTINUOUS
 62
     0
 10
38750.97759424247
 20
-6011.311667310001
  0
VERTEX
  8
0
  6
CONTINUOUS
 62
     0
 10
38750.97759424246
 20
-6044.032984048224
  0
VERTEX
  8
0
  6
CONTINUOUS
 62
     0
 10
38750.97759424245
 20
-6076.754300786444
  0
VERTEX
  8
0
  6
CONTINUOUS
 62
     0
 10
38750.97759424242
 20
-6109.475617524666
  0
VERTEX
  8
0
  6
CONTINUOUS
 62
     0
 10
38750.97759424242
 20
-6142.196934262888
  0
VERTEX
  8
0
  6
CONTINUOUS
 62
     0
 10
38750.97759424239
 20
-6174.918251001111
  0
VERTEX
  8
0
  6
CONTINUOUS
 62
     0
 10
38750.97759424238
 20
-6207.639567739333
  0
VERTEX
  8
0
  6
CONTINUOUS
 62
     0
 10
38750.97759424236
 20
-6240.360884477553
  0
VERTEX
  8
0
  6
CONTINUOUS
 62
     0
 10
38750.97759424235
 20
-6273.082201215775
  0
VERTEX
  8
0
  6
CONTINUOUS
 62
     0
 10
38750.97759424233
 20
-6305.803517953997
  0
VERTEX
  8
0
  6
CONTINUOUS
 62
     0
 10
38750.97759424231
 20
-6338.52483469222
  0
VERTEX
  8
0
  6
CONTINUOUS
 62
     0
 10
38750.97759424231
 20
-6371.246151430442
  0
VERTEX
  8
0
  6
CONTINUOUS
 62
     0
 10
38750.97776857694
 20
-6398.025289470411
  0
VERTEX
  8
0
  6
CONTINUOUS
 62
     0
 10
38750.98490236683
 20
-6398.20221852354
  0
VERTEX
  8
0
  6
CONTINUOUS
 62
     0
 10
38751.00297841847
 20
-6398.382381322886
  0
VERTEX
  8
0
  6
CONTINUOUS
 62
     0
 10
38751.03261105523
 20
-6398.564848711349
  0
VERTEX
  8
0
  6
CONTINUOUS
 62
     0
 10
38751.07431799737
 20
-6398.748581652177
  0
VERTEX
  8
0
  6
CONTINUOUS
 62
     0
 10
38751.12849896777
 20
-6398.932442577645
  0
VERTEX
  8
0
  6
CONTINUOUS
 62
     0
 10
38751.19541566777
 20
-6399.115211385085
  0
VERTEX
  8
0
  6
CONTINUOUS
 62
     0
 10
38751.27517425275
 20
-6399.295605945675
  0
VERTEX
  8
0
  6
CONTINUOUS
 62
     0
 10
38751.36771144272
 20
-6399.472306684585
  0
VERTEX
  8
0
  6
CONTINUOUS
 62
     0
 10
38751.47278531445
 20
-6399.643984473094
  0
VERTEX
  8
0
  6
CONTINUOUS
 62
     0
 10
38751.589971636
 20
-6399.809330775739
  0
VERTEX
  8
0
  6
CONTINUOUS
 62
     0
 10
38751.7186663244
 20
-6399.967088751805
  0
VERTEX
  8
0
  6
CONTINUOUS
 62
     0
 10
38751.85809425308
 20
-6400.116083852577
  0
VERTEX
  8
0
  6
CONTINUOUS
 62
     0
 10
38752.00732423747
 20
-6400.255252407667
  0
VERTEX
  8
0
  6
CONTINUOUS
 62
     0
 10
38752.16528962126
 20
-6400.383666768334
  0
VERTEX
  8
0
  6
CONTINUOUS
 62
     0
 10
38752.33081351686
 20
-6400.500555770696
  0
VERTEX
  8
0
  6
CONTINUOUS
 62
     0
 10
38752.50263745667
 20
-6400.605319579879
  0
VERTEX
  8
0
  6
CONTINUOUS
 62
     0
 10
38752.67945202026
 20
-6400.697538347413
  0
VERTEX
  8
0
  6
CONTINUOUS
 62
     0
 10
38752.85992793021
 20
-6400.776974519475
  0
VERTEX
  8
0
  6
CONTINUOUS
 62
     0
 10
38753.04274616068
 20
-6400.843569031738
  0
VERTEX
  8
0
  6
CONTINUOUS
 62
     0
 10
38753.22662576287
 20
-6400.897431979312
  0
VERTEX
  8
0
  6
CONTINUOUS
 62
     0
 10
38753.41034835679
 20
-6400.938828627678
  0
VERTEX
  8
0
  6
CONTINUOUS
 62
     0
 10
38753.59277853747
 20
-6400.96816181499
  0
VERTEX
  8
0
  6
CONTINUOUS
 62
     0
 10
38753.7728797616
 20
-6400.985951881449
  0
VERTEX
  8
0
  6
CONTINUOUS
 62
     0
 10
38753.94972558685
 20
-6400.992815254608
  0
VERTEX
  8
0
  6
CONTINUOUS
 62
     0
 10
38754.12546290944
 20
-6400.989298294598
  0
VERTEX
  8
0
  6
CONTINUOUS
 62
     0
 10
38754.30462015374
 20
-6400.975067108754
  0
VERTEX
  8
0
  6
CONTINUOUS
 62
     0
 10
38754.48641445755
 20
-6400.949480172108
  0
VERTEX
  8
0
  6
CONTINUOUS
 62
     0
 10
38754.66984342205
 20
-6400.911984111338
  0
VERTEX
  8
0
  6
CONTINUOUS
 62
     0
 10
38754.85380169594
 20
-6400.862136313216
  0
VERTEX
  8
0
  6
CONTINUOUS
 62
     0
 10
38755.03709537863
 20
-6400.799625544254
  0
VERTEX
  8
0
  6
CONTINUOUS
 62
     0
 10
38755.21846101576
 20
-6400.724290462619
  0
VERTEX
  8
0
  6
CONTINUOUS
 62
     0
 10
38755.39658885347
 20
-6400.636134879289
  0
VERTEX
  8
0
  6
CONTINUOUS
 62
     0
 10
38755.57014970027
 20
-6400.53533868019
  0
VERTEX
  8
0
  6
CONTINUOUS
 62
     0
 10
38755.7378244374
 20
-6400.422263473879
  0
VERTEX
  8
0
  6
CONTINUOUS
 62
     0
 10
38755.89833495203
 20
-6400.297452278473
  0
VERTEX
  8
0
  6
CONTINUOUS
 62
     0
 10
38756.05047507781
 20
-6400.161622892861
  0
VERTEX
  8
0
  6
CONTINUOUS
 62
     0
 10
38756.1931400387
 20
-6400.015654984826
  0
VERTEX
  8
0
  6
CONTINUOUS
 62
     0
 10
38756.32535292475
 20
-6399.860571336068
  0
VERTEX
  8
0
  6
CONTINUOUS
 62
     0
 10
38756.44628688291
 20
-6399.697514070819
  0
VERTEX
  8
0
  6
CONTINUOUS
 62
     0
 10
38756.55528197187
 20
-6399.52771701995
  0
VERTEX
  8
0
  6
CONTINUOUS
 62
     0
 10
38756.65185597985
 20
-6399.35247560297
  0
VERTEX
  8
0
  6
CONTINUOUS
 62
     0
 10
38756.73570890316
 20
-6399.173115724331
  0
VERTEX
  8
0
  6
CONTINUOUS
 62
     0
 10
38756.80672118774
 20
-6398.990963170785
  0
VERTEX
  8
0
  6
CONTINUOUS
 62
     0
 10
38756.86494620864
 20
-6398.80731487154
  0
VERTEX
  8
0
  6
CONTINUOUS
 62
     0
 10
38756.91059776818
 20
-6398.623413163456
  0
VERTEX
  8
0
  6
CONTINUOUS
 62
     0
 10
38756.94403361077
 20
-6398.440423919436
  0
VERTEX
  8
0
  6
CONTINUOUS
 62
     0
 10
38756.96573607194
 20
-6398.2594190831
  0
VERTEX
  8
0
  6
CONTINUOUS
 62
     0
 10
38756.97629100233
 20
-6398.081363839446
  0
VERTEX
  8
0
  6
CONTINUOUS
 62
     0
 10
38756.97759424232
 20
-6381.690930195643
  0
VERTEX
  8
0
  6
CONTINUOUS
 62
     0
 10
38756.97759424237
 20
-6348.969202727633
  0
VERTEX
  8
0
  6
CONTINUOUS
 62
     0
 10
38756.97759424239
 20
-6316.247475259621
  0
VERTEX
  8
0
  6
CONTINUOUS
 62
     0
 10
38756.97759424242
 20
-6283.52574779161
  0
VERTEX
  8
0
  6
CONTINUOUS
 62
     0
 10
38756.97759424245
 20
-6250.8040203236
  0
VERTEX
  8
0
  6
CONTINUOUS
 62
     0
 10
38756.97759424247
 20
-6218.082292855589
  0
VERTEX
  8
0
  6
CONTINUOUS
 62
     0
 10
38756.97759424249
 20
-6185.360565387577
  0
VERTEX
  8
0
  6
CONTINUOUS
 62
     0
 10
38756.9775942425
 20
-6152.638837919566
  0
VERTEX
  8
0
  6
CONTINUOUS
 62
     0
 10
38756.97759424251
 20
-6119.917110451556
  0
VERTEX
  8
0
  6
CONTINUOUS
 62
     0
 10
38756.97759424252
 20
-6087.195382983546
  0
VERTEX
  8
0
  6
CONTINUOUS
 62
     0
 10
38756.97759424253
 20
-6054.473655515536
  0
VERTEX
  8
0
  6
CONTINUOUS
 62
     0
 10
38756.97759424253
 20
-6021.751928047526
  0
VERTEX
  8
0
  6
CONTINUOUS
 62
     0
 10
38756.97759424253
 20
-5989.030200579515
  0
VERTEX
  8
0
  6
CONTINUOUS
 62
     0
 10
38756.97759424253
 20
-5956.308473111504
  0
VERTEX
  8
0
  6
CONTINUOUS
 62
     0
 10
38756.97759424253
 20
-5923.586745643494
  0
SEQEND
  8
0
  6
CONTINUOUS
 62
     0
  0
POLYLINE
  8
0
 66
     1
 70
     1
  0
VERTEX
  8
0
 10
38773.97758937033
 20
-6664.82651730407
  0
VERTEX
  8
0
 10
38778.60742532784
 20
-6664.82651730407
  0
VERTEX
  8
0
 10
38783.23726128534
 20
-6664.82651730407
  0
VERTEX
  8
0
 10
38787.86709724285
 20
-6664.82651730407
  0
VERTEX
  8
0
 10
38792.49693320035
 20
-6664.82651730407
  0
VERTEX
  8
0
 10
38797.12676915786
 20
-6664.82651730407
  0
VERTEX
  8
0
 10
38800.97758937033
 20
-6656.256996435183
  0
VERTEX
  8
0
 10
38800.97758937033
 20
-6605.326734614408
  0
VERTEX
  8
0
 10
38800.97758937033
 20
-6554.396472793631
  0
VERTEX
  8
0
 10
38800.97758937033
 20
-6503.466210972853
  0
VERTEX
  8
0
 10
38800.97758937033
 20
-6452.535949152076
  0
VERTEX
  8
0
 10
38800.97758937033
 20
-6401.6056873313
  0
VERTEX
  8
0
 10
38800.94727456905
 20
-6367.764595078018
  0
VERTEX
  8
0
 10
38800.8235957117
 20
-6367.657225722792
  0
VERTEX
  8
0
 10
38800.65518713053
 20
-6367.604677800865
  0
VERTEX
  8
0
 10
38800.47079222214
 20
-6367.57272968544
  0
VERTEX
  8
0
 10
38800.28616234553
 20
-6367.542615552828
  0
VERTEX
  8
0
 10
38800.10209068044
 20
-6367.513370205665
  0
VERTEX
  8
0
 10
38799.91856947392
 20
-6367.484981577485
  0
VERTEX
  8
0
 10
38799.73559097303
 20
-6367.457437601826
  0
VERTEX
  8
0
 10
38799.55314742485
 20
-6367.430726212221
  0
VERTEX
  8
0
 10
38799.37123107642
 20
-6367.404835342208
  0
VERTEX
  8
0
 10
38799.18983417482
 20
-6367.37975292532
  0
VERTEX
  8
0
 10
38799.00894896709
 20
-6367.355466895093
  0
VERTEX
  8
0
 10
38798.82856770033
 20
-6367.331965185063
  0
VERTEX
  8
0
 10
38798.64868262156
 20
-6367.309235728766
  0
VERTEX
  8
0
 10
38798.46928597787
 20
-6367.287266459736
  0
VERTEX
  8
0
 10
38798.29037001632
 20
-6367.26604531151
  0
VERTEX
  8
0
 10
38798.11192698396
 20
-6367.245560217621
  0
VERTEX
  8
0
 10
38797.93394912786
 20
-6367.225799111608
  0
VERTEX
  8
0
 10
38797.75642869508
 20
-6367.206749927003
  0
VERTEX
  8
0
 10
38797.57935793269
 20
-6367.188400597343
  0
VERTEX
  8
0
 10
38797.40272908773
 20
-6367.170739056164
  0
VERTEX
  8
0
 10
38797.22653440729
 20
-6367.153753237001
  0
VERTEX
  8
0
 10
38797.05076613842
 20
-6367.137431073389
  0
VERTEX
  8
0
 10
38796.87541652819
 20
-6367.121760498864
  0
VERTEX
  8
0
 10
38796.70047782365
 20
-6367.106729446959
  0
VERTEX
  8
0
 10
38796.52594227186
 20
-6367.092325851214
  0
VERTEX
  8
0
 10
38796.3518021199
 20
-6367.078537645159
  0
VERTEX
  8
0
 10
38796.17804961481
 20
-6367.065352762335
  0
VERTEX
  8
0
 10
38796.00467700368
 20
-6367.052759136275
  0
VERTEX
  8
0
 10
38795.83167653355
 20
-6367.040744700513
  0
VERTEX
  8
0
 10
38795.65904045149
 20
-6367.029297388586
  0
VERTEX
  8
0
 10
38795.48676100456
 20
-6367.018405134028
  0
VERTEX
  8
0
 10
38795.31483043983
 20
-6367.008055870377
  0
VERTEX
  8
0
 10
38795.14324100435
 20
-6366.998237531165
  0
VERTEX
  8
0
 10
38794.97198494519
 20
-6366.988938049932
  0
VERTEX
  8
0
 10
38794.80105450941
 20
-6366.980145360209
  0
VERTEX
  8
0
 10
38794.63044194408
 20
-6366.971847395534
  0
VERTEX
  8
0
 10
38794.46013949626
 20
-6366.96403208944
  0
VERTEX
  8
0
 10
38794.29013941299
 20
-6366.956687375467
  0
VERTEX
  8
0
 10
38794.12043394137
 20
-6366.949801187146
  0
VERTEX
  8
0
 10
38793.95101532844
 20
-6366.943361458014
  0
VERTEX
  8
0
 10
38793.78187582125
 20
-6366.937356121606
  0
VERTEX
  8
0
 10
38793.61300766689
 20
-6366.931773111458
  0
VERTEX
  8
0
 10
38793.44440311241
 20
-6366.926600361106
  0
VERTEX
  8
0
 10
38793.27605440487
 20
-6366.921825804084
  0
VERTEX
  8
0
 10
38793.10795379134
 20
-6366.917437373929
  0
VERTEX
  8
0
 10
38792.94009351888
 20
-6366.913423004175
  0
VERTEX
  8
0
 10
38792.77246583453
 20
-6366.909770628357
  0
VERTEX
  8
0
 10
38792.60506298539
 20
-6366.906468180014
  0
VERTEX
  8
0
 10
38792.43787721849
 20
-6366.903503592676
  0
VERTEX
  8
0
 10
38792.27090078092
 20
-6366.900864799883
  0
VERTEX
  8
0
 10
38792.10412591972
 20
-6366.898539735168
  0
VERTEX
  8
0
 10
38791.93754488197
 20
-6366.896516332068
  0
VERTEX
  8
0
 10
38791.77114991472
 20
-6366.894782524117
  0
VERTEX
  8
0
 10
38791.60493326504
 20
-6366.893326244852
  0
VERTEX
  8
0
 10
38791.43888717997
 20
-6366.892135427805
  0
VERTEX
  8
0
 10
38791.27300390661
 20
-6366.891198006517
  0
VERTEX
  8
0
 10
38791.10727569199
 20
-6366.89050191452
  0
VERTEX
  8
0
 10
38790.94169478319
 20
-6366.890035085347
  0
VERTEX
  8
0
 10
38790.77625342727
 20
-6366.889785452538
  0
VERTEX
  8
0
 10
38790.61094387129
 20
-6366.889740949627
  0
VERTEX
  8
0
 10
38790.44575836231
 20
-6366.889889510149
  0
VERTEX
  8
0
 10
38790.2806891474
 20
-6366.890219067638
  0
VERTEX
  8
0
 10
38790.11572847362
 20
-6366.890717555632
  0
VERTEX
  8
0
 10
38789.95086858802
 20
-6366.891372907666
  0
VERTEX
  8
0
 10
38789.78610173768
 20
-6366.892173057275
  0
VERTEX
  8
0
 10
38789.62142016964
 20
-6366.893105937992
  0
VERTEX
  8
0
 10
38789.45681613099
 20
-6366.894159483357
  0
VERTEX
  8
0
 10
38789.29228186877
 20
-6366.895321626903
  0
VERTEX
  8
0
 10
38789.12780963005
 20
-6366.896580302164
  0
VERTEX
  8
0
 10
38788.9633916619
 20
-6366.897923442678
  0
VERTEX
  8
0
 10
38788.79902021137
 20
-6366.899338981978
  0
VERTEX
  8
0
 10
38788.63468752555
 20
-6366.900814853603
  0
VERTEX
  8
0
 10
38788.47038585146
 20
-6366.902338991084
  0
VERTEX
  8
0
 10
38788.30610743619
 20
-6366.903899327961
  0
VERTEX
  8
0
 10
38788.14184452678
 20
-6366.905483797765
  0
VERTEX
  8
0
 10
38787.97758937033
 20
-6366.907080334036
  0
VERTEX
  8
0
 10
38787.80611396449
 20
-6366.907080334036
  0
VERTEX
  8
0
 10
38787.63463855866
 20
-6366.907080334036
  0
VERTEX
  8
0
 10
38787.46316315282
 20
-6366.907080334036
  0
VERTEX
  8
0
 10
38787.29168774698
 20
-6366.907080334036
  0
VERTEX
  8
0
 10
38787.12021234115
 20
-6366.907080334036
  0
VERTEX
  8
0
 10
38786.94995202502
 20
-6366.906811372195
  0
VERTEX
  8
0
 10
38786.78569610656
 20
-6366.905216021885
  0
VERTEX
  8
0
 10
38786.62143113065
 20
-6366.903634768344
  0
VERTEX
  8
0
 10
38786.45714934436
 20
-6366.902079678031
  0
VERTEX
  8
0
 10
38786.29284299476
 20
-6366.900562817417
  0
VERTEX
  8
0
 10
38786.12850432888
 20
-6366.899096252961
  0
VERTEX
  8
0
 10
38785.96412559381
 20
-6366.897692051132
  0
VERTEX
  8
0
 10
38785.7996990366
 20
-6366.89636227839
  0
VERTEX
  8
0
 10
38785.63521690432
 20
-6366.895119001205
  0
VERTEX
  8
0
 10
38785.47067144404
 20
-6366.893974286037
  0
VERTEX
  8
0
 10
38785.3060549028
 20
-6366.892940199351
  0
VERTEX
  8
0
 10
38785.14135952769
 20
-6366.892028807615
  0
VERTEX
  8
0
 10
38784.97657756575
 20
-6366.891252177291
  0
VERTEX
  8
0
 10
38784.81170126405
 20
-6366.890622374844
  0
VERTEX
  8
0
 10
38784.64672286965
 20
-6366.890151466738
  0
VERTEX
  8
0
 10
38784.48163462961
 20
-6366.889851519439
  0
VERTEX
  8
0
 10
38784.316428791
 20
-6366.889734599408
  0
VERTEX
  8
0
 10
38784.15109760088
 20
-6366.889812773115
  0
VERTEX
  8
0
 10
38783.98563330631
 20
-6366.890098107021
  0
VERTEX
  8
0
 10
38783.82002815436
 20
-6366.890602667592
  0
VERTEX
  8
0
 10
38783.65427439209
 20
-6366.891338521291
  0
VERTEX
  8
0
 10
38783.48836426654
 20
-6366.892317734582
  0
VERTEX
  8
0
 10
38783.32229002481
 20
-6366.893552373934
  0
VERTEX
  8
0
 10
38783.15604391393
 20
-6366.895054505807
  0
VERTEX
  8
0
 10
38782.98961818097
 20
-6366.896836196668
  0
VERTEX
  8
0
 10
38782.82300507302
 20
-6366.89890951298
  0
VERTEX
  8
0
 10
38782.65619683711
 20
-6366.901286521209
  0
VERTEX
  8
0
 10
38782.48918572031
 20
-6366.903979287817
  0
VERTEX
  8
0
 10
38782.32196396968
 20
-6366.906999879274
  0
VERTEX
  8
0
 10
38782.1545238323
 20
-6366.910360362038
  0
VERTEX
  8
0
 10
38781.98685755521
 20
-6366.914072802577
  0
VERTEX
  8
0
 10
38781.81895738548
 20
-6366.918149267356
  0
VERTEX
  8
0
 10
38781.65081557018
 20
-6366.922601822838
  0
VERTEX
  8
0
 10
38781.48242435637
 20
-6366.92744253549
  0
VERTEX
  8
0
 10
38781.3137759911
 20
-6366.932683471772
  0
VERTEX
  8
0
 10
38781.14486272145
 20
-6366.938336698155
  0
VERTEX
  8
0
 10
38780.97567679447
 20
-6366.944414281096
  0
VERTEX
  8
0
 10
38780.80621045722
 20
-6366.950928287067
  0
VERTEX
  8
0
 10
38780.63645595678
 20
-6366.957890782527
  0
VERTEX
  8
0
 10
38780.46640554019
 20
-6366.965313833944
  0
VERTEX
  8
0
 10
38780.29605145453
 20
-6366.97320950778
  0
VERTEX
  8
0
 10
38780.12538594686
 20
-6366.981589870501
  0
VERTEX
  8
0
 10
38779.95440126422
 20
-6366.990466988573
  0
VERTEX
  8
0
 10
38779.78308965371
 20
-6366.999852928457
  0
VERTEX
  8
0
 10
38779.61144336236
 20
-6367.009759756621
  0
VERTEX
  8
0
 10
38779.43945463725
 20
-6367.020199539526
  0
VERTEX
  8
0
 10
38779.26711572543
 20
-6367.031184343641
  0
VERTEX
  8
0
 10
38779.09441887397
 20
-6367.042726235427
  0
VERTEX
  8
0
 10
38778.92135632994
 20
-6367.05483728135
  0
VERTEX
  8
0
 10
38778.7479203404
 20
-6367.067529547874
  0
VERTEX
  8
0
 10
38778.57410315239
 20
-6367.080815101464
  0
VERTEX
  8
0
 10
38778.39989701301
 20
-6367.094706008585
  0
VERTEX
  8
0
 10
38778.22529416928
 20
-6367.109214335702
  0
VERTEX
  8
0
 10
38778.0502868683
 20
-6367.124352149278
  0
VERTEX
  8
0
 10
38777.8748673571
 20
-6367.140131515777
  0
VERTEX
  8
0
 10
38777.69902788277
 20
-6367.156564501665
  0
VERTEX
  8
0
 10
38777.52276069236
 20
-6367.173663173407
  0
VERTEX
  8
0
 10
38777.34605803293
 20
-6367.191439597468
  0
VERTEX
  8
0
 10
38777.16891215154
 20
-6367.209905840309
  0
VERTEX
  8
0
 10
38776.99131529526
 20
-6367.229073968399
  0
VERTEX
  8
0
 10
38776.81325971116
 20
-6367.2489560482
  0
VERTEX
  8
0
 10
38776.63473764629
 20
-6367.269564146177
  0
VERTEX
  8
0
 10
38776.4557413477
 20
-6367.290910328794
  0
VERTEX
  8
0
 10
38776.27626306249
 20
-6367.313006662517
  0
VERTEX
  8
0
 10
38776.09629503769
 20
-6367.33586521381
  0
VERTEX
  8
0
 10
38775.91582952037
 20
-6367.359498049137
  0
VERTEX
  8
0
 10
38775.73485875758
 20
-6367.383917234964
  0
VERTEX
  8
0
 10
38775.55337499642
 20
-6367.409134837753
  0
VERTEX
  8
0
 10
38775.37137048392
 20
-6367.435162923972
  0
VERTEX
  8
0
 10
38775.18883746715
 20
-6367.462013560084
  0
VERTEX
  8
0
 10
38775.00576819317
 20
-6367.489698812551
  0
VERTEX
  8
0
 10
38774.82215490905
 20
-6367.518230747841
  0
VERTEX
  8
0
 10
38774.63798986185
 20
-6367.547621432417
  0
VERTEX
  8
0
 10
38774.45326529863
 20
-6367.577882932744
  0
VERTEX
  8
0
 10
38774.26976576462
 20
-6367.611160197185
  0
VERTEX
  8
0
 10
38774.10686583762
 20
-6367.670530774969
  0
VERTEX
  8
0
 10
38773.99245456054
 20
-6367.789176494489
  0
VERTEX
  8
0
 10
38773.97758937033
 20
-6410.175208200159
  0
VERTEX
  8
0
 10
38773.97758937033
 20
-6461.105470020934
  0
VERTEX
  8
0
 10
38773.97758937033
 20
-6512.035731841711
  0
VERTEX
  8
0
 10
38773.97758937033
 20
-6562.965993662488
  0
VERTEX
  8
0
 10
38773.97758937033
 20
-6613.896255483264
  0
SEQEND
  8
0
  0
LINE
  8
0
  6
CONTINUOUS
 62
     0
 10
39283.98317990025
 20
-6398.034812760568
 11
39300.98346716392
 21
-6398.034812760568
  0
POLYLINE
  8
0
  6
CONTINUOUS
 62
     0
 66
     1
 70
     1
  0
VERTEX
  8
0
  6
CONTINUOUS
 62
     0
 10
39300.98317502804
 20
-5890.865018175512
  0
VERTEX
  8
0
  6
CONTINUOUS
 62
     0
 10
39300.98472551189
 20
-5890.800932336793
  0
VERTEX
  8
0
  6
CONTINUOUS
 62
     0
 10
39300.98884040203
 20
-5890.736845489293
  0
VERTEX
  8
0
  6
CONTINUOUS
 62
     0
 10
39300.99546651814
 20
-5890.672854825461
  0
VERTEX
  8
0
  6
CONTINUOUS
 62
     0
 10
39301.0045506799
 20
-5890.609057537748
  0
VERTEX
  8
0
  6
CONTINUOUS
 62
     0
 10
39301.01603970698
 20
-5890.5455508186
  0
VERTEX
  8
0
  6
CONTINUOUS
 62
     0
 10
39301.02988041905
 20
-5890.482431860467
  0
VERTEX
  8
0
  6
CONTINUOUS
 62
     0
 10
39301.04601963579
 20
-5890.4197978558
  0
VERTEX
  8
0
  6
CONTINUOUS
 62
     0
 10
39301.06440417688
 20
-5890.357745997046
  0
VERTEX
  8
0
  6
CONTINUOUS
 62
     0
 10
39301.084980862
 20
-5890.296373476654
  0
VERTEX
  8
0
  6
CONTINUOUS
 62
     0
 10
39301.10769651081
 20
-5890.235777487076
  0
VERTEX
  8
0
  6
CONTINUOUS
 62
     0
 10
39301.13249794299
 20
-5890.176055220758
  0
VERTEX
  8
0
  6
CONTINUOUS
 62
     0
 10
39301.15933105927
 20
-5890.11729942238
  0
VERTEX
  8
0
  6
CONTINUOUS
 62
     0
 10
39301.18813188196
 20
-5890.059555025907
  0
VERTEX
  8
0
  6
CONTINUOUS
 62
     0
 10
39301.21883042268
 20
-5890.002837873635
  0
VERTEX
  8
0
  6
CONTINUOUS
 62
     0
 10
39301.25135660794
 20
-5889.947163396037
  0
VERTEX
  8
0
  6
CONTINUOUS
 62
     0
 10
39301.28564036426
 20
-5889.89254702359
  0
VERTEX
  8
0
  6
CONTINUOUS
 62
     0
 10
39301.32161161815
 20
-5889.83900418677
  0
VERTEX
  8
0
  6
CONTINUOUS
 62
     0
 10
39301.35920029612
 20
-5889.786550316049
  0
VERTEX
  8
0
  6
CONTINUOUS
 62
     0
 10
39301.3983363247
 20
-5889.735200841905
  0
VERTEX
  8
0
  6
CONTINUOUS
 62
     0
 10
39301.43894963039
 20
-5889.684971194813
  0
VERTEX
  8
0
  6
CONTINUOUS
 62
     0
 10
39301.48097013972
 20
-5889.635876805247
  0
VERTEX
  8
0
  6
CONTINUOUS
 62
     0
 10
39301.52432777919
 20
-5889.587933103682
  0
VERTEX
  8
0
  6
CONTINUOUS
 62
     0
 10
39301.5689524753
 20
-5889.541155520595
  0
VERTEX
  8
0
  6
CONTINUOUS
 62
     0
 10
39301.61477415461
 20
-5889.495559486459
  0
VERTEX
  8
0
  6
CONTINUOUS
 62
     0
 10
39301.66172274359
 20
-5889.451160431751
  0
VERTEX
  8
0
  6
CONTINUOUS
 62
     0
 10
39301.70972997769
 20
-5889.407972678177
  0
VERTEX
  8
0
  6
CONTINUOUS
 62
     0
 10
39301.75874745666
 20
-5889.36599837164
  0
VERTEX
  8
0
  6
CONTINUOUS
 62
     0
 10
39301.80873906391
 20
-5889.325232128771
  0
VERTEX
  8
0
  6
CONTINUOUS
 62
     0
 10
39301.85966886499
 20
-5889.28566845459
  0
VERTEX
  8
0
  6
CONTINUOUS
 62
     0
 10
39301.91150092544
 20
-5889.247301854106
  0
VERTEX
  8
0
  6
CONTINUOUS
 62
     0
 10
39301.96419931079
 20
-5889.21012683234
  0
VERTEX
  8
0
  6
CONTINUOUS
 62
     0
 10
39302.01772808658
 20
-5889.174137894304
  0
VERTEX
  8
0
  6
CONTINUOUS
 62
     0
 10
39302.07205131834
 20
-5889.139329545016
  0
VERTEX
  8
0
  6
CONTINUOUS
 62
     0
 10
39302.12713307161
 20
-5889.105696289491
  0
VERTEX
  8
0
  6
CONTINUOUS
 62
     0
 10
39302.18293741193
 20
-5889.073232632742
  0
VERTEX
  8
0
  6
CONTINUOUS
 62
     0
 10
39302.23942840481
 20
-5889.041933079788
  0
VERTEX
  8
0
  6
CONTINUOUS
 62
     0
 10
39302.29657011582
 20
-5889.01179213564
  0
VERTEX
  8
0
  6
CONTINUOUS
 62
     0
 10
39302.35432661048
 20
-5888.982804305318
  0
VERTEX
  8
0
  6
CONTINUOUS
 62
     0
 10
39302.41266195432
 20
-5888.954964093837
  0
VERTEX
  8
0
  6
CONTINUOUS
 62
     0
 10
39302.47154021289
 20
-5888.928266006209
  0
VERTEX
  8
0
  6
CONTINUOUS
 62
     0
 10
39302.53092545172
 20
-5888.90270454745
  0
VERTEX
  8
0
  6
CONTINUOUS
 62
     0
 10
39302.59078173633
 20
-5888.878274222579
  0
VERTEX
  8
0
  6
CONTINUOUS
 62
     0
 10
39302.65107313229
 20
-5888.854969536609
  0
VERTEX
  8
0
  6
CONTINUOUS
 62
     0
 10
39302.71176413196
 20
-5888.832785018481
  0
VERTEX
  8
0
  6
CONTINUOUS
 62
     0
 10
39302.77282781475
 20
-5888.811715678407
  0
VERTEX
  8
0
  6
CONTINUOUS
 62
     0
 10
39302.83424521408
 20
-5888.79175697241
  0
VERTEX
  8
0
  6
CONTINUOUS
 62
     0
 10
39302.8959976635
 20
-5888.772904373325
  0
VERTEX
  8
0
  6
CONTINUOUS
 62
     0
 10
39302.95806649655
 20
-5888.755153353988
  0
VERTEX
  8
0
  6
CONTINUOUS
 62
     0
 10
39303.02043304672
 20
-5888.738499387238
  0
VERTEX
  8
0
  6
CONTINUOUS
 62
     0
 10
39303.08307864758
 20
-5888.72293794591
  0
VERTEX
  8
0
  6
CONTINUOUS
 62
     0
 10
39303.14598463263
 20
-5888.708464502844
  0
VERTEX
  8
0
  6
CONTINUOUS
 62
     0
 10
39303.2091323354
 20
-5888.695074530872
  0
VERTEX
  8
0
  6
CONTINUOUS
 62
     0
 10
39303.27250308944
 20
-5888.682763502835
  0
VERTEX
  8
0
  6
CONTINUOUS
 62
     0
 10
39303.33607822825
 20
-5888.671526891567
  0
VERTEX
  8
0
  6
CONTINUOUS
 62
     0
 10
39303.39983908537
 20
-5888.661360169908
  0
VERTEX
  8
0
  6
CONTINUOUS
 62
     0
 10
39303.46376699434
 20
-5888.652258810694
  0
VERTEX
  8
0
  6
CONTINUOUS
 62
     0
 10
39303.52784328868
 20
-5888.644218286759
  0
VERTEX
  8
0
  6
CONTINUOUS
 62
     0
 10
39303.59204930191
 20
-5888.637234070944
  0
VERTEX
  8
0
  6
CONTINUOUS
 62
     0
 10
39303.65636637109
 20
-5888.631301712307
  0
VERTEX
  8
0
  6
CONTINUOUS
 62
     0
 10
39303.72077596442
 20
-5888.626419584843
  0
VERTEX
  8
0
  6
CONTINUOUS
 62
     0
 10
39303.78525971672
 20
-5888.622589654206
  0
VERTEX
  8
0
  6
CONTINUOUS
 62
     0
 10
39303.84979927367
 20
-5888.619814118395
  0
VERTEX
  8
0
  6
CONTINUOUS
 62
     0
 10
39303.91437628088
 20
-5888.618095175404
  0
VERTEX
  8
0
  6
CONTINUOUS
 62
     0
 10
39303.97897238401
 20
-5888.617435023231
  0
VERTEX
  8
0
  6
CONTINUOUS
 62
     0
 10
39304.04356922869
 20
-5888.617835859875
  0
VERTEX
  8
0
  6
CONTINUOUS
 62
     0
 10
39304.10814846057
 20
-5888.619299883331
  0
VERTEX
  8
0
  6
CONTINUOUS
 62
     0
 10
39304.17269172527
 20
-5888.621829291599
  0
VERTEX
  8
0
  6
CONTINUOUS
 62
     0
 10
39304.23718066848
 20
-5888.625426282674
  0
VERTEX
  8
0
  6
CONTINUOUS
 62
     0
 10
39304.30159693579
 20
-5888.630093054555
  0
VERTEX
  8
0
  6
CONTINUOUS
 62
     0
 10
39304.36592217287
 20
-5888.635831805239
  0
VERTEX
  8
0
  6
CONTINUOUS
 62
     0
 10
39304.43013802535
 20
-5888.642644732724
  0
VERTEX
  8
0
  6
CONTINUOUS
 62
     0
 10
39304.49422613887
 20
-5888.650534035005
  0
VERTEX
  8
0
  6
CONTINUOUS
 62
     0
 10
39304.55816815908
 20
-5888.659501910081
  0
VERTEX
  8
0
  6
CONTINUOUS
 62
     0
 10
39304.62194573163
 20
-5888.66955055595
  0
VERTEX
  8
0
  6
CONTINUOUS
 62
     0
 10
39304.68554050213
 20
-5888.680682170608
  0
VERTEX
  8
0
  6
CONTINUOUS
 62
     0
 10
39304.74893411625
 20
-5888.692898952054
  0
VERTEX
  8
0
  6
CONTINUOUS
 62
     0
 10
39304.81210821962
 20
-5888.706203098282
  0
VERTEX
  8
0
  6
CONTINUOUS
 62
     0
 10
39304.87504445789
 20
-5888.720596807294
  0
VERTEX
  8
0
  6
CONTINUOUS
 62
     0
 10
39304.93772447669
 20
-5888.736082277085
  0
VERTEX
  8
0
  6
CONTINUOUS
 62
     0
 10
39305.00012992166
 20
-5888.752661705652
  0
VERTEX
  8
0
  6
CONTINUOUS
 62
     0
 10
39305.06224243846
 20
-5888.770337290993
  0
VERTEX
  8
0
  6
CONTINUOUS
 62
     0
 10
39305.12404367271
 20
-5888.789111231104
  0
VERTEX
  8
0
  6
CONTINUOUS
 62
     0
 10
39305.18551527006
 20
-5888.808985723984
  0
VERTEX
  8
0
  6
CONTINUOUS
 62
     0
 10
39305.24663887613
 20
-5888.829962967635
  0
VERTEX
  8
0
  6
CONTINUOUS
 62
     0
 10
39305.30739328721
 20
-5888.852045930442
  0
VERTEX
  8
0
  6
CONTINUOUS
 62
     0
 10
39305.36774653941
 20
-5888.875240490052
  0
VERTEX
  8
0
  6
CONTINUOUS
 62
     0
 10
39305.42766412924
 20
-5888.899553210746
  0
VERTEX
  8
0
  6
CONTINUOUS
 62
     0
 10
39305.48711155324
 20
-5888.924990656799
  0
VERTEX
  8
0
  6
CONTINUOUS
 62
     0
 10
39305.54605430793
 20
-5888.951559392493
  0
VERTEX
  8
0
  6
CONTINUOUS
 62
     0
 10
39305.60445788984
 20
-5888.979265982103
  0
VERTEX
  8
0
  6
CONTINUOUS
 62
     0
 10
39305.66228779552
 20
-5889.008116989911
  0
VERTEX
  8
0
  6
CONTINUOUS
 62
     0
 10
39305.71950952146
 20
-5889.038118980193
  0
VERTEX
  8
0
  6
CONTINUOUS
 62
     0
 10
39305.7760885642
 20
-5889.06927851723
  0
VERTEX
  8
0
  6
CONTINUOUS
 62
     0
 10
39305.83199042029
 20
-5889.101602165299
  0
VERTEX
  8
0
  6
CONTINUOUS
 62
     0
 10
39305.88718058624
 20
-5889.135096488678
  0
VERTEX
  8
0
  6
CONTINUOUS
 62
     0
 10
39305.94162455857
 20
-5889.169768051646
  0
VERTEX
  8
0
  6
CONTINUOUS
 62
     0
 10
39305.99528783382
 20
-5889.205623418483
  0
VERTEX
  8
0
  6
CONTINUOUS
 62
     0
 10
39306.04813590852
 20
-5889.242669153465
  0
VERTEX
  8
0
  6
CONTINUOUS
 62
     0
 10
39306.10013427919
 20
-5889.280911820872
  0
VERTEX
  8
0
  6
CONTINUOUS
 62
     0
 10
39306.15124844237
 20
-5889.320357984984
  0
VERTEX
  8
0
  6
CONTINUOUS
 62
     0
 10
39306.20144309952
 20
-5889.361013724114
  0
VERTEX
  8
0
  6
CONTINUOUS
 62
     0
 10
39306.25066947482
 20
-5889.402876878831
  0
VERTEX
  8
0
  6
CONTINUOUS
 62
     0
 10
39306.29886754455
 20
-5889.445938414619
  0
VERTEX
  8
0
  6
CONTINUOUS
 62
     0
 10
39306.34597694035
 20
-5889.490189086328
  0
VERTEX
  8
0
  6
CONTINUOUS
 62
     0
 10
39306.39193729387
 20
-5889.535619648804
  0
VERTEX
  8
0
  6
CONTINUOUS
 62
     0
 10
39306.43668823677
 20
-5889.582220856895
  0
VERTEX
  8
0
  6
CONTINUOUS
 62
     0
 10
39306.48016940069
 20
-5889.629983465451
  0
VERTEX
  8
0
  6
CONTINUOUS
 62
     0
 10
39306.52232039631
 20
-5889.678898267935
  0
VERTEX
  8
0
  6
CONTINUOUS
 62
     0
 10
39306.56307878513
 20
-5889.728959827532
  0
VERTEX
  8
0
  6
CONTINUOUS
 62
     0
 10
39306.60237838883
 20
-5889.780169587425
  0
VERTEX
  8
0
  6
CONTINUOUS
 62
     0
 10
39306.64015263109
 20
-5889.832529722965
  0
VERTEX
  8
0
  6
CONTINUOUS
 62
     0
 10
39306.67633493557
 20
-5889.886042409501
  0
VERTEX
  8
0
  6
CONTINUOUS
 62
     0
 10
39306.71085872598
 20
-5889.940709822385
  0
VERTEX
  8
0
  6
CONTINUOUS
 62
     0
 10
39306.74365724614
 20
-5889.996531451291
  0
VERTEX
  8
0
  6
CONTINUOUS
 62
     0
 10
39306.77465923785
 20
-5890.053439549404
  0
VERTEX
  8
0
  6
CONTINUOUS
 62
     0
 10
39306.80378872756
 20
-5890.111295948799
  0
VERTEX
  8
0
  6
CONTINUOUS
 62
     0
 10
39306.83096951922
 20
-5890.169959158527
  0
VERTEX
  8
0
  6
CONTINUOUS
 62
     0
 10
39306.85612541682
 20
-5890.22928768764
  0
VERTEX
  8
0
  6
CONTINUOUS
 62
     0
 10
39306.87918022725
 20
-5890.289140090525
  0
VERTEX
  8
0
  6
CONTINUOUS
 62
     0
 10
39306.90006503535
 20
-5890.349485354718
  0
VERTEX
  8
0
  6
CONTINUOUS
 62
     0
 10
39306.91873384331
 20
-5890.410640214805
  0
VERTEX
  8
0
  6
CONTINUOUS
 62
     0
 10
39306.93514515295
 20
-5890.472989681475
  0
VERTEX
  8
0
  6
CONTINUOUS
 62
     0
 10
39306.94925746608
 20
-5890.536918765413
  0
VERTEX
  8
0
  6
CONTINUOUS
 62
     0
 10
39306.9610267375
 20
-5890.602700756775
  0
VERTEX
  8
0
  6
CONTINUOUS
 62
     0
 10
39306.97037812517
 20
-5890.66925808646
  0
VERTEX
  8
0
  6
CONTINUOUS
 62
     0
 10
39306.97721633904
 20
-5890.734616264802
  0
VERTEX
  8
0
  6
CONTINUOUS
 62
     0
 10
39306.98144572131
 20
-5890.796784669807
  0
VERTEX
  8
0
  6
CONTINUOUS
 62
     0
 10
39306.98303646811
 20
-5890.853954291238
  0
VERTEX
  8
0
  6
CONTINUOUS
 62
     0
 10
39306.98317502805
 20
-5913.147717095337
  0
VERTEX
  8
0
  6
CONTINUOUS
 62
     0
 10
39306.98317502806
 20
-5945.869033833556
  0
VERTEX
  8
0
  6
CONTINUOUS
 62
     0
 10
39306.98317502809
 20
-5978.590350571779
  0
VERTEX
  8
0
  6
CONTINUOUS
 62
     0
 10
39306.98317502811
 20
-6011.311667310001
  0
VERTEX
  8
0
  6
CONTINUOUS
 62
     0
 10
39306.98317502812
 20
-6044.032984048224
  0
VERTEX
  8
0
  6
CONTINUOUS
 62
     0
 10
39306.98317502813
 20
-6076.754300786444
  0
VERTEX
  8
0
  6
CONTINUOUS
 62
     0
 10
39306.98317502815
 20
-6109.475617524666
  0
VERTEX
  8
0
  6
CONTINUOUS
 62
     0
 10
39306.98317502816
 20
-6142.196934262888
  0
VERTEX
  8
0
  6
CONTINUOUS
 62
     0
 10
39306.98317502818
 20
-6174.918251001111
  0
VERTEX
  8
0
  6
CONTINUOUS
 62
     0
 10
39306.9831750282
 20
-6207.639567739333
  0
VERTEX
  8
0
  6
CONTINUOUS
 62
     0
 10
39306.98317502822
 20
-6240.360884477553
  0
VERTEX
  8
0
  6
CONTINUOUS
 62
     0
 10
39306.98317502822
 20
-6273.082201215775
  0
VERTEX
  8
0
  6
CONTINUOUS
 62
     0
 10
39306.98317502825
 20
-6305.803517953997
  0
VERTEX
  8
0
  6
CONTINUOUS
 62
     0
 10
39306.98317502827
 20
-6338.52483469222
  0
VERTEX
  8
0
  6
CONTINUOUS
 62
     0
 10
39306.98317502827
 20
-6371.246151430442
  0
VERTEX
  8
0
  6
CONTINUOUS
 62
     0
 10
39306.98300069364
 20
-6398.025289470411
  0
VERTEX
  8
0
  6
CONTINUOUS
 62
     0
 10
39306.97586690375
 20
-6398.20221852354
  0
VERTEX
  8
0
  6
CONTINUOUS
 62
     0
 10
39306.9577908521
 20
-6398.382381322886
  0
VERTEX
  8
0
  6
CONTINUOUS
 62
     0
 10
39306.92815821533
 20
-6398.564848711349
  0
VERTEX
  8
0
  6
CONTINUOUS
 62
     0
 10
39306.8864512732
 20
-6398.748581652177
  0
VERTEX
  8
0
  6
CONTINUOUS
 62
     0
 10
39306.8322703028
 20
-6398.932442577645
  0
VERTEX
  8
0
  6
CONTINUOUS
 62
     0
 10
39306.76535360282
 20
-6399.115211385085
  0
VERTEX
  8
0
  6
CONTINUOUS
 62
     0
 10
39306.68559501784
 20
-6399.295605945675
  0
VERTEX
  8
0
  6
CONTINUOUS
 62
     0
 10
39306.59305782786
 20
-6399.472306684585
  0
VERTEX
  8
0
  6
CONTINUOUS
 62
     0
 10
39306.48798395614
 20
-6399.643984473094
  0
VERTEX
  8
0
  6
CONTINUOUS
 62
     0
 10
39306.37079763456
 20
-6399.809330775739
  0
VERTEX
  8
0
  6
CONTINUOUS
 62
     0
 10
39306.24210294618
 20
-6399.967088751805
  0
VERTEX
  8
0
  6
CONTINUOUS
 62
     0
 10
39306.1026750175
 20
-6400.116083852577
  0
VERTEX
  8
0
  6
CONTINUOUS
 62
     0
 10
39305.95344503311
 20
-6400.255252407667
  0
VERTEX
  8
0
  6
CONTINUOUS
 62
     0
 10
39305.79547964931
 20
-6400.383666768334
  0
VERTEX
  8
0
  6
CONTINUOUS
 62
     0
 10
39305.62995575371
 20
-6400.500555770696
  0
VERTEX
  8
0
  6
CONTINUOUS
 62
     0
 10
39305.45813181391
 20
-6400.605319579879
  0
VERTEX
  8
0
  6
CONTINUOUS
 62
     0
 10
39305.28131725032
 20
-6400.697538347413
  0
VERTEX
  8
0
  6
CONTINUOUS
 62
     0
 10
39305.10084134037
 20
-6400.776974519475
  0
VERTEX
  8
0
  6
CONTINUOUS
 62
     0
 10
39304.91802310989
 20
-6400.843569031738
  0
VERTEX
  8
0
  6
CONTINUOUS
 62
     0
 10
39304.73414350771
 20
-6400.897431979312
  0
VERTEX
  8
0
  6
CONTINUOUS
 62
     0
 10
39304.55042091379
 20
-6400.938828627678
  0
VERTEX
  8
0
  6
CONTINUOUS
 62
     0
 10
39304.3679907331
 20
-6400.96816181499
  0
VERTEX
  8
0
  6
CONTINUOUS
 62
     0
 10
39304.18788950897
 20
-6400.985951881449
  0
VERTEX
  8
0
  6
CONTINUOUS
 62
     0
 10
39304.01104368372
 20
-6400.992815254608
  0
VERTEX
  8
0
  6
CONTINUOUS
 62
     0
 10
39303.83530636113
 20
-6400.989298294598
  0
VERTEX
  8
0
  6
CONTINUOUS
 62
     0
 10
39303.65614911684
 20
-6400.975067108754
  0
VERTEX
  8
0
  6
CONTINUOUS
 62
     0
 10
39303.47435481303
 20
-6400.949480172108
  0
VERTEX
  8
0
  6
CONTINUOUS
 62
     0
 10
39303.29092584852
 20
-6400.911984111338
  0
VERTEX
  8
0
  6
CONTINUOUS
 62
     0
 10
39303.10696757464
 20
-6400.862136313216
  0
VERTEX
  8
0
  6
CONTINUOUS
 62
     0
 10
39302.92367389194
 20
-6400.799625544254
  0
VERTEX
  8
0
  6
CONTINUOUS
 62
     0
 10
39302.74230825481
 20
-6400.724290462619
  0
VERTEX
  8
0
  6
CONTINUOUS
 62
     0
 10
39302.56418041711
 20
-6400.636134879289
  0
VERTEX
  8
0
  6
CONTINUOUS
 62
     0
 10
39302.39061957031
 20
-6400.53533868019
  0
VERTEX
  8
0
  6
CONTINUOUS
 62
     0
 10
39302.22294483319
 20
-6400.422263473879
  0
VERTEX
  8
0
  6
CONTINUOUS
 62
     0
 10
39302.06243431854
 20
-6400.297452278473
  0
VERTEX
  8
0
  6
CONTINUOUS
 62
     0
 10
39301.91029419276
 20
-6400.161622892861
  0
VERTEX
  8
0
  6
CONTINUOUS
 62
     0
 10
39301.76762923188
 20
-6400.015654984826
  0
VERTEX
  8
0
  6
CONTINUOUS
 62
     0
 10
39301.63541634583
 20
-6399.860571336068
  0
VERTEX
  8
0
  6
CONTINUOUS
 62
     0
 10
39301.51448238766
 20
-6399.697514070819
  0
VERTEX
  8
0
  6
CONTINUOUS
 62
     0
 10
39301.40548729872
 20
-6399.52771701995
  0
VERTEX
  8
0
  6
CONTINUOUS
 62
     0
 10
39301.30891329073
 20
-6399.35247560297
  0
VERTEX
  8
0
  6
CONTINUOUS
 62
     0
 10
39301.22506036741
 20
-6399.173115724331
  0
VERTEX
  8
0
  6
CONTINUOUS
 62
     0
 10
39301.15404808283
 20
-6398.990963170785
  0
VERTEX
  8
0
  6
CONTINUOUS
 62
     0
 10
39301.09582306194
 20
-6398.80731487154
  0
VERTEX
  8
0
  6
CONTINUOUS
 62
     0
 10
39301.05017150239
 20
-6398.623413163456
  0
VERTEX
  8
0
  6
CONTINUOUS
 62
     0
 10
39301.01673565981
 20
-6398.440423919436
  0
VERTEX
  8
0
  6
CONTINUOUS
 62
     0
 10
39300.99503319865
 20
-6398.2594190831
  0
VERTEX
  8
0
  6
CONTINUOUS
 62
     0
 10
39300.98447826825
 20
-6398.081363839446
  0
VERTEX
  8
0
  6
CONTINUOUS
 62
     0
 10
39300.98317502825
 20
-6381.690930195643
  0
VERTEX
  8
0
  6
CONTINUOUS
 62
     0
 10
39300.98317502821
 20
-6348.969202727633
  0
VERTEX
  8
0
  6
CONTINUOUS
 62
     0
 10
39300.98317502818
 20
-6316.247475259621
  0
VERTEX
  8
0
  6
CONTINUOUS
 62
     0
 10
39300.98317502815
 20
-6283.52574779161
  0
VERTEX
  8
0
  6
CONTINUOUS
 62
     0
 10
39300.98317502812
 20
-6250.8040203236
  0
VERTEX
  8
0
  6
CONTINUOUS
 62
     0
 10
39300.98317502811
 20
-6218.082292855589
  0
VERTEX
  8
0
  6
CONTINUOUS
 62
     0
 10
39300.98317502809
 20
-6185.360565387577
  0
VERTEX
  8
0
  6
CONTINUOUS
 62
     0
 10
39300.98317502808
 20
-6152.638837919566
  0
VERTEX
  8
0
  6
CONTINUOUS
 62
     0
 10
39300.98317502806
 20
-6119.917110451556
  0
VERTEX
  8
0
  6
CONTINUOUS
 62
     0
 10
39300.98317502806
 20
-6087.195382983546
  0
VERTEX
  8
0
  6
CONTINUOUS
 62
     0
 10
39300.98317502805
 20
-6054.473655515536
  0
VERTEX
  8
0
  6
CONTINUOUS
 62
     0
 10
39300.98317502805
 20
-6021.751928047526
  0
VERTEX
  8
0
  6
CONTINUOUS
 62
     0
 10
39300.98317502804
 20
-5989.030200579515
  0
VERTEX
  8
0
  6
CONTINUOUS
 62
     0
 10
39300.98317502804
 20
-5956.308473111504
  0
VERTEX
  8
0
  6
CONTINUOUS
 62
     0
 10
39300.98317502804
 20
-5923.586745643494
  0
SEQEND
  8
0
  6
CONTINUOUS
 62
     0
  0
LINE
  8
0
  6
CONTINUOUS
 62
     0
 10
39300.98317502804
 20
-5921.933685338444
 11
39178.98317990025
 21
-6037.28694695483
  0
LINE
  8
0
  6
CONTINUOUS
 62
     0
 10
39300.98317502804
 20
-6010.81242223129
 11
39178.98317990023
 21
-5895.459160614911
  0
LINE
  8
0
  6
CONTINUOUS
 62
     0
 10
39028.98336749959
 20
-5895.459337993597
 11
39178.98317990025
 21
-6037.286946954816
  0
LINE
  8
0
  6
CONTINUOUS
 62
     0
 10
39028.98292594625
 20
-6037.287187073015
 11
39178.98317990023
 21
-5895.459160614911
  0
POLYLINE
  8
0
  6
CONTINUOUS
 62
     0
 66
     1
  0
VERTEX
  8
0
  6
CONTINUOUS
 62
     0
 10
39300.98317502801
 20
-6259.04513597465
  0
VERTEX
  8
0
  6
CONTINUOUS
 62
     0
 10
39300.98516337721
 20
-6258.971709971172
  0
VERTEX
  8
0
  6
CONTINUOUS
 62
     0
 10
39300.99050838911
 20
-6258.898301232736
  0
VERTEX
  8
0
  6
CONTINUOUS
 62
     0
 10
39300.99913000896
 20
-6258.825055927739
  0
VERTEX
  8
0
  6
CONTINUOUS
 62
     0
 10
39301.01094818199
 20
-6258.752120224583
  0
VERTEX
  8
0
  6
CONTINUOUS
 62
     0
 10
39301.02588285344
 20
-6258.67964029167
  0
VERTEX
  8
0
  6
CONTINUOUS
 62
     0
 10
39301.04385396856
 20
-6258.607762297396
  0
VERTEX
  8
0
  6
CONTINUOUS
 62
     0
 10
39301.06478147257
 20
-6258.536632410163
  0
VERTEX
  8
0
  6
CONTINUOUS
 62
     0
 10
39301.08858531072
 20
-6258.46639679837
  0
VERTEX
  8
0
  6
CONTINUOUS
 62
     0
 10
39301.11518542824
 20
-6258.397201630417
  0
VERTEX
  8
0
  6
CONTINUOUS
 62
     0
 10
39301.14450176172
 20
-6258.329193032653
  0
VERTEX
  8
0
  6
CONTINUOUS
 62
     0
 10
39301.17644823833
 20
-6258.262487958476
  0
VERTEX
  8
0
  6
CONTINUOUS
 62
     0
 10
39301.21092228214
 20
-6258.197123245738
  0
VERTEX
  8
0
  6
CONTINUOUS
 62
     0
 10
39301.24781850912
 20
-6258.133122100438
  0
VERTEX
  8
0
  6
CONTINUOUS
 62
     0
 10
39301.28703153528
 20
-6258.070507728576
  0
VERTEX
  8
0
  6
CONTINUOUS
 62
     0
 10
39301.32845597664
 20
-6258.009303336149
  0
VERTEX
  8
0
  6
CONTINUOUS
 62
     0
 10
39301.37198644916
 20
-6257.949532129157
  0
VERTEX
  8
0
  6
CONTINUOUS
 62
     0
 10
39301.41751756887
 20
-6257.891217313599
  0
VERTEX
  8
0
  6
CONTINUOUS
 62
     0
 10
39301.46494395175
 20
-6257.834382095473
  0
VERTEX
  8
0
  6
CONTINUOUS
 62
     0
 10
39301.5141602138
 20
-6257.77904968078
  0
VERTEX
  8
0
  6
CONTINUOUS
 62
     0
 10
39301.56506097104
 20
-6257.725243275517
  0
VERTEX
  8
0
  6
CONTINUOUS
 62
     0
 10
39301.61754083943
 20
-6257.672986085683
  0
VERTEX
  8
0
  6
CONTINUOUS
 62
     0
 10
39301.67149443499
 20
-6257.622301317279
  0
VERTEX
  8
0
  6
CONTINUOUS
 62
     0
 10
39301.7268226597
 20
-6257.573208323321
  0
VERTEX
  8
0
  6
CONTINUOUS
 62
     0
 10
39301.78346017733
 20
-6257.525705762583
  0
VERTEX
  8
0
  6
CONTINUOUS
 62
     0
 10
39301.84135293782
 20
-6257.47978537601
  0
VERTEX
  8
0
  6
CONTINUOUS
 62
     0
 10
39301.90044689907
 20
-6257.435438899658
  0
VERTEX
  8
0
  6
CONTINUOUS
 62
     0
 10
39301.96068801898
 20
-6257.392658069582
  0
VERTEX
  8
0
  6
CONTINUOUS
 62
     0
 10
39302.02202225549
 20
-6257.351434621835
  0
VERTEX
  8
0
  6
CONTINUOUS
 62
     0
 10
39302.08439556648
 20
-6257.311760292472
  0
VERTEX
  8
0
  6
CONTINUOUS
 62
     0
 10
39302.14775390988
 20
-6257.273626817549
  0
VERTEX
  8
0
  6
CONTINUOUS
 62
     0
 10
39302.21204324358
 20
-6257.237025933116
  0
VERTEX
  8
0
  6
CONTINUOUS
 62
     0
 10
39302.27720952551
 20
-6257.201949375232
  0
VERTEX
  8
0
  6
CONTINUOUS
 62
     0
 10
39302.34319871356
 20
-6257.168388879951
  0
VERTEX
  8
0
  6
CONTINUOUS
 62
     0
 10
39302.40995676564
 20
-6257.136336183326
  0
VERTEX
  8
0
  6
CONTINUOUS
 62
     0
 10
39302.47742963969
 20
-6257.105783021413
  0
VERTEX
  8
0
  6
CONTINUOUS
 62
     0
 10
39302.54556329357
 20
-6257.076721130265
  0
VERTEX
  8
0
  6
CONTINUOUS
 62
     0
 10
39302.61430368523
 20
-6257.049142245938
  0
VERTEX
  8
0
  6
CONTINUOUS
 62
     0
 10
39302.68359677339
 20
-6257.023038104532
  0
VERTEX
  8
0
  6
CONTINUOUS
 62
     0
 10
39302.75339363635
 20
-6256.998400729084
  0
VERTEX
  8
0
  6
CONTINUOUS
 62
     0
 10
39302.82366258113
 20
-6256.975223108253
  0
VERTEX
  8
0
  6
CONTINUOUS
 62
     0
 10
39302.89437553507
 20
-6256.953498433606
  0
VERTEX
  8
0
  6
CONTINUOUS
 62
     0
 10
39302.96550442556
 20
-6256.933219896711
  0
VERTEX
  8
0
  6
CONTINUOUS
 62
     0
 10
39303.03702117995
 20
-6256.914380689138
  0
VERTEX
  8
0
  6
CONTINUOUS
 62
     0
 10
39303.10889772559
 20
-6256.896974002451
  0
VERTEX
  8
0
  6
CONTINUOUS
 62
     0
 10
39303.18110598987
 20
-6256.880993028221
  0
VERTEX
  8
0
  6
CONTINUOUS
 62
     0
 10
39303.25361790013
 20
-6256.866430958017
  0
VERTEX
  8
0
  6
CONTINUOUS
 62
     0
 10
39303.32640538376
 20
-6256.853280983403
  0
VERTEX
  8
0
  6
CONTINUOUS
 62
     0
 10
39303.39944036808
 20
-6256.841536295949
  0
VERTEX
  8
0
  6
CONTINUOUS
 62
     0
 10
39303.4726947805
 20
-6256.831190087225
  0
VERTEX
  8
0
  6
CONTINUOUS
 62
     0
 10
39303.54614054836
 20
-6256.822235548796
  0
VERTEX
  8
0
  6
CONTINUOUS
 62
     0
 10
39303.61974959902
 20
-6256.814665872231
  0
VERTEX
  8
0
  6
CONTINUOUS
 62
     0
 10
39303.69349390955
 20
-6256.80847532011
  0
VERTEX
  8
0
  6
CONTINUOUS
 62
     0
 10
39303.76734576136
 20
-6256.803664712541
  0
VERTEX
  8
0
  6
CONTINUOUS
 62
     0
 10
39303.84127755099
 20
-6256.800237350451
  0
VERTEX
  8
0
  6
CONTINUOUS
 62
     0
 10
39303.91526167517
 20
-6256.798196539422
  0
VERTEX
  8
0
  6
CONTINUOUS
 62
     0
 10
39303.98927053068
 20
-6256.79754558504
  0
VERTEX
  8
0
  6
CONTINUOUS
 62
     0
 10
39304.06327651425
 20
-6256.798287792887
  0
VERTEX
  8
0
  6
CONTINUOUS
 62
     0
 10
39304.13725202264
 20
-6256.800426468546
  0
VERTEX
  8
0
  6
CONTINUOUS
 62
     0
 10
39304.21116945261
 20
-6256.803964917602
  0
VERTEX
  8
0
  6
CONTINUOUS
 62
     0
 10
39304.2850012009
 20
-6256.808906445637
  0
VERTEX
  8
0
  6
CONTINUOUS
 62
     0
 10
39304.35871966428
 20
-6256.815254358236
  0
VERTEX
  8
0
  6
CONTINUOUS
 62
     0
 10
39304.43229723949
 20
-6256.823011960981
  0
VERTEX
  8
0
  6
CONTINUOUS
 62
     0
 10
39304.50570632327
 20
-6256.832182559457
  0
VERTEX
  8
0
  6
CONTINUOUS
 62
     0
 10
39304.57891931241
 20
-6256.842769459246
  0
VERTEX
  8
0
  6
CONTINUOUS
 62
     0
 10
39304.65190860362
 20
-6256.854775965932
  0
VERTEX
  8
0
  6
CONTINUOUS
 62
     0
 10
39304.72464659368
 20
-6256.868205385099
  0
VERTEX
  8
0
  6
CONTINUOUS
 62
     0
 10
39304.79710567934
 20
-6256.88306102233
  0
VERTEX
  8
0
  6
CONTINUOUS
 62
     0
 10
39304.86925825733
 20
-6256.89934618321
  0
VERTEX
  8
0
  6
CONTINUOUS
 62
     0
 10
39304.94107672444
 20
-6256.91706417332
  0
VERTEX
  8
0
  6
CONTINUOUS
 62
     0
 10
39305.01253347738
 20
-6256.936218298245
  0
VERTEX
  8
0
  6
CONTINUOUS
 62
     0
 10
39305.08360091293
 20
-6256.956811863569
  0
VERTEX
  8
0
  6
CONTINUOUS
 62
     0
 10
39305.15425142786
 20
-6256.978848174874
  0
VERTEX
  8
0
  6
CONTINUOUS
 62
     0
 10
39305.22445741887
 20
-6257.002330537744
  0
VERTEX
  8
0
  6
CONTINUOUS
 62
     0
 10
39305.29418989683
 20
-6257.02726263248
  0
VERTEX
  8
0
  6
CONTINUOUS
 62
     0
 10
39305.36340554401
 20
-6257.053652013429
  0
VERTEX
  8
0
  6
CONTINUOUS
 62
     0
 10
39305.43205258015
 20
-6257.081508522984
  0
VERTEX
  8
0
  6
CONTINUOUS
 62
     0
 10
39305.50007911523
 20
-6257.110842033209
  0
VERTEX
  8
0
  6
CONTINUOUS
 62
     0
 10
39305.56743325925
 20
-6257.141662416168
  0
VERTEX
  8
0
  6
CONTINUOUS
 62
     0
 10
39305.63406312218
 20
-6257.173979543925
  0
VERTEX
  8
0
  6
CONTINUOUS
 62
     0
 10
39305.69991681402
 20
-6257.207803288546
  0
VERTEX
  8
0
  6
CONTINUOUS
 62
     0
 10
39305.76494244476
 20
-6257.243143522092
  0
VERTEX
  8
0
  6
CONTINUOUS
 62
     0
 10
39305.82908812439
 20
-6257.280010116629
  0
VERTEX
  8
0
  6
CONTINUOUS
 62
     0
 10
39305.89230196289
 20
-6257.318412944222
  0
VERTEX
  8
0
  6
CONTINUOUS
 62
     0
 10
39305.95453207026
 20
-6257.358361876934
  0
VERTEX
  8
0
  6
CONTINUOUS
 62
     0
 10
39306.01572655648
 20
-6257.39986678683
  0
VERTEX
  8
0
  6
CONTINUOUS
 62
     0
 10
39306.07583353155
 20
-6257.442937545973
  0
VERTEX
  8
0
  6
CONTINUOUS
 62
     0
 10
39306.13480110544
 20
-6257.487584026428
  0
VERTEX
  8
0
  6
CONTINUOUS
 62
     0
 10
39306.19257712956
 20
-6257.533815942201
  0
VERTEX
  8
0
  6
CONTINUOUS
 62
     0
 10
39306.24909483227
 20
-6257.581634069238
  0
VERTEX
  8
0
  6
CONTINUOUS
 62
     0
 10
39306.30426527494
 20
-6257.631025634299
  0
VERTEX
  8
0
  6
CONTINUOUS
 62
     0
 10
39306.35799766917
 20
-6257.681976733536
  0
VERTEX
  8
0
  6
CONTINUOUS
 62
     0
 10
39306.41020122658
 20
-6257.7344734631
  0
VERTEX
  8
0
  6
CONTINUOUS
 62
     0
 10
39306.46078515881
 20
-6257.788501919145
  0
VERTEX
  8
0
  6
CONTINUOUS
 62
     0
 10
39306.50965867746
 20
-6257.84404819782
  0
VERTEX
  8
0
  6
CONTINUOUS
 62
     0
 10
39306.55672956022
 20
-6257.901101033247
  0
VERTEX
  8
0
  6
CONTINUOUS
 62
     0
 10
39306.60189936726
 20
-6257.959660597559
  0
VERTEX
  8
0
  6
CONTINUOUS
 62
     0
 10
39306.64506797403
 20
-6258.019730162225
  0
VERTEX
  8
0
  6
CONTINUOUS
 62
     0
 10
39306.68613525593
 20
-6258.081312998769
  0
VERTEX
  8
0
  6
CONTINUOUS
 62
     0
 10
39306.72500108837
 20
-6258.144412378712
  0
VERTEX
  8
0
  6
CONTINUOUS
 62
     0
 10
39306.76156347489
 20
-6258.209003617839
  0
VERTEX
  8
0
  6
CONTINUOUS
 62
     0
 10
39306.79571086513
 20
-6258.274919349279
  0
VERTEX
  8
0
  6
CONTINUOUS
 62
     0
 10
39306.82732866864
 20
-6258.341946802899
  0
VERTEX
  8
0
  6
CONTINUOUS
 62
     0
 10
39306.85630229364
 20
-6258.409873189476
  0
VERTEX
  8
0
  6
CONTINUOUS
 62
     0
 10
39306.88251722228
 20
-6258.478486841171
  0
VERTEX
  8
0
  6
CONTINUOUS
 62
     0
 10
39306.90587382272
 20
-6258.547801969101
  0
VERTEX
  8
0
  6
CONTINUOUS
 62
     0
 10
39306.92630530013
 20
-6258.618331049678
  0
VERTEX
  8
0
  6
CONTINUOUS
 62
     0
 10
39306.94374924508
 20
-6258.690653103151
  0
VERTEX
  8
0
  6
CONTINUOUS
 62
     0
 10
39306.95814270328
 20
-6258.765323249216
  0
VERTEX
  8
0
  6
CONTINUOUS
 62
     0
 10
39306.96939206166
 20
-6258.841551806662
  0
VERTEX
  8
0
  6
CONTINUOUS
 62
     0
 10
39306.97735732037
 20
-6258.916514404012
  0
VERTEX
  8
0
  6
CONTINUOUS
 62
     0
 10
39306.98189461896
 20
-6258.987217330999
  0
VERTEX
  8
0
  6
CONTINUOUS
 62
     0
 10
39306.9831627575
 20
-6259.051501553425
  0
SEQEND
  8
0
  6
CONTINUOUS
 62
     0
  0
ARC
  8
0
  6
CONTINUOUS
 62
     0
 10
39103.97943289501
 20
-6127.046755544251
 40
243.4295481209517
 50
72.05514318284
 51
107.944856817161
  0
ARC
  8
0
  6
CONTINUOUS
 62
     0
 10
39254.59159679845
 20
-6131.649531289214
 40
248.0009155180433
 50
78.511455092141
 51
107.753565944584
  0
POLYLINE
  8
0
 66
     1
 70
     1
  0
VERTEX
  8
0
 10
39283.98317990025
 20
-6664.82651730407
  0
VERTEX
  8
0
 10
39279.35334394273
 20
-6664.82651730407
  0
VERTEX
  8
0
 10
39274.72350798524
 20
-6664.82651730407
  0
VERTEX
  8
0
 10
39270.09367202772
 20
-6664.82651730407
  0
VERTEX
  8
0
 10
39265.46383607023
 20
-6664.82651730407
  0
VERTEX
  8
0
 10
39260.83400011271
 20
-6664.82651730407
  0
VERTEX
  8
0
 10
39256.98317990025
 20
-6656.256996435183
  0
VERTEX
  8
0
 10
39256.98317990025
 20
-6605.326734614408
  0
VERTEX
  8
0
 10
39256.98317990025
 20
-6554.396472793631
  0
VERTEX
  8
0
 10
39256.98317990025
 20
-6503.466210972853
  0
VERTEX
  8
0
 10
39256.98317990025
 20
-6452.535949152076
  0
VERTEX
  8
0
 10
39256.98317990025
 20
-6401.6056873313
  0
VERTEX
  8
0
 10
39257.01349470152
 20
-6367.764595078018
  0
VERTEX
  8
0
 10
39257.13717355888
 20
-6367.657225722792
  0
VERTEX
  8
0
 10
39257.30558214004
 20
-6367.604677800865
  0
VERTEX
  8
0
 10
39257.48997704844
 20
-6367.57272968544
  0
VERTEX
  8
0
 10
39257.67460692504
 20
-6367.542615552828
  0
VERTEX
  8
0
 10
39257.85867859014
 20
-6367.513370205665
  0
VERTEX
  8
0
 10
39258.04219979666
 20
-6367.484981577485
  0
VERTEX
  8
0
 10
39258.22517829754
 20
-6367.457437601826
  0
VERTEX
  8
0
 10
39258.40762184573
 20
-6367.430726212221
  0
VERTEX
  8
0
 10
39258.58953819416
 20
-6367.404835342208
  0
VERTEX
  8
0
 10
39258.77093509576
 20
-6367.37975292532
  0
VERTEX
  8
0
 10
39258.95182030348
 20
-6367.355466895093
  0
VERTEX
  8
0
 10
39259.13220157025
 20
-6367.331965185063
  0
VERTEX
  8
0
 10
39259.31208664901
 20
-6367.309235728766
  0
VERTEX
  8
0
 10
39259.4914832927
 20
-6367.287266459736
  0
VERTEX
  8
0
 10
39259.67039925425
 20
-6367.26604531151
  0
VERTEX
  8
0
 10
39259.84884228661
 20
-6367.245560217621
  0
VERTEX
  8
0
 10
39260.02682014272
 20
-6367.225799111608
  0
VERTEX
  8
0
 10
39260.2043405755
 20
-6367.206749927003
  0
VERTEX
  8
0
 10
39260.38141133789
 20
-6367.188400597343
  0
VERTEX
  8
0
 10
39260.55804018284
 20
-6367.170739056164
  0
VERTEX
  8
0
 10
39260.73423486329
 20
-6367.153753237001
  0
VERTEX
  8
0
 10
39260.91000313216
 20
-6367.137431073389
  0
VERTEX
  8
0
 10
39261.08535274239
 20
-6367.121760498864
  0
VERTEX
  8
0
 10
39261.26029144692
 20
-6367.106729446959
  0
VERTEX
  8
0
 10
39261.43482699872
 20
-6367.092325851214
  0
VERTEX
  8
0
 10
39261.60896715068
 20
-6367.078537645159
  0
VERTEX
  8
0
 10
39261.78271965576
 20
-6367.065352762335
  0
VERTEX
  8
0
 10
39261.9560922669
 20
-6367.052759136275
  0
VERTEX
  8
0
 10
39262.12909273703
 20
-6367.040744700513
  0
VERTEX
  8
0
 10
39262.30172881909
 20
-6367.029297388586
  0
VERTEX
  8
0
 10
39262.47400826601
 20
-6367.018405134028
  0
VERTEX
  8
0
 10
39262.64593883075
 20
-6367.008055870377
  0
VERTEX
  8
0
 10
39262.81752826623
 20
-6366.998237531165
  0
VERTEX
  8
0
 10
39262.98878432538
 20
-6366.988938049932
  0
VERTEX
  8
0
 10
39263.15971476116
 20
-6366.980145360209
  0
VERTEX
  8
0
 10
39263.3303273265
 20
-6366.971847395534
  0
VERTEX
  8
0
 10
39263.50062977432
 20
-6366.96403208944
  0
VERTEX
  8
0
 10
39263.67062985758
 20
-6366.956687375467
  0
VERTEX
  8
0
 10
39263.8403353292
 20
-6366.949801187146
  0
VERTEX
  8
0
 10
39264.00975394214
 20
-6366.943361458014
  0
VERTEX
  8
0
 10
39264.17889344932
 20
-6366.937356121606
  0
VERTEX
  8
0
 10
39264.34776160368
 20
-6366.931773111458
  0
VERTEX
  8
0
 10
39264.51636615816
 20
-6366.926600361106
  0
VERTEX
  8
0
 10
39264.6847148657
 20
-6366.921825804084
  0
VERTEX
  8
0
 10
39264.85281547924
 20
-6366.917437373929
  0
VERTEX
  8
0
 10
39265.0206757517
 20
-6366.913423004175
  0
VERTEX
  8
0
 10
39265.18830343604
 20
-6366.909770628357
  0
VERTEX
  8
0
 10
39265.35570628519
 20
-6366.906468180014
  0
VERTEX
  8
0
 10
39265.52289205208
 20
-6366.903503592676
  0
VERTEX
  8
0
 10
39265.68986848966
 20
-6366.900864799883
  0
VERTEX
  8
0
 10
39265.85664335085
 20
-6366.898539735168
  0
VERTEX
  8
0
 10
39266.02322438861
 20
-6366.896516332068
  0
VERTEX
  8
0
 10
39266.18961935586
 20
-6366.894782524117
  0
VERTEX
  8
0
 10
39266.35583600554
 20
-6366.893326244852
  0
VERTEX
  8
0
 10
39266.5218820906
 20
-6366.892135427805
  0
VERTEX
  8
0
 10
39266.68776536397
 20
-6366.891198006517
  0
VERTEX
  8
0
 10
39266.85349357859
 20
-6366.89050191452
  0
VERTEX
  8
0
 10
39267.01907448738
 20
-6366.890035085347
  0
VERTEX
  8
0
 10
39267.18451584331
 20
-6366.889785452538
  0
VERTEX
  8
0
 10
39267.34982539929
 20
-6366.889740949627
  0
VERTEX
  8
0
 10
39267.51501090827
 20
-6366.889889510149
  0
VERTEX
  8
0
 10
39267.68008012317
 20
-6366.890219067638
  0
VERTEX
  8
0
 10
39267.84504079696
 20
-6366.890717555632
  0
VERTEX
  8
0
 10
39268.00990068255
 20
-6366.891372907666
  0
VERTEX
  8
0
 10
39268.1746675329
 20
-6366.892173057275
  0
VERTEX
  8
0
 10
39268.33934910093
 20
-6366.893105937992
  0
VERTEX
  8
0
 10
39268.50395313959
 20
-6366.894159483357
  0
VERTEX
  8
0
 10
39268.66848740181
 20
-6366.895321626903
  0
VERTEX
  8
0
 10
39268.83295964052
 20
-6366.896580302164
  0
VERTEX
  8
0
 10
39268.99737760868
 20
-6366.897923442678
  0
VERTEX
  8
0
 10
39269.1617490592
 20
-6366.899338981978
  0
VERTEX
  8
0
 10
39269.32608174503
 20
-6366.900814853603
  0
VERTEX
  8
0
 10
39269.49038341911
 20
-6366.902338991084
  0
VERTEX
  8
0
 10
39269.65466183439
 20
-6366.903899327961
  0
VERTEX
  8
0
 10
39269.81892474379
 20
-6366.905483797765
  0
VERTEX
  8
0
 10
39269.98317990025
 20
-6366.907080334036
  0
VERTEX
  8
0
 10
39270.15465530608
 20
-6366.907080334036
  0
VERTEX
  8
0
 10
39270.32613071192
 20
-6366.907080334036
  0
VERTEX
  8
0
 10
39270.49760611776
 20
-6366.907080334036
  0
VERTEX
  8
0
 10
39270.66908152359
 20
-6366.907080334036
  0
VERTEX
  8
0
 10
39270.84055692943
 20
-6366.907080334036
  0
VERTEX
  8
0
 10
39271.01081724555
 20
-6366.906811372195
  0
VERTEX
  8
0
 10
39271.17507316401
 20
-6366.905216021885
  0
VERTEX
  8
0
 10
39271.33933813992
 20
-6366.903634768344
  0
VERTEX
  8
0
 10
39271.50361992622
 20
-6366.902079678031
  0
VERTEX
  8
0
 10
39271.66792627582
 20
-6366.900562817417
  0
VERTEX
  8
0
 10
39271.8322649417
 20
-6366.899096252961
  0
VERTEX
  8
0
 10
39271.99664367676
 20
-6366.897692051132
  0
VERTEX
  8
0
 10
39272.16107023397
 20
-6366.89636227839
  0
VERTEX
  8
0
 10
39272.32555236625
 20
-6366.895119001205
  0
VERTEX
  8
0
 10
39272.49009782654
 20
-6366.893974286037
  0
VERTEX
  8
0
 10
39272.65471436777
 20
-6366.892940199351
  0
VERTEX
  8
0
 10
39272.81940974289
 20
-6366.892028807615
  0
VERTEX
  8
0
 10
39272.98419170483
 20
-6366.891252177291
  0
VERTEX
  8
0
 10
39273.14906800653
 20
-6366.890622374844
  0
VERTEX
  8
0
 10
39273.31404640093
 20
-6366.890151466738
  0
VERTEX
  8
0
 10
39273.47913464096
 20
-6366.889851519439
  0
VERTEX
  8
0
 10
39273.64434047957
 20
-6366.889734599408
  0
VERTEX
  8
0
 10
39273.8096716697
 20
-6366.889812773115
  0
VERTEX
  8
0
 10
39273.97513596426
 20
-6366.890098107021
  0
VERTEX
  8
0
 10
39274.14074111621
 20
-6366.890602667592
  0
VERTEX
  8
0
 10
39274.30649487849
 20
-6366.891338521291
  0
VERTEX
  8
0
 10
39274.47240500403
 20
-6366.892317734582
  0
VERTEX
  8
0
 10
39274.63847924577
 20
-6366.893552373934
  0
VERTEX
  8
0
 10
39274.80472535665
 20
-6366.895054505807
  0
VERTEX
  8
0
 10
39274.9711510896
 20
-6366.896836196668
  0
VERTEX
  8
0
 10
39275.13776419756
 20
-6366.89890951298
  0
VERTEX
  8
0
 10
39275.30457243347
 20
-6366.901286521209
  0
VERTEX
  8
0
 10
39275.47158355026
 20
-6366.903979287817
  0
VERTEX
  8
0
 10
39275.63880530089
 20
-6366.906999879274
  0
VERTEX
  8
0
 10
39275.80624543827
 20
-6366.910360362038
  0
VERTEX
  8
0
 10
39275.97391171537
 20
-6366.914072802577
  0
VERTEX
  8
0
 10
39276.14181188509
 20
-6366.918149267356
  0
VERTEX
  8
0
 10
39276.30995370039
 20
-6366.922601822838
  0
VERTEX
  8
0
 10
39276.47834491421
 20
-6366.92744253549
  0
VERTEX
  8
0
 10
39276.64699327947
 20
-6366.932683471772
  0
VERTEX
  8
0
 10
39276.81590654913
 20
-6366.938336698155
  0
VERTEX
  8
0
 10
39276.9850924761
 20
-6366.944414281096
  0
VERTEX
  8
0
 10
39277.15455881335
 20
-6366.950928287067
  0
VERTEX
  8
0
 10
39277.32431331379
 20
-6366.957890782527
  0
VERTEX
  8
0
 10
39277.49436373039
 20
-6366.965313833944
  0
VERTEX
  8
0
 10
39277.66471781605
 20
-6366.97320950778
  0
VERTEX
  8
0
 10
39277.83538332372
 20
-6366.981589870501
  0
VERTEX
  8
0
 10
39278.00636800635
 20
-6366.990466988573
  0
VERTEX
  8
0
 10
39278.17767961687
 20
-6366.999852928457
  0
VERTEX
  8
0
 10
39278.34932590822
 20
-6367.009759756621
  0
VERTEX
  8
0
 10
39278.52131463333
 20
-6367.020199539526
  0
VERTEX
  8
0
 10
39278.69365354515
 20
-6367.031184343641
  0
VERTEX
  8
0
 10
39278.8663503966
 20
-6367.042726235427
  0
VERTEX
  8
0
 10
39279.03941294063
 20
-6367.05483728135
  0
VERTEX
  8
0
 10
39279.21284893018
 20
-6367.067529547874
  0
VERTEX
  8
0
 10
39279.38666611818
 20
-6367.080815101464
  0
VERTEX
  8
0
 10
39279.56087225757
 20
-6367.094706008585
  0
VERTEX
  8
0
 10
39279.7354751013
 20
-6367.109214335702
  0
VERTEX
  8
0
 10
39279.91048240228
 20
-6367.124352149278
  0
VERTEX
  8
0
 10
39280.08590191347
 20
-6367.140131515777
  0
VERTEX
  8
0
 10
39280.26174138781
 20
-6367.156564501665
  0
VERTEX
  8
0
 10
39280.43800857822
 20
-6367.173663173407
  0
VERTEX
  8
0
 10
39280.61471123765
 20
-6367.191439597468
  0
VERTEX
  8
0
 10
39280.79185711903
 20
-6367.209905840309
  0
VERTEX
  8
0
 10
39280.96945397531
 20
-6367.229073968399
  0
VERTEX
  8
0
 10
39281.14750955941
 20
-6367.2489560482
  0
VERTEX
  8
0
 10
39281.32603162429
 20
-6367.269564146177
  0
VERTEX
  8
0
 10
39281.50502792287
 20
-6367.290910328794
  0
VERTEX
  8
0
 10
39281.68450620809
 20
-6367.313006662517
  0
VERTEX
  8
0
 10
39281.86447423289
 20
-6367.33586521381
  0
VERTEX
  8
0
 10
39282.04493975021
 20
-6367.359498049137
  0
VERTEX
  8
0
 10
39282.22591051299
 20
-6367.383917234964
  0
VERTEX
  8
0
 10
39282.40739427415
 20
-6367.409134837753
  0
VERTEX
  8
0
 10
39282.58939878666
 20
-6367.435162923972
  0
VERTEX
  8
0
 10
39282.77193180342
 20
-6367.462013560084
  0
VERTEX
  8
0
 10
39282.9550010774
 20
-6367.489698812551
  0
VERTEX
  8
0
 10
39283.13861436152
 20
-6367.518230747841
  0
VERTEX
  8
0
 10
39283.32277940873
 20
-6367.547621432417
  0
VERTEX
  8
0
 10
39283.50750397194
 20
-6367.577882932744
  0
VERTEX
  8
0
 10
39283.69100350596
 20
-6367.611160197185
  0
VERTEX
  8
0
 10
39283.85390343296
 20
-6367.670530774969
  0
VERTEX
  8
0
 10
39283.96831471004
 20
-6367.789176494489
  0
VERTEX
  8
0
 10
39283.98317990025
 20
-6410.175208200159
  0
VERTEX
  8
0
 10
39283.98317990025
 20
-6461.105470020934
  0
VERTEX
  8
0
 10
39283.98317990025
 20
-6512.035731841711
  0
VERTEX
  8
0
 10
39283.98317990025
 20
-6562.965993662488
  0
VERTEX
  8
0
 10
39283.98317990025
 20
-6613.896255483264
  0
SEQEND
  8
0
  0
POLYLINE
  8
0
 66
     1
  0
VERTEX
  8
0
 10
39300.98317502805
 20
-6259.045135974646
 42
0.028381335258
  0
VERTEX
  8
0
 10
39028.98038463528
 20
-6243.59340118927
 42
0.028381335258
  0
VERTEX
  8
0
 10
38756.97759424253
 20
-6259.045135974644
  0
SEQEND
  8
0
  0
LINE
  8
0
 10
40406.97858806903
 20
-6400.719021022074
 11
40425.2686981444
 21
-6403.062660647366
  0
POLYLINE
  8
0
  6
CONTINUOUS
 62
     0
 66
     1
  0
VERTEX
  8
0
  6
CONTINUOUS
 62
     0
 10
40327.97787453276
 20
-6300.965214563686
  0
VERTEX
  8
0
  6
CONTINUOUS
 62
     0
 10
39851.41403346293
 20
-6267.640624470666
 42
0.143509240964
  0
VERTEX
  8
0
  6
CONTINUOUS
 62
     0
 10
39848.66667096133
 20
-6268.241325696206
 42
0.255515587259
  0
VERTEX
  8
0
  6
CONTINUOUS
 62
     0
 10
39831.05983815614
 20
-6295.702014964015
  0
VERTEX
  8
0
  6
CONTINUOUS
 62
     0
 10
39829.34472675483
 20
-6320.229250707124
 42
0.414213562374
  0
VERTEX
  8
0
  6
CONTINUOUS
 62
     0
 10
39860.89018435644
 20
-6356.518148523264
  0
VERTEX
  8
0
  6
CONTINUOUS
 62
     0
 10
40407.39712691146
 20
-6394.73363672052
 42
0.355691801166
  0
VERTEX
  8
0
  6
CONTINUOUS
 62
     0
 10
40421.852738294
 20
-6384.551388998685
  0
VERTEX
  8
0
  6
CONTINUOUS
 62
     0
 10
40545.71421709858
 20
-5943.302359033681
  0
SEQEND
  8
0
  6
CONTINUOUS
 62
     0
  0
POLYLINE
  8
0
  6
CONTINUOUS
 62
     0
 66
     1
  0
VERTEX
  8
0
  6
CONTINUOUS
 62
     0
 10
39958.95941879442
 20
-6369.390468825627
  0
VERTEX
  8
0
  6
CONTINUOUS
 62
     0
 10
39906.9995943145
 20
-6664.826593598008
  0
VERTEX
  8
0
  6
CONTINUOUS
 62
     0
 10
39876.90830779482
 20
-6664.826593598008
  0
VERTEX
  8
0
  6
CONTINUOUS
 62
     0
 10
39908.33198733637
 20
-6365.850253946934
  0
SEQEND
  8
0
  6
CONTINUOUS
 62
     0
  0
POLYLINE
  8
0
  6
CONTINUOUS
 62
     0
 66
     1
  0
VERTEX
  8
0
  6
CONTINUOUS
 62
     0
 10
40457.84577646058
 20
-6278.529157487053
  0
VERTEX
  8
0
  6
CONTINUOUS
 62
     0
 10
40470.44749454845
 20
-6281.671118688454
 42
-0.354204493237
  0
VERTEX
  8
0
  6
CONTINUOUS
 62
     0
 10
40480.29445150305
 20
-6294.74262405344
  0
VERTEX
  8
0
  6
CONTINUOUS
 62
     0
 10
40478.5260122234
 20
-6344.944550311941
 42
0.043715020134
  0
VERTEX
  8
0
  6
CONTINUOUS
 62
     0
 10
40483.07581465614
 20
-6432.08913886002
  0
VERTEX
  8
0
  6
CONTINUOUS
 62
     0
 10
40515.76369429834
 20
-6664.826593598008
  0
VERTEX
  8
0
  6
CONTINUOUS
 62
     0
 10
40485.0253015875
 20
-6664.826593598008
  0
VERTEX
  8
0
  6
CONTINUOUS
 62
     0
 10
40425.2686981444
 20
-6403.062660647366
  0
VERTEX
  8
0
  6
CONTINUOUS
 62
     0
 10
40444.1820337153
 20
-6327.205414950083
  0
SEQEND
  8
0
  6
CONTINUOUS
 62
     0
  0
POLYLINE
  8
0
  6
CONTINUOUS
 62
     0
 66
     1
 70
     1
  0
VERTEX
  8
0
  6
CONTINUOUS
 62
     0
 10
40406.97858806903
 20
-6400.719021022074
 42
0.355691801166
  0
VERTEX
  8
0
  6
CONTINUOUS
 62
     0
 10
40427.62946147263
 20
-6386.172952848032
  0
VERTEX
  8
0
  6
CONTINUOUS
 62
     0
 10
40551.4909402772
 20
-5944.923922883026
 42
0.414213562373
  0
VERTEX
  8
0
  6
CONTINUOUS
 62
     0
 10
40523.78987808203
 20
-5895.60200936323
  0
VERTEX
  8
0
  6
CONTINUOUS
 62
     0
 10
40506.12240894017
 20
-5890.642635617244
 42
0.299981283723
  0
VERTEX
  8
0
  6
CONTINUOUS
 62
     0
 10
40464.17644299782
 20
-5904.042808665142
 42
0.173613668844
  0
VERTEX
  8
0
  6
CONTINUOUS
 62
     0
 10
40330.00019226523
 20
-6295.091977406962
 42
0.132207973201
  0
VERTEX
  8
0
  6
CONTINUOUS
 62
     0
 10
39858.02800212645
 20
-6258.681969331988
 42
0.344305701721
  0
VERTEX
  8
0
  6
CONTINUOUS
 62
     0
 10
39825.07445385458
 20
-6295.283476121548
  0
VERTEX
  8
0
  6
CONTINUOUS
 62
     0
 10
39823.35934245327
 20
-6319.810711864658
 42
0.414213562374
  0
VERTEX
  8
0
  6
CONTINUOUS
 62
     0
 10
39860.47164551399
 20
-6362.503532824824
  0
SEQEND
  8
0
  6
CONTINUOUS
 62
     0
  0
POLYLINE
  8
0
 66
     1
  0
VERTEX
  8
0
 10
40304.51374025473
 20
-6387.539329489765
  0
VERTEX
  8
0
 10
40470.26552604095
 20
-5906.161190215216
 42
-0.282629792974
  0
VERTEX
  8
0
 10
40504.50084509089
 20
-5896.419358795899
  0
SEQEND
  8
0
  0
POLYLINE
  8
0
  6
CONTINUOUS
 62
     0
 66
     1
  0
VERTEX
  8
0
  6
CONTINUOUS
 62
     0
 10
38756.97734024444
 20
-4817.078725276192
  0
VERTEX
  8
0
  6
CONTINUOUS
 62
     0
 10
38756.97734107361
 20
-4926.183999847332
  0
VERTEX
  8
0
  6
CONTINUOUS
 62
     0
 10
38756.97734190278
 20
-5035.289274418473
  0
VERTEX
  8
0
  6
CONTINUOUS
 62
     0
 10
38756.97734273195
 20
-5144.394548989613
  0
VERTEX
  8
0
  6
CONTINUOUS
 62
     0
 10
38756.97734356111
 20
-5253.499823560754
  0
VERTEX
  8
0
  6
CONTINUOUS
 62
     0
 10
38756.97734439028
 20
-5362.605098131893
  0
VERTEX
  8
0
  6
CONTINUOUS
 62
     0
 10
38756.97734521945
 20
-5471.710372703033
  0
VERTEX
  8
0
  6
CONTINUOUS
 62
     0
 10
38756.97253727275
 20
-5536.324165988157
  0
VERTEX
  8
0
  6
CONTINUOUS
 62
     0
 10
38756.91759296035
 20
-5536.750148119031
  0
VERTEX
  8
0
  6
CONTINUOUS
 62
     0
 10
38756.79580260393
 20
-5537.182129091389
  0
VERTEX
  8
0
  6
CONTINUOUS
 62
     0
 10
38756.60352911487
 20
-5537.604575560224
  0
VERTEX
  8
0
  6
CONTINUOUS
 62
     0
 10
38756.34201747943
 20
-5538.000491005721
  0
VERTEX
  8
0
  6
CONTINUOUS
 62
     0
 10
38756.01794364822
 20
-5538.35337936645
  0
VERTEX
  8
0
  6
CONTINUOUS
 62
     0
 10
38755.6430039984
 20
-5538.649377420655
  0
VERTEX
  8
0
  6
CONTINUOUS
 62
     0
 10
38755.23254680643
 20
-5538.87901875635
  0
VERTEX
  8
0
  6
CONTINUOUS
 62
     0
 10
38754.8035692367
 20
-5539.03817645384
  0
VERTEX
  8
0
  6
CONTINUOUS
 62
     0
 10
38754.37260050106
 20
-5539.128005505738
  0
VERTEX
  8
0
  6
CONTINUOUS
 62
     0
 10
38753.95389324931
 20
-5539.154029790059
  0
VERTEX
  8
0
  6
CONTINUOUS
 62
     0
 10
38753.53320188303
 20
-5539.121025670527
  0
VERTEX
  8
0
  6
CONTINUOUS
 62
     0
 10
38753.10166874746
 20
-5539.02339884409
  0
VERTEX
  8
0
  6
CONTINUOUS
 62
     0
 10
38752.67394526223
 20
-5538.856063412421
  0
VERTEX
  8
0
  6
CONTINUOUS
 62
     0
 10
38752.26671405391
 20
-5538.618441405056
  0
VERTEX
  8
0
  6
CONTINUOUS
 62
     0
 10
38751.89689316087
 20
-5538.315292430997
  0
VERTEX
  8
0
  6
CONTINUOUS
 62
     0
 10
38751.57950442633
 20
-5537.956657428627
  0
VERTEX
  8
0
  6
CONTINUOUS
 62
     0
 10
38751.32571900641
 20
-5537.556805655944
  0
VERTEX
  8
0
  6
CONTINUOUS
 62
     0
 10
38751.14158840194
 20
-5537.13240137806
  0
VERTEX
  8
0
  6
CONTINUOUS
 62
     0
 10
38751.02775084654
 20
-5536.70036427584
  0
VERTEX
  8
0
  6
CONTINUOUS
 62
     0
 10
38750.98007672338
 20
-5536.275955722979
  0
VERTEX
  8
0
  6
CONTINUOUS
 62
     0
 10
38750.97760188355
 20
-5459.110803594236
  0
VERTEX
  8
0
  6
CONTINUOUS
 62
     0
 10
38750.97760187994
 20
-5350.01073837898
  0
VERTEX
  8
0
  6
CONTINUOUS
 62
     0
 10
38750.97760187699
 20
-5240.910673163724
  0
VERTEX
  8
0
  6
CONTINUOUS
 62
     0
 10
38750.97760187472
 20
-5131.810607948468
  0
VERTEX
  8
0
  6
CONTINUOUS
 62
     0
 10
38750.97760187312
 20
-5022.71054273321
  0
VERTEX
  8
0
  6
CONTINUOUS
 62
     0
 10
38750.97760187219
 20
-4913.610477517954
  0
VERTEX
  8
0
  6
CONTINUOUS
 62
     0
 10
38750.97764346281
 20
-4817.09936977485
  0
VERTEX
  8
0
  6
CONTINUOUS
 62
     0
 10
38750.98155218452
 20
-4816.979695761259
  0
VERTEX
  8
0
  6
CONTINUOUS
 62
     0
 10
38750.992058582
 20
-4816.858156941827
  0
VERTEX
  8
0
  6
CONTINUOUS
 62
     0
 10
38751.00947538848
 20
-4816.73512107805
  0
VERTEX
  8
0
  6
CONTINUOUS
 62
     0
 10
38751.03408319266
 20
-4816.610993325024
  0
VERTEX
  8
0
  6
CONTINUOUS
 62
     0
 10
38751.06612399017
 20
-4816.486214068679
  0
VERTEX
  8
0
  6
CONTINUOUS
 62
     0
 10
38751.10579486712
 20
-4816.361255839966
  0
VERTEX
  8
0
  6
CONTINUOUS
 62
     0
 10
38751.15324200999
 20
-4816.236619289546
  0
VERTEX
  8
0
  6
CONTINUOUS
 62
     0
 10
38751.20855524892
 20
-4816.112828240442
  0
VERTEX
  8
0
  6
CONTINUOUS
 62
     0
 10
38751.27176334323
 20
-4815.990423873839
  0
VERTEX
  8
0
  6
CONTINUOUS
 62
     0
 10
38751.34283021246
 20
-4815.869958142817
  0
VERTEX
  8
0
  6
CONTINUOUS
 62
     0
 10
38751.42165229698
 20
-4815.751986548148
  0
VERTEX
  8
0
  6
CONTINUOUS
 62
     0
 10
38751.50805720378
 20
-4815.637060446646
  0
VERTEX
  8
0
  6
CONTINUOUS
 62
     0
 10
38751.6018037531
 20
-4815.525719093603
  0
VERTEX
  8
0
  6
CONTINUOUS
 62
     0
 10
38751.70258349307
 20
-4815.418481643712
  0
VERTEX
  8
0
  6
CONTINUOUS
 62
     0
 10
38751.81002369398
 20
-4815.31583934791
  0
VERTEX
  8
0
  6
CONTINUOUS
 62
     0
 10
38751.92369177614
 20
-4815.21824818492
  0
VERTEX
  8
0
  6
CONTINUOUS
 62
     0
 10
38752.04310106608
 20
-4815.126122155563
  0
VERTEX
  8
0
  6
CONTINUOUS
 62
     0
 10
38752.1677177222
 20
-4815.03982744528
  0
VERTEX
  8
0
  6
CONTINUOUS
 62
     0
 10
38752.2969686237
 20
-4814.959677626971
  0
VERTEX
  8
0
  6
CONTINUOUS
 62
     0
 10
38752.43024998025
 20
-4814.885930034298
  0
VERTEX
  8
0
  6
CONTINUOUS
 62
     0
 10
38752.56693639606
 20
-4814.818783387676
  0
VERTEX
  8
0
  6
CONTINUOUS
 62
     0
 10
38752.70639011203
 20
-4814.758376704404
  0
VERTEX
  8
0
  6
CONTINUOUS
 62
     0
 10
38752.84797015377
 20
-4814.704789473994
  0
VERTEX
  8
0
  6
CONTINUOUS
 62
     0
 10
38752.99104113018
 20
-4814.658043032853
  0
VERTEX
  8
0
  6
CONTINUOUS
 62
     0
 10
38753.13498145578
 20
-4814.618103031452
  0
VERTEX
  8
0
  6
CONTINUOUS
 62
     0
 10
38753.27919080691
 20
-4814.58488285432
  0
VERTEX
  8
0
  6
CONTINUOUS
 62
     0
 10
38753.42309666461
 20
-4814.558247829512
  0
VERTEX
  8
0
  6
CONTINUOUS
 62
     0
 10
38753.56615984289
 20
-4814.538020050256
  0
VERTEX
  8
0
  6
CONTINUOUS
 62
     0
 10
38753.70787894646
 20
-4814.523983627108
  0
VERTEX
  8
0
  6
CONTINUOUS
 62
     0
 10
38753.84779374491
 20
-4814.515890192955
  0
VERTEX
  8
0
  6
CONTINUOUS
 62
     0
 10
38753.98549608351
 20
-4814.513464514298
  0
VERTEX
  8
0
  6
CONTINUOUS
 62
     0
 10
38754.12346625049
 20
-4814.516530123084
  0
VERTEX
  8
0
  6
CONTINUOUS
 62
     0
 10
38754.26361160368
 20
-4814.525296458306
  0
VERTEX
  8
0
  6
CONTINUOUS
 62
     0
 10
38754.40551028513
 20
-4814.540035952214
  0
VERTEX
  8
0
  6
CONTINUOUS
 62
     0
 10
38754.54869717131
 20
-4814.560993505685
  0
VERTEX
  8
0
  6
CONTINUOUS
 62
     0
 10
38754.69266630867
 20
-4814.588380898584
  0
VERTEX
  8
0
  6
CONTINUOUS
 62
     0
 10
38754.83687441246
 20
-4814.622371305177
  0
VERTEX
  8
0
  6
CONTINUOUS
 62
     0
 10
38754.98074544951
 20
-4814.663094082503
  0
VERTEX
  8
0
  6
CONTINUOUS
 62
     0
 10
38755.12367628742
 20
-4814.710630010151
  0
VERTEX
  8
0
  6
CONTINUOUS
 62
     0
 10
38755.26504334903
 20
-4814.765007163115
  0
VERTEX
  8
0
  6
CONTINUOUS
 62
     0
 10
38755.40421016543
 20
-4814.826197593889
  0
VERTEX
  8
0
  6
CONTINUOUS
 62
     0
 10
38755.54053567541
 20
-4814.894114984884
  0
VERTEX
  8
0
  6
CONTINUOUS
 62
     0
 10
38755.67338307649
 20
-4814.968613407575
  0
VERTEX
  8
0
  6
CONTINUOUS
 62
     0
 10
38755.8021289974
 20
-4815.049487290772
  0
VERTEX
  8
0
  6
CONTINUOUS
 62
     0
 10
38755.92617273371
 20
-4815.136472658815
  0
VERTEX
  8
0
  6
CONTINUOUS
 62
     0
 10
38756.0449452735
 20
-4815.229249652861
  0
VERTEX
  8
0
  6
CONTINUOUS
 62
     0
 10
38756.15791783699
 20
-4815.327446297931
  0
VERTEX
  8
0
  6
CONTINUOUS
 62
     0
 10
38756.26460966607
 20
-4815.430643427756
  0
VERTEX
  8
0
  6
CONTINUOUS
 62
     0
 10
38756.36459482454
 20
-4815.538380632066
  0
VERTEX
  8
0
  6
CONTINUOUS
 62
     0
 10
38756.45750780803
 20
-4815.650163049849
  0
VERTEX
  8
0
  6
CONTINUOUS
 62
     0
 10
38756.5430478105
 20
-4815.765468799994
  0
VERTEX
  8
0
  6
CONTINUOUS
 62
     0
 10
38756.62098154893
 20
-4815.883756819369
  0
VERTEX
  8
0
  6
CONTINUOUS
 62
     0
 10
38756.6911446066
 20
-4816.004474869066
  0
VERTEX
  8
0
  6
CONTINUOUS
 62
     0
 10
38756.75344131348
 20
-4816.127067472374
  0
VERTEX
  8
0
  6
CONTINUOUS
 62
     0
 10
38756.80784323684
 20
-4816.25098356219
  0
VERTEX
  8
0
  6
CONTINUOUS
 62
     0
 10
38756.85438640288
 20
-4816.375683639605
  0
VERTEX
  8
0
  6
CONTINUOUS
 62
     0
 10
38756.89316740843
 20
-4816.500646277081
  0
VERTEX
  8
0
  6
CONTINUOUS
 62
     0
 10
38756.92433861048
 20
-4816.625373836631
  0
VERTEX
  8
0
  6
CONTINUOUS
 62
     0
 10
38756.94810259678
 20
-4816.749397312711
  0
VERTEX
  8
0
  6
CONTINUOUS
 62
     0
 10
38756.96470614794
 20
-4816.872280249227
  0
VERTEX
  8
0
  6
CONTINUOUS
 62
     0
 10
38756.97443389591
 20
-4816.993621717274
  0
VERTEX
  8
0
  6
CONTINUOUS
 62
     0
 10
38756.97760187195
 20
-4817.113058373727
  0
SEQEND
  8
0
  6
CONTINUOUS
 62
     0
  0
ARC
  8
0
  6
CONTINUOUS
 62
     0
 10
39028.97764038133
 20
-5015.479560557525
 40
205.6165522158951
 50
89.997043845067
 51
111.39258624023
  0
LINE
  8
0
 10
38756.97734187537
 20
-5031.681920136625
 11
39028.98703078469
 21
-5032.824373135213
  0
POLYLINE
  8
0
 66
     1
  0
VERTEX
  8
0
 10
38750.97760187194
 20
-4824.917163046424
 42
0.149570519457
  0
VERTEX
  8
0
 10
38734.69530476658
 20
-4891.858397111557
  0
VERTEX
  8
0
 10
38734.69530476658
 20
-5467.973577211304
 42
0.028948486308
  0
VERTEX
  8
0
 10
38750.97760187194
 20
-5519.026770137315
  0
SEQEND
  8
0
  0
ARC
  8
0
 10
38803.96163342259
 20
-4891.735615676689
 40
70.91240790295879
 50
83.852064376264
 51
100.064425602431
  0
ARC
  8
0
 10
38953.97884995579
 20
-4891.22512114405
 40
70.40301553739715
 50
83.821559520486
 51
96.180074730373
  0
LINE
  8
0
 10
38756.97734115457
 20
-4936.835757313655
 11
38803.97752114893
 21
-4919.360921107766
  0
LINE
  8
0
  6
CONTINUOUS
 62
     0
 10
39028.98426409335
 20
-5539.154123474763
 11
39303.9909311708
 21
-5539.15712886217
  0
LINE
  8
0
  6
CONTINUOUS
 62
     0
 10
39300.99123930456
 20
-5510.515638328749
 11
39300.99123759289
 21
-5510.672263734625
  0
ARC
  8
0
  6
CONTINUOUS
 62
     0
 10
39306.90919999023
 20
-5031.116895938821
 40
0.0873517450888999
 50
2.351148729782
 51
43.273159082604
  0
POLYLINE
  8
0
  6
CONTINUOUS
 62
     0
 66
     1
  0
VERTEX
  8
0
  6
CONTINUOUS
 62
     0
 10
39300.99798623545
 20
-4893.140662650986
  0
VERTEX
  8
0
  6
CONTINUOUS
 62
     0
 10
39301.01011895689
 20
-4893.374248637301
  0
VERTEX
  8
0
  6
CONTINUOUS
 62
     0
 10
39301.04806496072
 20
-4893.613694869696
  0
VERTEX
  8
0
  6
CONTINUOUS
 62
     0
 10
39301.11378154377
 20
-4893.855965998654
  0
VERTEX
  8
0
  6
CONTINUOUS
 62
     0
 10
39301.20861087485
 20
-4894.097565012434
  0
VERTEX
  8
0
  6
CONTINUOUS
 62
     0
 10
39301.33312116659
 20
-4894.334649851077
  0
VERTEX
  8
0
  6
CONTINUOUS
 62
     0
 10
39301.48698415579
 20
-4894.563196034768
  0
VERTEX
  8
0
  6
CONTINUOUS
 62
     0
 10
39301.66890876621
 20
-4894.77919479502
  0
VERTEX
  8
0
  6
CONTINUOUS
 62
     0
 10
39301.87664580326
 20
-4894.978869063897
  0
VERTEX
  8
0
  6
CONTINUOUS
 62
     0
 10
39302.10706980035
 20
-4895.158884738145
  0
VERTEX
  8
0
  6
CONTINUOUS
 62
     0
 10
39302.35633319656
 20
-4895.316533420169
  0
VERTEX
  8
0
  6
CONTINUOUS
 62
     0
 10
39302.62007722045
 20
-4895.449866022339
  0
VERTEX
  8
0
  6
CONTINUOUS
 62
     0
 10
39302.89367569179
 20
-4895.557763694318
  0
VERTEX
  8
0
  6
CONTINUOUS
 62
     0
 10
39303.17248427788
 20
-4895.639941895914
  0
VERTEX
  8
0
  6
CONTINUOUS
 62
     0
 10
39303.4520691428
 20
-4895.696892918016
  0
VERTEX
  8
0
  6
CONTINUOUS
 62
     0
 10
39303.72839462697
 20
-4895.729779718686
  0
VERTEX
  8
0
  6
CONTINUOUS
 62
     0
 10
39303.99795782573
 20
-4895.740298295723
  0
VERTEX
  8
0
  6
CONTINUOUS
 62
     0
 10
39304.26752125432
 20
-4895.729785610487
  0
VERTEX
  8
0
  6
CONTINUOUS
 62
     0
 10
39304.54384745721
 20
-4895.696904849424
  0
VERTEX
  8
0
  6
CONTINUOUS
 62
     0
 10
39304.82343356685
 20
-4895.639959938178
  0
VERTEX
  8
0
  6
CONTINUOUS
 62
     0
 10
39305.10224394903
 20
-4895.557787830472
  0
VERTEX
  8
0
  6
CONTINUOUS
 62
     0
 10
39305.37584477862
 20
-4895.449896138515
  0
VERTEX
  8
0
  6
CONTINUOUS
 62
     0
 10
39305.63959171667
 20
-4895.316569300986
  0
VERTEX
  8
0
  6
CONTINUOUS
 62
     0
 10
39305.88885855852
 20
-4895.158926067108
  0
VERTEX
  8
0
  6
CONTINUOUS
 62
     0
 10
39306.11928649012
 20
-4894.978915429243
  0
VERTEX
  8
0
  6
CONTINUOUS
 62
     0
 10
39306.32702789138
 20
-4894.779245700885
  0
VERTEX
  8
0
  6
CONTINUOUS
 62
     0
 10
39306.5089572228
 20
-4894.563250916982
  0
VERTEX
  8
0
  6
CONTINUOUS
 62
     0
 10
39306.66282520726
 20
-4894.334708096304
  0
VERTEX
  8
0
  6
CONTINUOUS
 62
     0
 10
39306.78734068089
 20
-4894.097625979116
  0
VERTEX
  8
0
  6
CONTINUOUS
 62
     0
 10
39306.88217529254
 20
-4893.856029038064
  0
VERTEX
  8
0
  6
CONTINUOUS
 62
     0
 10
39306.94789717086
 20
-4893.61375934552
  0
VERTEX
  8
0
  6
CONTINUOUS
 62
     0
 10
39306.98584840821
 20
-4893.374313942562
  0
VERTEX
  8
0
  6
CONTINUOUS
 62
     0
 10
39306.9979862351
 20
-4893.140728221485
  0
SEQEND
  8
0
  6
CONTINUOUS
 62
     0
  0
LINE
  8
0
  6
CONTINUOUS
 62
     0
 10
39253.99770453206
 20
-4919.363380111358
 11
39178.99797138233
 21
-4894.944951997005
  0
LINE
  8
0
  6
CONTINUOUS
 62
     0
 10
39178.99797138233
 20
-4894.944951997016
 11
39103.99770454102
 21
-4919.361740848856
  0
LINE
  8
0
  6
CONTINUOUS
 62
     0
 10
39103.99770454102
 20
-4919.361740848878
 11
39028.99797139129
 21
-4894.943312734525
  0
LINE
  8
0
  6
CONTINUOUS
 62
     0
 10
39253.99770453206
 20
-4919.363380111358
 11
39300.99812784779
 21
-4904.062109057525
  0
LINE
  8
0
  6
CONTINUOUS
 62
     0
 10
39253.99874635444
 20
-4824.031877395169
 11
39300.99825582749
 21
-4868.47176014333
  0
LINE
  8
0
  6
CONTINUOUS
 62
     0
 10
39103.9987463634
 20
-4824.030238132689
 11
39028.99797139129
 21
-4894.943312734525
  0
LINE
  8
0
  6
CONTINUOUS
 62
     0
 10
39178.99797138233
 20
-4894.944951997016
 11
39103.9987463634
 21
-4824.030238132671
  0
LINE
  8
0
  6
CONTINUOUS
 62
     0
 10
39253.99874635444
 20
-4824.031877395169
 11
39178.99797138233
 21
-4894.944951997005
  0
ARC
  8
0
  6
CONTINUOUS
 62
     0
 10
39178.99666444599
 20
-5015.481250713869
 40
205.616552215895
 50
68.606787607624
 51
111.391998888481
  0
ARC
  8
0
  6
CONTINUOUS
 62
     0
 10
39328.99462757704
 20
-5226.563910352718
 40
409.4585647774241
 50
93.920530493432
 51
100.553737640834
  0
POLYLINE
  8
0
  6
CONTINUOUS
 62
     0
 66
     1
  0
VERTEX
  8
0
  6
CONTINUOUS
 62
     0
 10
39300.99907906698
 20
-4817.081697924275
  0
VERTEX
  8
0
  6
CONTINUOUS
 62
     0
 10
39300.99788588993
 20
-4926.18697248889
  0
VERTEX
  8
0
  6
CONTINUOUS
 62
     0
 10
39300.99669271287
 20
-5035.292247053507
  0
VERTEX
  8
0
  6
CONTINUOUS
 62
     0
 10
39300.99549953581
 20
-5144.397521618123
  0
VERTEX
  8
0
  6
CONTINUOUS
 62
     0
 10
39300.99430635877
 20
-5253.502796182739
  0
VERTEX
  8
0
  6
CONTINUOUS
 62
     0
 10
39300.99311318171
 20
-5362.608070747356
  0
VERTEX
  8
0
  6
CONTINUOUS
 62
     0
 10
39300.99192000466
 20
-5471.713345311971
  0
VERTEX
  8
0
  6
CONTINUOUS
 62
     0
 10
39300.99602182491
 20
-5536.32713864578
  0
VERTEX
  8
0
  6
CONTINUOUS
 62
     0
 10
39301.05096148198
 20
-5536.753121377083
  0
VERTEX
  8
0
  6
CONTINUOUS
 62
     0
 10
39301.17274711754
 20
-5537.185103680389
  0
VERTEX
  8
0
  6
CONTINUOUS
 62
     0
 10
39301.36501598991
 20
-5537.607552250445
  0
VERTEX
  8
0
  6
CONTINUOUS
 62
     0
 10
39301.6265232986
 20
-5538.003470553826
  0
VERTEX
  8
0
  6
CONTINUOUS
 62
     0
 10
39301.9505932733
 20
-5538.356362456149
  0
VERTEX
  8
0
  6
CONTINUOUS
 62
     0
 10
39302.3255296883
 20
-5538.652364607831
  0
VERTEX
  8
0
  6
CONTINUOUS
 62
     0
 10
39302.73598437062
 20
-5538.882010429161
  0
VERTEX
  8
0
  6
CONTINUOUS
 62
     0
 10
39303.16496020099
 20
-5539.041172814686
  0
VERTEX
  8
0
  6
CONTINUOUS
 62
     0
 10
39303.59592795491
 20
-5539.131006576385
  0
VERTEX
  8
0
  6
CONTINUOUS
 62
     0
 10
39304.01463492224
 20
-5539.157035436512
  0
VERTEX
  8
0
  6
CONTINUOUS
 62
     0
 10
39304.43532664917
 20
-5539.124035914473
  0
VERTEX
  8
0
  6
CONTINUOUS
 62
     0
 10
39304.86686085163
 20
-5539.026413804015
  0
VERTEX
  8
0
  6
CONTINUOUS
 62
     0
 10
39305.29458616555
 20
-5538.859083046696
  0
VERTEX
  8
0
  6
CONTINUOUS
 62
     0
 10
39305.70181997067
 20
-5538.621465489738
  0
VERTEX
  8
0
  6
CONTINUOUS
 62
     0
 10
39306.07164417663
 20
-5538.318320557254
  0
VERTEX
  8
0
  6
CONTINUOUS
 62
     0
 10
39306.38903683046
 20
-5537.959689023462
  0
VERTEX
  8
0
  6
CONTINUOUS
 62
     0
 10
39306.64282662012
 20
-5537.559840024274
  0
VERTEX
  8
0
  6
CONTINUOUS
 62
     0
 10
39306.82696186263
 20
-5537.135437758671
  0
VERTEX
  8
0
  6
CONTINUOUS
 62
     0
 10
39306.94080413951
 20
-5536.703401900542
  0
VERTEX
  8
0
  6
CONTINUOUS
 62
     0
 10
39306.98848290078
 20
-5536.27899386871
  0
VERTEX
  8
0
  6
CONTINUOUS
 62
     0
 10
39306.99180103354
 20
-5459.11384177162
  0
VERTEX
  8
0
  6
CONTINUOUS
 62
     0
 10
39306.99299332811
 20
-5350.01377656288
  0
VERTEX
  8
0
  6
CONTINUOUS
 62
     0
 10
39306.994185622
 20
-5240.913711354137
  0
VERTEX
  8
0
  6
CONTINUOUS
 62
     0
 10
39306.99537791523
 20
-5131.813646145397
  0
VERTEX
  8
0
  6
CONTINUOUS
 62
     0
 10
39306.9965702078
 20
-5022.713580936655
  0
VERTEX
  8
0
  6
CONTINUOUS
 62
     0
 10
39306.99776249968
 20
-4913.613515727912
  0
VERTEX
  8
0
  6
CONTINUOUS
 62
     0
 10
39306.99877562264
 20
-4817.102407990118
  0
VERTEX
  8
0
  6
CONTINUOUS
 62
     0
 10
39306.99486820879
 20
-4816.982733933817
  0
VERTEX
  8
0
  6
CONTINUOUS
 62
     0
 10
39306.98436313953
 20
-4816.861194999576
  0
VERTEX
  8
0
  6
CONTINUOUS
 62
     0
 10
39306.96694767765
 20
-4816.738158945465
  0
VERTEX
  8
0
  6
CONTINUOUS
 62
     0
 10
39306.94234122999
 20
-4816.614030923524
  0
VERTEX
  8
0
  6
CONTINUOUS
 62
     0
 10
39306.9103017961
 20
-4816.489251317032
  0
VERTEX
  8
0
  6
CONTINUOUS
 62
     0
 10
39306.87063228476
 20
-4816.364292654785
  0
VERTEX
  8
0
  6
CONTINUOUS
 62
     0
 10
39306.82318650396
 20
-4816.23965558585
  0
VERTEX
  8
0
  6
CONTINUOUS
 62
     0
 10
39306.76787461789
 20
-4816.115863932268
  0
VERTEX
  8
0
  6
CONTINUOUS
 62
     0
 10
39306.70466786126
 20
-4815.993458874907
  0
VERTEX
  8
0
  6
CONTINUOUS
 62
     0
 10
39306.63360230853
 20
-4815.872992367245
  0
VERTEX
  8
0
  6
CONTINUOUS
 62
     0
 10
39306.55478151327
 20
-4815.755019911181
  0
VERTEX
  8
0
  6
CONTINUOUS
 62
     0
 10
39306.46837786244
 20
-4815.640092865419
  0
VERTEX
  8
0
  6
CONTINUOUS
 62
     0
 10
39306.3746325299
 20
-4815.528750487882
  0
VERTEX
  8
0
  6
CONTINUOUS
 62
     0
 10
39306.27385396189
 20
-4815.421511936634
  0
VERTEX
  8
0
  6
CONTINUOUS
 62
     0
 10
39306.16641488267
 20
-4815.318868466686
  0
VERTEX
  8
0
  6
CONTINUOUS
 62
     0
 10
39306.05274786704
 20
-4815.221276061489
  0
VERTEX
  8
0
  6
CONTINUOUS
 62
     0
 10
39305.93333958391
 20
-4815.129148727184
  0
VERTEX
  8
0
  6
CONTINUOUS
 62
     0
 10
39305.80872387087
 20
-4815.042852655043
  0
VERTEX
  8
0
  6
CONTINUOUS
 62
     0
 10
39305.67947384528
 20
-4814.962701424231
  0
VERTEX
  8
0
  6
CONTINUOUS
 62
     0
 10
39305.54619329468
 20
-4814.888952375009
  0
VERTEX
  8
0
  6
CONTINUOUS
 62
     0
 10
39305.40950761268
 20
-4814.821804234625
  0
VERTEX
  8
0
  6
CONTINUOUS
 62
     0
 10
39305.27005455687
 20
-4814.761396027347
  0
VERTEX
  8
0
  6
CONTINUOUS
 62
     0
 10
39305.12847510077
 20
-4814.707807249695
  0
VERTEX
  8
0
  6
CONTINUOUS
 62
     0
 10
39304.98540463525
 20
-4814.661059245019
  0
VERTEX
  8
0
  6
CONTINUOUS
 62
     0
 10
39304.84146474612
 20
-4814.621117670578
  0
VERTEX
  8
0
  6
CONTINUOUS
 62
     0
 10
39304.69725575803
 20
-4814.587895917471
  0
VERTEX
  8
0
  6
CONTINUOUS
 62
     0
 10
39304.55335019143
 20
-4814.56125932
  0
VERTEX
  8
0
  6
CONTINUOUS
 62
     0
 10
39304.41028723422
 20
-4814.541029977292
  0
VERTEX
  8
0
  6
CONTINUOUS
 62
     0
 10
39304.26856828405
 20
-4814.526992005379
  0
VERTEX
  8
0
  6
CONTINUOUS
 62
     0
 10
39304.12865357405
 20
-4814.51889704218
  0
VERTEX
  8
0
  6
CONTINUOUS
 62
     0
 10
39303.99095126197
 20
-4814.516469858653
  0
VERTEX
  8
0
  6
CONTINUOUS
 62
     0
 10
39303.85298106149
 20
-4814.519533959643
  0
VERTEX
  8
0
  6
CONTINUOUS
 62
     0
 10
39303.71283561251
 20
-4814.528298763299
  0
VERTEX
  8
0
  6
CONTINUOUS
 62
     0
 10
39303.57093676998
 20
-4814.543036706476
  0
VERTEX
  8
0
  6
CONTINUOUS
 62
     0
 10
39303.42774965479
 20
-4814.563992695143
  0
VERTEX
  8
0
  6
CONTINUOUS
 62
     0
 10
39303.28378021815
 20
-4814.591378514685
  0
VERTEX
  8
0
  6
CONTINUOUS
 62
     0
 10
39303.13957174289
 20
-4814.625367345308
  0
VERTEX
  8
0
  6
CONTINUOUS
 62
     0
 10
39302.99570026082
 20
-4814.666088550351
  0
VERTEX
  8
0
  6
CONTINUOUS
 62
     0
 10
39302.85276890343
 20
-4814.713622915988
  0
VERTEX
  8
0
  6
CONTINUOUS
 62
     0
 10
39302.71140124758
 20
-4814.767998524031
  0
VERTEX
  8
0
  6
CONTINUOUS
 62
     0
 10
39302.57223376246
 20
-4814.829187433927
  0
VERTEX
  8
0
  6
CONTINUOUS
 62
     0
 10
39302.43590751025
 20
-4814.897103335096
  0
VERTEX
  8
0
  6
CONTINUOUS
 62
     0
 10
39302.30305929502
 20
-4814.97160030597
  0
VERTEX
  8
0
  6
CONTINUOUS
 62
     0
 10
39302.1743124903
 20
-4815.052472782175
  0
VERTEX
  8
0
  6
CONTINUOUS
 62
     0
 10
39302.05026780339
 20
-4815.139456794611
  0
VERTEX
  8
0
  6
CONTINUOUS
 62
     0
 10
39301.93149424971
 20
-4815.232232490655
  0
VERTEX
  8
0
  6
CONTINUOUS
 62
     0
 10
39301.81852061309
 20
-4815.330427901108
  0
VERTEX
  8
0
  6
CONTINUOUS
 62
     0
 10
39301.71182765623
 20
-4815.433623864956
  0
VERTEX
  8
0
  6
CONTINUOUS
 62
     0
 10
39301.61184132037
 20
-4815.541359976578
  0
VERTEX
  8
0
  6
CONTINUOUS
 62
     0
 10
39301.51892711529
 20
-4815.653141378962
  0
VERTEX
  8
0
  6
CONTINUOUS
 62
     0
 10
39301.43338585271
 20
-4815.768446194285
  0
VERTEX
  8
0
  6
CONTINUOUS
 62
     0
 10
39301.35545082159
 20
-4815.886733361961
  0
VERTEX
  8
0
  6
CONTINUOUS
 62
     0
 10
39301.28528644467
 20
-4816.007450644879
  0
VERTEX
  8
0
  6
CONTINUOUS
 62
     0
 10
39301.22298839805
 20
-4816.130042567375
  0
VERTEX
  8
0
  6
CONTINUOUS
 62
     0
 10
39301.16858512048
 20
-4816.253958062657
  0
VERTEX
  8
0
  6
CONTINUOUS
 62
     0
 10
39301.12204059168
 20
-4816.378657631421
  0
VERTEX
  8
0
  6
CONTINUOUS
 62
     0
 10
39301.08325822047
 20
-4816.503619845074
  0
VERTEX
  8
0
  6
CONTINUOUS
 62
     0
 10
39301.05208565537
 20
-4816.628347063966
  0
VERTEX
  8
0
  6
CONTINUOUS
 62
     0
 10
39301.02832031369
 20
-4816.752370280335
  0
VERTEX
  8
0
  6
CONTINUOUS
 62
     0
 10
39301.01171541961
 20
-4816.875253035394
  0
VERTEX
  8
0
  6
CONTINUOUS
 62
     0
 10
39301.00198634557
 20
-4816.996594397124
  0
VERTEX
  8
0
  6
CONTINUOUS
 62
     0
 10
39300.99881706428
 20
-4817.116031018949
  0
SEQEND
  8
0
  6
CONTINUOUS
 62
     0
  0
ARC
  8
0
  6
CONTINUOUS
 62
     0
 10
39028.99661073936
 20
-5015.479560661184
 40
205.616552215895
 50
68.606787607624
 51
90.002330002789
  0
LINE
  8
0
 10
39300.99673216295
 20
-5031.684892771876
 11
39028.98703078467
 21
-5032.824373135213
  0
POLYLINE
  8
0
 66
     1
  0
VERTEX
  8
0
 10
39306.99873177741
 20
-4824.92020126168
 42
-0.149570519457
  0
VERTEX
  8
0
 10
39323.28029732011
 20
-4891.861613262539
  0
VERTEX
  8
0
 10
39323.27400129345
 20
-5467.976793327884
 42
-0.028948486308
  0
VERTEX
  8
0
 10
39306.99114625851
 20
-5519.029808311121
  0
SEQEND
  8
0
  0
ARC
  8
0
 10
39254.01397001004
 20
-4891.738074856388
 40
70.91240790295878
 50
79.934948245424
 51
96.147309471591
  0
ARC
  8
0
 10
39103.9967590647
 20
-4891.22594087315
 40
70.40301553739714
 50
83.819299117485
 51
96.177814327367
  0
POLYLINE
  8
0
 66
     1
  0
VERTEX
  8
0
 10
38953.97767285051
 20
-4919.360921107766
  0
VERTEX
  8
0
 10
38970.78330627483
 20
-4924.832299471613
  0
VERTEX
  8
0
 10
38972.46253778227
 20
-4925.437526314521
  0
VERTEX
  8
0
 10
38973.34304902874
 20
-4925.785759495838
  0
VERTEX
  8
0
 10
38974.22375183141
 20
-4926.133959146664
  0
VERTEX
  8
0
 10
38975.10474443226
 20
-4926.482108070461
  0
VERTEX
  8
0
 10
38975.98612507334
 20
-4926.830189070692
  0
VERTEX
  8
0
 10
38976.86799199663
 20
-4927.178184950822
  0
VERTEX
  8
0
 10
38977.75044344415
 20
-4927.52607851431
  0
VERTEX
  8
0
 10
38978.63357765794
 20
-4927.873852564624
  0
VERTEX
  8
0
 10
38979.51749287998
 20
-4928.221489905224
  0
VERTEX
  8
0
 10
38980.40228735229
 20
-4928.568973339573
  0
VERTEX
  8
0
 10
38981.2880593169
 20
-4928.916285671135
  0
VERTEX
  8
0
 10
38982.17490701581
 20
-4929.263409703372
  0
VERTEX
  8
0
 10
38983.06292869104
 20
-4929.610328239747
  0
VERTEX
  8
0
 10
38983.9522225846
 20
-4929.957024083726
  0
VERTEX
  8
0
 10
38984.8428869385
 20
-4930.303480038768
  0
VERTEX
  8
0
 10
38985.73501999476
 20
-4930.649678908337
  0
VERTEX
  8
0
 10
38986.62871999539
 20
-4930.995603495896
  0
VERTEX
  8
0
 10
38987.52408518241
 20
-4931.341236604909
  0
VERTEX
  8
0
 10
38988.42121379782
 20
-4931.686561038838
  0
VERTEX
  8
0
 10
38989.320203067
 20
-4932.031557639178
  0
VERTEX
  8
0
 10
38990.22109118525
 20
-4932.376093327684
  0
VERTEX
  8
0
 10
38991.12382596541
 20
-4932.719860600712
  0
VERTEX
  8
0
 10
38992.02834757426
 20
-4933.0625371988
  0
VERTEX
  8
0
 10
38992.93459617859
 20
-4933.403800862483
  0
VERTEX
  8
0
 10
38993.84251194516
 20
-4933.7433293323
  0
VERTEX
  8
0
 10
38994.75203504076
 20
-4934.08080034879
  0
VERTEX
  8
0
 10
38995.66310563219
 20
-4934.415891652489
  0
VERTEX
  8
0
 10
38996.57566388622
 20
-4934.748280983937
  0
VERTEX
  8
0
 10
38997.48964996962
 20
-4935.077646083671
  0
VERTEX
  8
0
 10
38998.40500404919
 20
-4935.403664692228
  0
VERTEX
  8
0
 10
38999.3216662917
 20
-4935.726014550146
  0
VERTEX
  8
0
 10
39000.23957686393
 20
-4936.044373397964
  0
VERTEX
  8
0
 10
39001.15867593267
 20
-4936.35841897622
  0
VERTEX
  8
0
 10
39002.0789036647
 20
-4936.667829025451
  0
VERTEX
  8
0
 10
39003.00020022681
 20
-4936.972281286196
  0
VERTEX
  8
0
 10
39003.92250578576
 20
-4937.27145349899
  0
VERTEX
  8
0
 10
39004.84576050835
 20
-4937.565023404374
  0
VERTEX
  8
0
 10
39005.76990456136
 20
-4937.852668742886
  0
VERTEX
  8
0
 10
39006.69487811156
 20
-4938.134067255061
  0
VERTEX
  8
0
 10
39007.62062132574
 20
-4938.40889668144
  0
VERTEX
  8
0
 10
39008.54707437069
 20
-4938.676834762559
  0
VERTEX
  8
0
 10
39009.47417741318
 20
-4938.937559238957
  0
VERTEX
  8
0
 10
39010.40187061999
 20
-4939.19074785117
  0
VERTEX
  8
0
 10
39011.3300941579
 20
-4939.436078339739
  0
VERTEX
  8
0
 10
39012.25878819371
 20
-4939.673228445199
  0
VERTEX
  8
0
 10
39013.18789289419
 20
-4939.901875908088
  0
VERTEX
  8
0
 10
39014.11734842612
 20
-4940.121698468947
  0
VERTEX
  8
0
 10
39015.04709495628
 20
-4940.33237386831
  0
VERTEX
  8
0
 10
39015.97707265146
 20
-4940.533579846718
  0
VERTEX
  8
0
 10
39016.90722167843
 20
-4940.724994144707
  0
VERTEX
  8
0
 10
39017.83748220399
 20
-4940.906294502815
  0
VERTEX
  8
0
 10
39018.7677943949
 20
-4941.077158661581
  0
VERTEX
  8
0
 10
39019.69809841796
 20
-4941.237264361542
  0
VERTEX
  8
0
 10
39020.62833443994
 20
-4941.386289343236
  0
VERTEX
  8
0
 10
39021.55844262763
 20
-4941.523911347202
  0
VERTEX
  8
0
 10
39022.4883631478
 20
-4941.649808113976
  0
VERTEX
  8
0
 10
39023.41803616725
 20
-4941.763657384097
  0
VERTEX
  8
0
 10
39024.34740185275
 20
-4941.865136898103
  0
VERTEX
  8
0
 10
39025.27640037108
 20
-4941.95392439653
  0
VERTEX
  8
0
 10
39026.20497188903
 20
-4942.02969761992
  0
VERTEX
  8
0
 10
39027.13305657337
 20
-4942.092134308806
  0
VERTEX
  8
0
 10
39028.06059459089
 20
-4942.140912203729
  0
VERTEX
  8
0
 10
39028.98752610841
 20
-4942.175709045437
  0
VERTEX
  8
0
 10
39029.91445800506
 20
-4942.140922333625
  0
VERTEX
  8
0
 10
39030.84199655559
 20
-4942.092154575227
  0
VERTEX
  8
0
 10
39031.7700819222
 20
-4942.02972802884
  0
VERTEX
  8
0
 10
39032.69865426818
 20
-4941.953964953272
  0
VERTEX
  8
0
 10
39033.62765375675
 20
-4941.865187607332
  0
VERTEX
  8
0
 10
39034.5570205512
 20
-4941.763718249827
  0
VERTEX
  8
0
 10
39035.48669481479
 20
-4941.649879139568
  0
VERTEX
  8
0
 10
39036.41661671075
 20
-4941.52399253536
  0
VERTEX
  8
0
 10
39037.34672640239
 20
-4941.386380696013
  0
VERTEX
  8
0
 10
39038.27696405292
 20
-4941.237365880334
  0
VERTEX
  8
0
 10
39039.20726982562
 20
-4941.077270347132
  0
VERTEX
  8
0
 10
39040.13758388376
 20
-4940.906416355216
  0
VERTEX
  8
0
 10
39041.06784639058
 20
-4940.725126163393
  0
VERTEX
  8
0
 10
39041.99799750935
 20
-4940.533722030471
  0
VERTEX
  8
0
 10
39042.92797740333
 20
-4940.332526215259
  0
VERTEX
  8
0
 10
39043.85772623579
 20
-4940.121860976566
  0
VERTEX
  8
0
 10
39044.78718416998
 20
-4939.902048573198
  0
VERTEX
  8
0
 10
39045.71629136916
 20
-4939.673411263965
  0
VERTEX
  8
0
 10
39046.64498799658
 20
-4939.436271307674
  0
VERTEX
  8
0
 10
39047.57321421552
 20
-4939.190950963134
  0
VERTEX
  8
0
 10
39048.50091018923
 20
-4938.937772489153
  0
VERTEX
  8
0
 10
39049.42801608096
 20
-4938.677058144539
  0
VERTEX
  8
0
 10
39050.35447205399
 20
-4938.409130188101
  0
VERTEX
  8
0
 10
39051.28021827157
 20
-4938.134310878647
  0
VERTEX
  8
0
 10
39052.20519489696
 20
-4937.852922474984
  0
VERTEX
  8
0
 10
39053.12934209342
 20
-4937.565287235921
  0
VERTEX
  8
0
 10
39054.0526000242
 20
-4937.271727420266
  0
VERTEX
  8
0
 10
39054.97490885258
 20
-4936.972565286827
  0
VERTEX
  8
0
 10
39055.89620874181
 20
-4936.668123094414
  0
VERTEX
  8
0
 10
39056.81643985515
 20
-4936.358723101834
  0
VERTEX
  8
0
 10
39057.73554235585
 20
-4936.044687567894
  0
VERTEX
  8
0
 10
39058.6534564072
 20
-4935.726338751405
  0
VERTEX
  8
0
 10
39059.57012217242
 20
-4935.403998911172
  0
VERTEX
  8
0
 10
39060.48547981481
 20
-4935.077990306005
  0
VERTEX
  8
0
 10
39061.39946949759
 20
-4934.748635194712
  0
VERTEX
  8
0
 10
39062.31203138405
 20
-4934.4162558361
  0
VERTEX
  8
0
 10
39063.22310563744
 20
-4934.08117448898
  0
VERTEX
  8
0
 10
39064.13263242102
 20
-4933.743713412158
  0
VERTEX
  8
0
 10
39065.04055189805
 20
-4933.404194864443
  0
VERTEX
  8
0
 10
39065.94680423178
 20
-4933.062941104642
  0
VERTEX
  8
0
 10
39066.8513295855
 20
-4932.720274391565
  0
VERTEX
  8
0
 10
39067.75406812243
 20
-4932.376516984019
  0
VERTEX
  8
0
 10
39068.65496000586
 20
-4932.031991140812
  0
VERTEX
  8
0
 10
39069.55395304525
 20
-4931.687004365024
  0
VERTEX
  8
0
 10
39070.45108543446
 20
-4931.34168973531
  0
VERTEX
  8
0
 10
39071.34645439864
 20
-4930.996066411241
  0
VERTEX
  8
0
 10
39072.24015817964
 20
-4930.650151590427
  0
VERTEX
  8
0
 10
39073.13229501924
 20
-4930.303962470481
  0
VERTEX
  8
0
 10
39074.02296315931
 20
-4929.957516249011
  0
VERTEX
  8
0
 10
39074.91226084165
 20
-4929.610830123629
  0
VERTEX
  8
0
 10
39075.8002863081
 20
-4929.263921291944
  0
VERTEX
  8
0
 10
39076.68713780047
 20
-4928.916806951568
  0
VERTEX
  8
0
 10
39077.5729135606
 20
-4928.569504300112
  0
VERTEX
  8
0
 10
39078.45771183031
 20
-4928.222030535187
  0
VERTEX
  8
0
 10
39079.34163085142
 20
-4927.874402854402
  0
VERTEX
  8
0
 10
39080.22476886576
 20
-4927.526638455367
  0
VERTEX
  8
0
 10
39081.10722411516
 20
-4927.178754535696
  0
VERTEX
  8
0
 10
39081.98909484145
 20
-4926.830768292996
  0
VERTEX
  8
0
 10
39082.87047928644
 20
-4926.48269692488
  0
VERTEX
  8
0
 10
39083.75147569197
 20
-4926.134557628958
  0
VERTEX
  8
0
 10
39084.63218229985
 20
-4925.786367602841
  0
VERTEX
  8
0
 10
39085.51269735191
 20
-4925.438144044139
  0
VERTEX
  8
0
 10
39087.19193547341
 20
-4924.832935552609
  0
VERTEX
  8
0
 10
39103.99762869022
 20
-4919.361740848055
  0
SEQEND
  8
0
  0
LINE
  8
0
 10
39300.99776940213
 20
-4936.838729954576
 11
39253.99778038286
 21
-4919.363380112187
  0
DIMENSION
  8
1DIM
  2
*D406
 10
39303.98332109611
 20
-6814.82651730407
 11
39028.98031160138
 21
-6765.82651730407
 70
    32
 13
38753.97730210665
 23
-6664.82651730407
 33
0.0
 14
39303.98332109611
 24
-6664.82651730407
 34
0.0
  0
DIMENSION
  8
1DIM
  2
*D407
 10
40328.04450396256
 20
-5733.617207423299
 11
40075.65320421311
 21
-5684.617207423299
 70
    32
 13
39823.26190446367
 23
-5883.617207423299
 33
0.0
 14
40328.04450396256
 24
-5883.617207423299
 34
0.0
  0
DIMENSION
  8
1DIM
  2
*D408
 10
40552.97945241968
 20
-6814.82651730407
 11
40188.12067844167
 21
-6765.82651730407
 70
    32
 13
39823.26190446367
 23
-6664.82651730407
 33
0.0
 14
40552.97945241968
 24
-6664.82651730407
 34
0.0
  0
DIMENSION
  8
1DIM
  2
*D410
 10
38584.69530476658
 20
-6664.82651730407
 11
38535.69530476658
 21
-6460.812031092766
 70
    32
  1
410
 13
38734.69530476658
 23
-6256.797544881463
 33
0.0
 14
38734.69530476658
 24
-6664.82651730407
 34
0.0
 50
90.0
  0
DIMENSION
  8
1DIM
  2
*D411
 10
40702.97945241968
 20
-6664.82651730407
 11
40653.97945241968
 21
-6276.990320389416
 70
    32
  1
775
 13
40552.97945241968
 23
-5889.154123474762
 33
0.0
 14
40552.97945241968
 24
-6664.82651730407
 34
0.0
 50
90.0
  0
POLYLINE
  8
0
 66
     1
  0
VERTEX
  8
0
 10
38803.97759699971
 20
-4919.360921107766
  0
VERTEX
  8
0
 10
38820.78043815729
 20
-4924.831390398599
  0
VERTEX
  8
0
 10
38822.4621693574
 20
-4925.437410592524
  0
VERTEX
  8
0
 10
38823.34253424587
 20
-4925.785585925265
  0
VERTEX
  8
0
 10
38824.22309057792
 20
-4926.133727747226
  0
VERTEX
  8
0
 10
38825.10393654661
 20
-4926.481818870438
  0
VERTEX
  8
0
 10
38825.98517034497
 20
-4926.829842106937
  0
VERTEX
  8
0
 10
38826.86689016609
 20
-4927.177780268753
  0
VERTEX
  8
0
 10
38827.74919420298
 20
-4927.52561616792
  0
VERTEX
  8
0
 10
38828.63218064872
 20
-4927.873332616472
  0
VERTEX
  8
0
 10
38829.51594769637
 20
-4928.220912426443
  0
VERTEX
  8
0
 10
38830.40059353896
 20
-4928.568338409865
  0
VERTEX
  8
0
 10
38831.28621636955
 20
-4928.915593378771
  0
VERTEX
  8
0
 10
38832.1729143812
 20
-4929.262660145195
  0
VERTEX
  8
0
 10
38833.06078576695
 20
-4929.609521521169
  0
VERTEX
  8
0
 10
38833.94992871986
 20
-4929.956160318728
  0
VERTEX
  8
0
 10
38834.84044143299
 20
-4930.302559349904
  0
VERTEX
  8
0
 10
38835.73242209938
 20
-4930.64870142673
  0
VERTEX
  8
0
 10
38836.62596891209
 20
-4930.994569361241
  0
VERTEX
  8
0
 10
38837.52118006417
 20
-4931.340145965467
  0
VERTEX
  8
0
 10
38838.41815374867
 20
-4931.685414051443
  0
VERTEX
  8
0
 10
38839.31698717318
 20
-4932.030354529382
  0
VERTEX
  8
0
 10
38840.21771890627
 20
-4932.374835144478
  0
VERTEX
  8
0
 10
38841.12029690631
 20
-4932.718548776988
  0
VERTEX
  8
0
 10
38842.02466136989
 20
-4933.061173328054
  0
VERTEX
  8
0
 10
38842.93075249362
 20
-4933.402386698816
  0
VERTEX
  8
0
 10
38843.83851047411
 20
-4933.741866790417
  0
VERTEX
  8
0
 10
38844.74787550794
 20
-4934.079291504
  0
VERTEX
  8
0
 10
38845.65878779173
 20
-4934.414338740706
  0
VERTEX
  8
0
 10
38846.57118752207
 20
-4934.746686401676
  0
VERTEX
  8
0
 10
38847.48501489555
 20
-4935.076012388055
  0
VERTEX
  8
0
 10
38848.4002101088
 20
-4935.401994600982
  0
VERTEX
  8
0
 10
38849.31671335839
 20
-4935.724310941601
  0
VERTEX
  8
0
 10
38850.23446484095
 20
-4936.042639311054
  0
VERTEX
  8
0
 10
38851.15340475305
 20
-4936.356657610481
  0
VERTEX
  8
0
 10
38852.07347329132
 20
-4936.666043741026
  0
VERTEX
  8
0
 10
38852.99461065234
 20
-4936.970475603833
  0
VERTEX
  8
0
 10
38853.91675703273
 20
-4937.26963110004
  0
VERTEX
  8
0
 10
38854.83985262907
 20
-4937.56318813079
  0
VERTEX
  8
0
 10
38855.76383763796
 20
-4937.850824597226
  0
VERTEX
  8
0
 10
38856.68865225602
 20
-4938.132218400491
  0
VERTEX
  8
0
 10
38857.61423667984
 20
-4938.407047441726
  0
VERTEX
  8
0
 10
38858.54053110603
 20
-4938.674989622072
  0
VERTEX
  8
0
 10
38859.46747573117
 20
-4938.935722842672
  0
VERTEX
  8
0
 10
38860.39501075189
 20
-4939.188925004668
  0
VERTEX
  8
0
 10
38861.32307636477
 20
-4939.434274009202
  0
VERTEX
  8
0
 10
38862.25161276641
 20
-4939.671447757417
  0
VERTEX
  8
0
 10
38863.18056015341
 20
-4939.900124150453
  0
VERTEX
  8
0
 10
38864.10985872239
 20
-4940.119981089454
  0
VERTEX
  8
0
 10
38865.03944866993
 20
-4940.330696475562
  0
VERTEX
  8
0
 10
38865.96927019264
 20
-4940.531948209917
  0
VERTEX
  8
0
 10
38866.89926348712
 20
-4940.723414193663
  0
VERTEX
  8
0
 10
38867.82936874998
 20
-4940.904772327941
  0
VERTEX
  8
0
 10
38868.7595261778
 20
-4941.075700513895
  0
VERTEX
  8
0
 10
38869.68967596719
 20
-4941.235876652664
  0
VERTEX
  8
0
 10
38870.61975831475
 20
-4941.384978645391
  0
VERTEX
  8
0
 10
38871.54971341709
 20
-4941.522684393221
  0
VERTEX
  8
0
 10
38872.4794814708
 20
-4941.648671797292
  0
VERTEX
  8
0
 10
38873.4090026725
 20
-4941.762618758748
  0
VERTEX
  8
0
 10
38874.33821721876
 20
-4941.864203178731
  0
VERTEX
  8
0
 10
38875.2670653062
 20
-4941.953102958382
  0
VERTEX
  8
0
 10
38876.19548713142
 20
-4942.028995998846
  0
VERTEX
  8
0
 10
38877.12342289101
 20
-4942.091560201262
  0
VERTEX
  8
0
 10
38878.05081278159
 20
-4942.140473466772
  0
VERTEX
  8
0
 10
38878.97759699971
 20
-4942.175413696521
  0
VERTEX
  8
0
 10
38879.90438121787
 20
-4942.140473466772
  0
VERTEX
  8
0
 10
38880.83177110845
 20
-4942.091560201262
  0
VERTEX
  8
0
 10
38881.75970686804
 20
-4942.028995998846
  0
VERTEX
  8
0
 10
38882.68812869326
 20
-4941.953102958382
  0
VERTEX
  8
0
 10
38883.61697678071
 20
-4941.864203178732
  0
VERTEX
  8
0
 10
38884.54619132696
 20
-4941.762618758748
  0
VERTEX
  8
0
 10
38885.47571252866
 20
-4941.648671797292
  0
VERTEX
  8
0
 10
38886.40548058237
 20
-4941.522684393221
  0
VERTEX
  8
0
 10
38887.3354356847
 20
-4941.384978645392
  0
VERTEX
  8
0
 10
38888.26551803228
 20
-4941.235876652664
  0
VERTEX
  8
0
 10
38889.19566782167
 20
-4941.075700513895
  0
VERTEX
  8
0
 10
38890.12582524949
 20
-4940.904772327942
  0
VERTEX
  8
0
 10
38891.05593051234
 20
-4940.723414193663
  0
VERTEX
  8
0
 10
38891.98592380682
 20
-4940.531948209917
  0
VERTEX
  8
0
 10
38892.91574532953
 20
-4940.330696475562
  0
VERTEX
  8
0
 10
38893.84533527707
 20
-4940.119981089455
  0
VERTEX
  8
0
 10
38894.77463384605
 20
-4939.900124150453
  0
VERTEX
  8
0
 10
38895.70358123306
 20
-4939.671447757418
  0
VERTEX
  8
0
 10
38896.6321176347
 20
-4939.434274009202
  0
VERTEX
  8
0
 10
38897.56018324757
 20
-4939.188925004668
  0
VERTEX
  8
0
 10
38898.48771826828
 20
-4938.935722842672
  0
VERTEX
  8
0
 10
38899.41466289343
 20
-4938.674989622072
  0
VERTEX
  8
0
 10
38900.34095731961
 20
-4938.407047441726
  0
VERTEX
  8
0
 10
38901.26654174344
 20
-4938.132218400491
  0
VERTEX
  8
0
 10
38902.1913563615
 20
-4937.850824597226
  0
VERTEX
  8
0
 10
38903.11534137039
 20
-4937.56318813079
  0
VERTEX
  8
0
 10
38904.03843696674
 20
-4937.26963110004
  0
VERTEX
  8
0
 10
38904.96058334711
 20
-4936.970475603833
  0
VERTEX
  8
0
 10
38905.88172070814
 20
-4936.666043741026
  0
VERTEX
  8
0
 10
38906.8017892464
 20
-4936.356657610481
  0
VERTEX
  8
0
 10
38907.72072915851
 20
-4936.042639311054
  0
VERTEX
  8
0
 10
38908.63848064106
 20
-4935.7243109416
  0
VERTEX
  8
0
 10
38909.55498389067
 20
-4935.401994600982
  0
VERTEX
  8
0
 10
38910.4701791039
 20
-4935.076012388055
  0
VERTEX
  8
0
 10
38911.38400647739
 20
-4934.746686401676
  0
VERTEX
  8
0
 10
38912.29640620773
 20
-4934.414338740706
  0
VERTEX
  8
0
 10
38913.20731849151
 20
-4934.079291504
  0
VERTEX
  8
0
 10
38914.11668352535
 20
-4933.741866790417
  0
VERTEX
  8
0
 10
38915.02444150583
 20
-4933.402386698816
  0
VERTEX
  8
0
 10
38915.93053262957
 20
-4933.061173328054
  0
VERTEX
  8
0
 10
38916.83489709315
 20
-4932.718548776988
  0
VERTEX
  8
0
 10
38917.73747509318
 20
-4932.374835144478
  0
VERTEX
  8
0
 10
38918.63820682628
 20
-4932.030354529382
  0
VERTEX
  8
0
 10
38919.53704025078
 20
-4931.685414051443
  0
VERTEX
  8
0
 10
38920.43401393529
 20
-4931.340145965467
  0
VERTEX
  8
0
 10
38921.32922508736
 20
-4930.994569361241
  0
VERTEX
  8
0
 10
38922.22277190007
 20
-4930.64870142673
  0
VERTEX
  8
0
 10
38923.11475256647
 20
-4930.302559349903
  0
VERTEX
  8
0
 10
38924.00526527959
 20
-4929.956160318728
  0
VERTEX
  8
0
 10
38924.8944082325
 20
-4929.609521521169
  0
VERTEX
  8
0
 10
38925.78227961826
 20
-4929.262660145195
  0
VERTEX
  8
0
 10
38926.66897762991
 20
-4928.915593378771
  0
VERTEX
  8
0
 10
38927.5546004605
 20
-4928.568338409865
  0
VERTEX
  8
0
 10
38928.43924630309
 20
-4928.220912426443
  0
VERTEX
  8
0
 10
38929.32301335073
 20
-4927.873332616472
  0
VERTEX
  8
0
 10
38930.20599979648
 20
-4927.52561616792
  0
VERTEX
  8
0
 10
38931.08830383337
 20
-4927.177780268752
  0
VERTEX
  8
0
 10
38931.97002365448
 20
-4926.829842106937
  0
VERTEX
  8
0
 10
38932.85125745285
 20
-4926.481818870438
  0
VERTEX
  8
0
 10
38933.73210342153
 20
-4926.133727747226
  0
VERTEX
  8
0
 10
38934.61265975358
 20
-4925.785585925265
  0
VERTEX
  8
0
 10
38935.49302464206
 20
-4925.437410592523
  0
VERTEX
  8
0
 10
38937.17475584218
 20
-4924.831390398594
  0
VERTEX
  8
0
 10
38953.97759699975
 20
-4919.360921107766
  0
SEQEND
  8
0
  0
POLYLINE
  8
0
 66
     1
  0
VERTEX
  8
0
 10
39103.99762869023
 20
-4919.36174084805
  0
VERTEX
  8
0
 10
39120.80046984781
 20
-4924.832210138883
  0
VERTEX
  8
0
 10
39122.48220104792
 20
-4925.438230332808
  0
VERTEX
  8
0
 10
39123.36256593639
 20
-4925.786405665549
  0
VERTEX
  8
0
 10
39124.24312226844
 20
-4926.13454748751
  0
VERTEX
  8
0
 10
39125.12396823712
 20
-4926.482638610722
  0
VERTEX
  8
0
 10
39126.00520203549
 20
-4926.830661847221
  0
VERTEX
  8
0
 10
39126.8869218566
 20
-4927.178600009037
  0
VERTEX
  8
0
 10
39127.7692258935
 20
-4927.526435908204
  0
VERTEX
  8
0
 10
39128.65221233924
 20
-4927.874152356756
  0
VERTEX
  8
0
 10
39129.53597938688
 20
-4928.221732166727
  0
VERTEX
  8
0
 10
39130.42062522948
 20
-4928.569158150149
  0
VERTEX
  8
0
 10
39131.30624806006
 20
-4928.916413119055
  0
VERTEX
  8
0
 10
39132.19294607171
 20
-4929.263479885479
  0
VERTEX
  8
0
 10
39133.08081745747
 20
-4929.610341261453
  0
VERTEX
  8
0
 10
39133.96996041038
 20
-4929.956980059012
  0
VERTEX
  8
0
 10
39134.8604731235
 20
-4930.303379090188
  0
VERTEX
  8
0
 10
39135.7524537899
 20
-4930.649521167014
  0
VERTEX
  8
0
 10
39136.64600060261
 20
-4930.995389101525
  0
VERTEX
  8
0
 10
39137.54121175469
 20
-4931.340965705751
  0
VERTEX
  8
0
 10
39138.43818543919
 20
-4931.686233791727
  0
VERTEX
  8
0
 10
39139.3370188637
 20
-4932.031174269666
  0
VERTEX
  8
0
 10
39140.23775059679
 20
-4932.375654884762
  0
VERTEX
  8
0
 10
39141.14032859683
 20
-4932.719368517272
  0
VERTEX
  8
0
 10
39142.04469306041
 20
-4933.061993068338
  0
VERTEX
  8
0
 10
39142.95078418414
 20
-4933.4032064391
  0
VERTEX
  8
0
 10
39143.85854216463
 20
-4933.742686530701
  0
VERTEX
  8
0
 10
39144.76790719846
 20
-4934.080111244284
  0
VERTEX
  8
0
 10
39145.67881948224
 20
-4934.41515848099
  0
VERTEX
  8
0
 10
39146.59121921258
 20
-4934.74750614196
  0
VERTEX
  8
0
 10
39147.50504658607
 20
-4935.076832128339
  0
VERTEX
  8
0
 10
39148.42024179931
 20
-4935.402814341266
  0
VERTEX
  8
0
 10
39149.33674504891
 20
-4935.725130681885
  0
VERTEX
  8
0
 10
39150.25449653147
 20
-4936.043459051338
  0
VERTEX
  8
0
 10
39151.17343644357
 20
-4936.357477350765
  0
VERTEX
  8
0
 10
39152.09350498184
 20
-4936.66686348131
  0
VERTEX
  8
0
 10
39153.01464234286
 20
-4936.971295344117
  0
VERTEX
  8
0
 10
39153.93678872324
 20
-4937.270450840324
  0
VERTEX
  8
0
 10
39154.85988431959
 20
-4937.564007871074
  0
VERTEX
  8
0
 10
39155.78386932848
 20
-4937.85164433751
  0
VERTEX
  8
0
 10
39156.70868394654
 20
-4938.133038140775
  0
VERTEX
  8
0
 10
39157.63426837036
 20
-4938.40786718201
  0
VERTEX
  8
0
 10
39158.56056279655
 20
-4938.675809362356
  0
VERTEX
  8
0
 10
39159.48750742169
 20
-4938.936542582956
  0
VERTEX
  8
0
 10
39160.41504244241
 20
-4939.189744744952
  0
VERTEX
  8
0
 10
39161.34310805528
 20
-4939.435093749486
  0
VERTEX
  8
0
 10
39162.27164445692
 20
-4939.672267497701
  0
VERTEX
  8
0
 10
39163.20059184393
 20
-4939.900943890737
  0
VERTEX
  8
0
 10
39164.12989041291
 20
-4940.120800829738
  0
VERTEX
  8
0
 10
39165.05948036045
 20
-4940.331516215846
  0
VERTEX
  8
0
 10
39165.98930188316
 20
-4940.532767950201
  0
VERTEX
  8
0
 10
39166.91929517764
 20
-4940.724233933947
  0
VERTEX
  8
0
 10
39167.84940044049
 20
-4940.905592068225
  0
VERTEX
  8
0
 10
39168.77955786831
 20
-4941.076520254179
  0
VERTEX
  8
0
 10
39169.7097076577
 20
-4941.236696392948
  0
VERTEX
  8
0
 10
39170.63979000527
 20
-4941.385798385675
  0
VERTEX
  8
0
 10
39171.56974510761
 20
-4941.523504133505
  0
VERTEX
  8
0
 10
39172.49951316132
 20
-4941.649491537576
  0
VERTEX
  8
0
 10
39173.42903436301
 20
-4941.763438499032
  0
VERTEX
  8
0
 10
39174.35824890927
 20
-4941.865022919015
  0
VERTEX
  8
0
 10
39175.28709699672
 20
-4941.953922698666
  0
VERTEX
  8
0
 10
39176.21551882194
 20
-4942.02981573913
  0
VERTEX
  8
0
 10
39177.14345458153
 20
-4942.092379941546
  0
VERTEX
  8
0
 10
39178.07084447211
 20
-4942.141293207056
  0
VERTEX
  8
0
 10
39178.99762869023
 20
-4942.176233436805
  0
VERTEX
  8
0
 10
39179.92441290839
 20
-4942.141293207056
  0
VERTEX
  8
0
 10
39180.85180279897
 20
-4942.092379941546
  0
VERTEX
  8
0
 10
39181.77973855856
 20
-4942.02981573913
  0
VERTEX
  8
0
 10
39182.70816038378
 20
-4941.953922698666
  0
VERTEX
  8
0
 10
39183.63700847123
 20
-4941.865022919016
  0
VERTEX
  8
0
 10
39184.56622301748
 20
-4941.763438499032
  0
VERTEX
  8
0
 10
39185.49574421917
 20
-4941.649491537576
  0
VERTEX
  8
0
 10
39186.42551227289
 20
-4941.523504133505
  0
VERTEX
  8
0
 10
39187.35546737522
 20
-4941.385798385676
  0
VERTEX
  8
0
 10
39188.28554972279
 20
-4941.236696392948
  0
VERTEX
  8
0
 10
39189.21569951218
 20
-4941.076520254179
  0
VERTEX
  8
0
 10
39190.14585694001
 20
-4940.905592068226
  0
VERTEX
  8
0
 10
39191.07596220286
 20
-4940.724233933947
  0
VERTEX
  8
0
 10
39192.00595549733
 20
-4940.532767950201
  0
VERTEX
  8
0
 10
39192.93577702005
 20
-4940.331516215846
  0
VERTEX
  8
0
 10
39193.86536696758
 20
-4940.120800829739
  0
VERTEX
  8
0
 10
39194.79466553657
 20
-4939.900943890737
  0
VERTEX
  8
0
 10
39195.72361292358
 20
-4939.672267497702
  0
VERTEX
  8
0
 10
39196.65214932521
 20
-4939.435093749486
  0
VERTEX
  8
0
 10
39197.58021493809
 20
-4939.189744744952
  0
VERTEX
  8
0
 10
39198.5077499588
 20
-4938.936542582956
  0
VERTEX
  8
0
 10
39199.43469458395
 20
-4938.675809362356
  0
VERTEX
  8
0
 10
39200.36098901013
 20
-4938.40786718201
  0
VERTEX
  8
0
 10
39201.28657343396
 20
-4938.133038140775
  0
VERTEX
  8
0
 10
39202.21138805202
 20
-4937.85164433751
  0
VERTEX
  8
0
 10
39203.13537306091
 20
-4937.564007871074
  0
VERTEX
  8
0
 10
39204.05846865725
 20
-4937.270450840324
  0
VERTEX
  8
0
 10
39204.98061503763
 20
-4936.971295344117
  0
VERTEX
  8
0
 10
39205.90175239866
 20
-4936.66686348131
  0
VERTEX
  8
0
 10
39206.82182093692
 20
-4936.357477350765
  0
VERTEX
  8
0
 10
39207.74076084903
 20
-4936.043459051338
  0
VERTEX
  8
0
 10
39208.65851233158
 20
-4935.725130681884
  0
VERTEX
  8
0
 10
39209.57501558118
 20
-4935.402814341266
  0
VERTEX
  8
0
 10
39210.49021079442
 20
-4935.076832128339
  0
VERTEX
  8
0
 10
39211.40403816791
 20
-4934.74750614196
  0
VERTEX
  8
0
 10
39212.31643789825
 20
-4934.41515848099
  0
VERTEX
  8
0
 10
39213.22735018203
 20
-4934.080111244284
  0
VERTEX
  8
0
 10
39214.13671521586
 20
-4933.742686530701
  0
VERTEX
  8
0
 10
39215.04447319635
 20
-4933.4032064391
  0
VERTEX
  8
0
 10
39215.95056432009
 20
-4933.061993068338
  0
VERTEX
  8
0
 10
39216.85492878366
 20
-4932.719368517272
  0
VERTEX
  8
0
 10
39217.7575067837
 20
-4932.375654884762
  0
VERTEX
  8
0
 10
39218.65823851679
 20
-4932.031174269666
  0
VERTEX
  8
0
 10
39219.5570719413
 20
-4931.686233791727
  0
VERTEX
  8
0
 10
39220.4540456258
 20
-4931.340965705751
  0
VERTEX
  8
0
 10
39221.34925677788
 20
-4930.995389101525
  0
VERTEX
  8
0
 10
39222.24280359059
 20
-4930.649521167014
  0
VERTEX
  8
0
 10
39223.13478425699
 20
-4930.303379090187
  0
VERTEX
  8
0
 10
39224.02529697011
 20
-4929.956980059012
  0
VERTEX
  8
0
 10
39224.91443992302
 20
-4929.610341261453
  0
VERTEX
  8
0
 10
39225.80231130878
 20
-4929.263479885479
  0
VERTEX
  8
0
 10
39226.68900932043
 20
-4928.916413119055
  0
VERTEX
  8
0
 10
39227.57463215102
 20
-4928.569158150149
  0
VERTEX
  8
0
 10
39228.45927799361
 20
-4928.221732166727
  0
VERTEX
  8
0
 10
39229.34304504125
 20
-4927.874152356756
  0
VERTEX
  8
0
 10
39230.22603148699
 20
-4927.526435908204
  0
VERTEX
  8
0
 10
39231.10833552389
 20
-4927.178600009036
  0
VERTEX
  8
0
 10
39231.990055345
 20
-4926.830661847221
  0
VERTEX
  8
0
 10
39232.87128914337
 20
-4926.482638610722
  0
VERTEX
  8
0
 10
39233.75213511205
 20
-4926.13454748751
  0
VERTEX
  8
0
 10
39234.6326914441
 20
-4925.786405665549
  0
VERTEX
  8
0
 10
39235.51305633257
 20
-4925.438230332807
  0
VERTEX
  8
0
 10
39237.1947875327
 20
-4924.832210138878
  0
VERTEX
  8
0
 10
39253.99762869027
 20
-4919.36174084805
  0
SEQEND
  8
0
  0
ENDSEC
  0
EOF
