  0
SECTION
  2
HEADER
  9
$ACADVER
  1
AC1004
  9
$INSBASE
 10
0.0
 20
0.0
  9
$EXTMIN
 10
38523.26190446366
 20
-6774.82651730407
  9
$EXTMAX
 10
40733.26190446367
 20
-5164.82651730407
  9
$LIMMIN
 10
0.0
 20
0.0
  9
$LIMMAX
 10
12.0
 20
9.0
  9
$ORTHOMODE
 70
     0
  9
$REGENMODE
 70
     1
  9
$FILLMODE
 70
     1
  9
$QTEXTMODE
 70
     0
  9
$DRAGMODE
 70
     2
  9
$LTSCALE
 40
0.5
  9
$OSMODE
 70
  2175
  9
$ATTMODE
 70
     1
  9
$TEXTSIZE
 40
4.0
  9
$TRACEWID
 40
0.05
  9
$TEXTSTYLE
  7
STANDARD
  9
$CLAYER
  8
1DIM
  9
$CELTYPE
  6
BYLAYER
  9
$CECOLOR
 62
   256
  9
$DIMSCALE
 40
10.0
  9
$DIMASZ
 40
2.0
  9
$DIMEXO
 40
0.0
  9
$DIMDLI
 40
7.0
  9
$DIMRND
 40
0.0
  9
$DIMDLE
 40
0.0
  9
$DIMEXE
 40
1.0
  9
$DIMTP
 40
0.0
  9
$DIMTM
 40
0.0
  9
$DIMTXT
 40
3.5
  9
$DIMCEN
 40
0.0
  9
$DIMTSZ
 40
0.0
  9
$DIMTOL
 70
     0
  9
$DIMLIM
 70
     0
  9
$DIMTIH
 70
     0
  9
$DIMTOH
 70
     0
  9
$DIMSE1
 70
     0
  9
$DIMSE2
 70
     0
  9
$DIMTAD
 70
     1
  9
$DIMZIN
 70
     8
  9
$DIMBLK
  1

  9
$DIMASO
 70
     1
  9
$DIMSHO
 70
     1
  9
$DIMPOST
  1
 
  9
$DIMAPOST
  1

  9
$DIMALT
 70
     0
  9
$DIMALTD
 70
     2
  9
$DIMALTF
 40
25.4
  9
$DIMLFAC
 40
1.0
  9
$DIMTOFL
 70
     1
  9
$DIMTVP
 40
0.0
  9
$DIMTIX
 70
     0
  9
$DIMSOXD
 70
     0
  9
$DIMSAH
 70
     1
  9
$DIMBLK1
  1
OPEN30
  9
$DIMBLK2
  1
OPEN30
  9
$LUNITS
 70
     2
  9
$LUPREC
 70
     4
  9
$SKETCHINC
 40
0.1
  9
$FILLETRAD
 40
3.0
  9
$AUNITS
 70
     0
  9
$AUPREC
 70
     2
  9
$MENU
  1
acad
  9
$ELEVATION
 40
0.0
  9
$THICKNESS
 40
0.0
  9
$LIMCHECK
 70
     0
  9
$CHAMFERA
 40
0.0
  9
$CHAMFERB
 40
0.0
  9
$SKPOLY
 70
     0
  9
$TDCREATE
 40
2448750.487089225
  9
$TDUPDATE
 40
2459500.70116022
  9
$TDINDWG
 40
2.2887567708
  9
$TDUSRTIMER
 40
2.2887567708
  9
$USRTIMER
 70
     1
  9
$ANGBASE
 50
0.0
  9
$ANGDIR
 70
     0
  9
$PDMODE
 70
     0
  9
$PDSIZE
 40
0.0
  9
$PLINEWID
 40
1.0
  9
$COORDS
 70
     2
  9
$SPLFRAME
 70
     0
  9
$SPLINETYPE
 70
     6
  9
$SPLINESEGS
 70
     8
  9
$ATTDIA
 70
     0
  9
$ATTREQ
 70
     1
  9
$SURFTAB1
 70
     6
  9
$SURFTAB2
 70
     6
  9
$SURFTYPE
 70
     6
  9
$SURFU
 70
     6
  9
$SURFV
 70
     6
  9
$UCSNAME
  2

  9
$UCSORG
 10
0.0
 20
0.0
 30
0.0
  9
$UCSXDIR
 10
1.0
 20
0.0
 30
0.0
  9
$UCSYDIR
 10
0.0
 20
1.0
 30
0.0
  9
$USERI1
 70
     0
  9
$USERI2
 70
     0
  9
$USERI3
 70
     0
  9
$USERI4
 70
     0
  9
$USERI5
 70
     0
  9
$USERR1
 40
0.0
  9
$USERR2
 40
0.0
  9
$USERR3
 40
0.0
  9
$USERR4
 40
0.0
  9
$USERR5
 40
0.0
  9
$WORLDVIEW
 70
     1
  0
ENDSEC
  0
SECTION
  2
TABLES
  0
TABLE
  2
LTYPE
 70
    12
  0
LTYPE
  2
CONTINUOUS
 70
     0
  3
Solid line
 72
    65
 73
     0
 40
0.0
  0
LTYPE
  2
HIDDEN
 70
     0
  3
Hidden __ __ __ __ __ __ __ __ __ __ __ __ __ _
 72
    65
 73
     2
 40
9.525
 49
6.35
 49
-3.175
  0
LTYPE
  2
PHANTOM2
 70
     0
  3
Phantom (0.5x) ___ _ _ ___ _ _ ___ _ _ ___ _ _
 72
    65
 73
     6
 40
31.75
 49
15.875
 49
-3.175
 49
3.175
 49
-3.175
 49
3.175
 49
-3.175
  0
LTYPE
  2
CENTER2
 70
     0
  3
Center (.5x) ___ _ ___ _ ___ _ ___ _ ___ _ ___
 72
    65
 73
     4
 40
28.575
 49
19.05
 49
-3.175
 49
3.175
 49
-3.175
  0
LTYPE
  2
HADAN
 70
     0
  3
Hadansen
 72
    65
 73
     4
 40
58.0
 49
50.0
 49
-2.0
 49
-4.0
 49
-2.0
  0
LTYPE
  2
BATTING
 70
     0
  3
Batting SSSSSSSSSSSSSSSSSSSSSSSSSSSSSSSSSSSSSSS
 72
    65
 73
     4
 40
10.16254
 49
0.00254
 49
-2.54
 49
-5.08
 49
-2.54
  0
LTYPE
  2
DASHED2
 70
     0
  3
Dashed (0.5x) _ _ _ _ _ _ _ _ _ _ _ _ _ _ _ _ _
 72
    65
 73
     2
 40
9.525
 49
6.35
 49
-3.175
  0
LTYPE
  2
FENCELINE1
 70
     0
  3
Fenceline circle -0-----0----0-----0----0-----0
 72
    65
 73
     4
 40
36.83
 49
3.81
 49
-2.54
 49
-2.54
 49
27.94
  0
LTYPE
  2
FENCELINE2
 70
     0
  3
Fenceline square -[]-----[]----[]-----[]----[]-
 72
    65
 73
     4
 40
36.83
 49
3.81
 49
-2.54
 49
-2.54
 49
27.94
  0
LTYPE
  2
TRACKS
 70
     0
  3
Tracks -|-|-|-|-|-|-|-|-|-|-|-|-|-|-|-|-|-|-|-|
 72
    65
 73
     2
 40
7.62
 49
3.81
 49
3.81
  0
LTYPE
  2
ZIGZAG
 70
     0
  3
Zig zag /\/\/\/\/\/\/\/\/\/\/\/\/\/\/\/\/\/\/\/
 72
    65
 73
     4
 40
20.32254
 49
0.00254
 49
-5.08
 49
-10.16
 49
-5.08
  0
LTYPE
  2
BORDER2
 70
     0
  3
Border (0.5x) __.__.__.__.__.__.__.__.__.__.__.
 72
    65
 73
     6
 40
22.225
 49
6.35
 49
-3.175
 49
6.35
 49
-3.175
 49
0.0
 49
-3.175
  0
ENDTAB
  0
TABLE
  2
LAYER
 70
    36
  0
LAYER
  2
0
 70
     0
 62
     7
  6
CONTINUOUS
  0
LAYER
  2
1DIM
 70
     0
 62
     8
  6
CONTINUOUS
  0
LAYER
  2
2VIEWPORT
 70
     0
 62
    -1
  6
CONTINUOUS
  0
LAYER
  2
01
 70
     0
 62
     1
  6
CONTINUOUS
  0
LAYER
  2
DEFPOINTS
 70
     0
 62
     7
  6
CONTINUOUS
  0
LAYER
  2
1HIDDEN
 70
     0
 62
     8
  6
HIDDEN
  0
LAYER
  2
1PHANTOM
 70
     0
 62
   254
  6
PHANTOM2
  0
LAYER
  2
03
 70
     0
 62
     3
  6
CONTINUOUS
  0
LAYER
  2
02
 70
     0
 62
     2
  6
CONTINUOUS
  0
LAYER
  2
1TEXT
 70
     0
 62
   201
  6
CONTINUOUS
  0
LAYER
  2
04
 70
     0
 62
     4
  6
CONTINUOUS
  0
LAYER
  2
POINT
 70
     0
 62
     7
  6
CONTINUOUS
  0
LAYER
  2
1HATCH
 70
     0
 62
     8
  6
CONTINUOUS
  0
LAYER
  2
05
 70
     0
 62
     5
  6
CONTINUOUS
  0
LAYER
  2
06
 70
     0
 62
     6
  6
CONTINUOUS
  0
LAYER
  2
07
 70
     0
 62
   143
  6
CONTINUOUS
  0
LAYER
  2
08
 70
     0
 62
    95
  6
CONTINUOUS
  0
LAYER
  2
09
 70
     0
 62
    15
  6
CONTINUOUS
  0
LAYER
  2
10
 70
     0
 62
   213
  6
CONTINUOUS
  0
LAYER
  2
11
 70
     0
 62
     7
  6
CONTINUOUS
  0
LAYER
  2
1CENTER
 70
     0
 62
   221
  6
CONTINUOUS
  0
LAYER
  2
1DIM1
 70
     0
 62
   221
  6
CONTINUOUS
  0
LAYER
  2
1DIM2
 70
     0
 62
   254
  6
CONTINUOUS
  0
LAYER
  2
1DIM3
 70
     0
 62
     8
  6
CONTINUOUS
  0
LAYER
  2
2BATTING
 70
     0
 62
     7
  6
BATTING
  0
LAYER
  2
2FENCELINE1
 70
     0
 62
     7
  6
FENCELINE1
  0
LAYER
  2
2FENCELINE2
 70
     0
 62
     7
  6
FENCELINE2
  0
LAYER
  2
2TRACKS
 70
     0
 62
     7
  6
TRACKS
  0
LAYER
  2
2ZIGZAG
 70
     0
 62
     7
  6
ZIGZAG
  0
LAYER
  2
2HADAN
 70
     0
 62
     7
  6
HADAN
  0
LAYER
  2
1TEXT2
 70
     0
 62
   221
  6
CONTINUOUS
  0
LAYER
  2
99WAKU
 70
     0
 62
   253
  6
CONTINUOUS
  0
LAYER
  2
MIDFINE
 70
     0
 62
     9
  6
CONTINUOUS
  0
LAYER
  2
THICK
 70
     0
 62
   252
  6
CONTINUOUS
  0
LAYER
  2
ZZ
 70
     0
 62
    -8
  6
CONTINUOUS
  0
LAYER
  2
ZZXX
 70
     0
 62
   243
  6
CONTINUOUS
  0
ENDTAB
  0
TABLE
  2
STYLE
 70
     5
  0
STYLE
  2
STANDARD
 70
     0
 40
0.0
 41
1.0
 50
0.0
 71
     0
 42
4.0
  3
romans.shx
  4
extfont2.shx
  0
STYLE
  2
KAI
 70
     0
 40
0.0
 41
1.0
 50
0.0
 71
     0
 42
4.0
  3
HGRSKP_0.TTF
  4

  0
STYLE
  2

 70
     1
 40
0.2
 41
1.0
 50
0.0
 71
     0
 42
4.0
  3
ltypeshp.shx
  4

  0
STYLE
  2
GOT
 70
     0
 40
0.0
 41
1.0
 50
0.0
 71
     0
 42
4.0
  3
MS PGothic.ttf
  4

  0
STYLE
  2
SYMBOL
 70
     0
 40
0.0
 41
1.0
 50
0.0
 71
     0
 42
4.0
  3
swissbo.ttf
  4

  0
ENDTAB
  0
TABLE
  2
VIEW
 70
     0
  0
ENDTAB
  0
ENDSEC
  0
SECTION
  2
BLOCKS
  0
BLOCK
  8
0
  2
_OPEN30
 70
     0
 10
0.0
 20
0.0
  0
LINE
  8
0
  6
BYBLOCK
 62
     0
 10
-1.0
 20
0.26794919
 11
0.0
 21
0.0
  0
LINE
  8
0
  6
BYBLOCK
 62
     0
 10
0.0
 20
0.0
 11
-1.0
 21
-0.26794919
  0
LINE
  8
0
  6
BYBLOCK
 62
     0
 10
0.0
 20
0.0
 11
-1.0
 21
0.0
  0
ENDBLK
  8
0
  0
BLOCK
  8
0
  2
*D200
 70
     1
 10
0.0
 20
0.0
  0
LINE
  8
1DIM
 10
42005.6707798823
 20
-4001.944598209428
 11
42005.6707798823
 21
-4061.944598209428
  0
LINE
  8
1DIM
 10
42555.87409757655
 20
-4001.944598162407
 11
42555.87409757655
 21
-4061.944598209428
  0
LINE
  8
1DIM
 10
42025.6707798823
 20
-4051.944598209428
 11
42535.87409757655
 21
-4051.944598209428
  0
INSERT
  8
1DIM
  2
_OPEN30
 10
42005.6707798823
 20
-4051.944598209428
 30
0.0
 41
20.0
 42
20.0
 43
20.0
 50
180.0
  0
INSERT
  8
1DIM
  2
_OPEN30
 10
42555.87409757655
 20
-4051.944598209428
 30
0.0
 41
20.0
 42
20.0
 43
20.0
  0
TEXT
  8
1DIM
  6
CONTINUOUS
 62
   201
 10
42230.77243872943
 20
-4044.944598209428
 40
35.0
  1
550
  0
POINT
  8
DEFPOINTS
 62
     0
 10
42005.6707798823
 20
-3951.944598209428
 30
0.0
  0
POINT
  8
DEFPOINTS
 62
     0
 10
42555.87409757655
 20
-3951.944598162407
 30
0.0
  0
POINT
  8
DEFPOINTS
 62
     0
 10
42555.87409757655
 20
-4051.944598209428
 30
0.0
  0
ENDBLK
  8
0
  0
BLOCK
  8
0
  2
*D201
 70
     1
 10
0.0
 20
0.0
  0
LINE
  8
1DIM
 10
43666.23282492236
 20
-3156.669077685088
 11
43726.23282492236
 21
-3156.669077685088
  0
LINE
  8
1DIM
 10
43666.23282492236
 20
-3951.944598209428
 11
43726.23282492236
 21
-3951.944598209428
  0
LINE
  8
1DIM
 10
43716.23282492236
 20
-3176.669077685088
 11
43716.23282492236
 21
-3931.944598209428
  0
INSERT
  8
1DIM
  2
_OPEN30
 10
43716.23282492236
 20
-3156.669077685088
 30
0.0
 41
20.0
 42
20.0
 43
20.0
 50
90.0
  0
INSERT
  8
1DIM
  2
_OPEN30
 10
43716.23282492236
 20
-3951.944598209428
 30
0.0
 41
20.0
 42
20.0
 43
20.0
 50
270.0
  0
TEXT
  8
1DIM
  6
CONTINUOUS
 62
   201
 10
43709.23282492236
 20
-3604.306837947261
 40
35.0
  1
800
 50
90.0
  0
POINT
  8
DEFPOINTS
 62
     0
 10
43616.23282492236
 20
-3156.669077685088
 30
0.0
  0
POINT
  8
DEFPOINTS
 62
     0
 10
43616.23282492236
 20
-3951.944598209428
 30
0.0
  0
POINT
  8
DEFPOINTS
 62
     0
 10
43716.23282492236
 20
-3951.944598209428
 30
0.0
  0
ENDBLK
  8
0
  0
BLOCK
  8
0
  2
*D202
 70
     1
 10
0.0
 20
0.0
  0
LINE
  8
1DIM
 10
43055.87409757655
 20
-4001.944598209428
 11
43055.87409757655
 21
-4061.944598209428
  0
LINE
  8
1DIM
 10
43616.23282492236
 20
-4001.944598209428
 11
43616.23282492236
 21
-4061.944598209428
  0
LINE
  8
1DIM
 10
43075.87409757655
 20
-4051.944598209428
 11
43596.23282492236
 21
-4051.944598209428
  0
INSERT
  8
1DIM
  2
_OPEN30
 10
43055.87409757655
 20
-4051.944598209428
 30
0.0
 41
20.0
 42
20.0
 43
20.0
 50
180.0
  0
INSERT
  8
1DIM
  2
_OPEN30
 10
43616.23282492236
 20
-4051.944598209428
 30
0.0
 41
20.0
 42
20.0
 43
20.0
  0
TEXT
  8
1DIM
  6
CONTINUOUS
 62
   201
 10
43286.05346124945
 20
-4044.944598209428
 40
35.0
  1
560
  0
POINT
  8
DEFPOINTS
 62
     0
 10
43055.87409757655
 20
-3951.944598209428
 30
0.0
  0
POINT
  8
DEFPOINTS
 62
     0
 10
43616.23282492236
 20
-3951.944598209428
 30
0.0
  0
POINT
  8
DEFPOINTS
 62
     0
 10
43616.23282492236
 20
-4051.944598209428
 30
0.0
  0
ENDBLK
  8
0
  0
BLOCK
  8
0
  2
*D203
 70
     1
 10
0.0
 20
0.0
  0
LINE
  8
1DIM
 10
41955.6707798823
 20
-3519.260033357796
 11
41895.6707798823
 21
-3519.260033357796
  0
LINE
  8
1DIM
 10
41955.6707798823
 20
-3951.944598209428
 11
41895.6707798823
 21
-3951.944598209428
  0
LINE
  8
1DIM
 10
41905.6707798823
 20
-3539.260033357796
 11
41905.6707798823
 21
-3931.944598209428
  0
INSERT
  8
1DIM
  2
_OPEN30
 10
41905.6707798823
 20
-3519.260033357796
 30
0.0
 41
20.0
 42
20.0
 43
20.0
 50
90.0
  0
INSERT
  8
1DIM
  2
_OPEN30
 10
41905.6707798823
 20
-3951.944598209428
 30
0.0
 41
20.0
 42
20.0
 43
20.0
 50
270.0
  0
TEXT
  8
1DIM
  6
CONTINUOUS
 62
   201
 10
41898.6707798823
 20
-3785.60231578361
 40
35.0
  1
435
 50
90.0
  0
POINT
  8
DEFPOINTS
 62
     0
 10
42005.6707798823
 20
-3519.260033357796
 30
0.0
  0
POINT
  8
DEFPOINTS
 62
     0
 10
42005.6707798823
 20
-3951.944598209428
 30
0.0
  0
POINT
  8
DEFPOINTS
 62
     0
 10
41905.6707798823
 20
-3951.944598209428
 30
0.0
  0
ENDBLK
  8
0
  0
BLOCK
  8
0
  2
*D204
 70
     1
 10
0.0
 20
0.0
  0
LINE
  8
1DIM
 10
43005.87409757655
 20
-3451.452493056941
 11
42945.87409757655
 21
-3451.452493056941
  0
LINE
  8
1DIM
 10
43005.87409757655
 20
-3951.944598209428
 11
42945.87409757655
 21
-3951.944598209428
  0
LINE
  8
1DIM
 10
42955.87409757655
 20
-3471.452493056941
 11
42955.87409757655
 21
-3931.944598209428
  0
INSERT
  8
1DIM
  2
_OPEN30
 10
42955.87409757655
 20
-3451.452493056941
 30
0.0
 41
20.0
 42
20.0
 43
20.0
 50
90.0
  0
INSERT
  8
1DIM
  2
_OPEN30
 10
42955.87409757655
 20
-3951.944598209428
 30
0.0
 41
20.0
 42
20.0
 43
20.0
 50
270.0
  0
TEXT
  8
1DIM
  6
CONTINUOUS
 62
   201
 10
42948.87409757655
 20
-3751.698545633182
 40
35.0
  1
500
 50
90.0
  0
POINT
  8
DEFPOINTS
 62
     0
 10
43055.87409757655
 20
-3451.452493056941
 30
0.0
  0
POINT
  8
DEFPOINTS
 62
     0
 10
43055.87409757655
 20
-3951.944598209428
 30
0.0
  0
POINT
  8
DEFPOINTS
 62
     0
 10
42955.87409757655
 20
-3951.944598209428
 30
0.0
  0
ENDBLK
  8
0
  0
BLOCK
  8
0
  2
*D205
 70
     1
 10
0.0
 20
0.0
  0
LINE
  8
1DIM
 10
41955.6707798823
 20
-2856.669077685088
 11
41895.6707798823
 21
-2856.669077685088
  0
LINE
  8
1DIM
 10
41955.6707798823
 20
-2444.463013902858
 11
41895.6707798823
 21
-2444.463013902858
  0
LINE
  8
1DIM
 10
41905.6707798823
 20
-2836.669077685088
 11
41905.6707798823
 21
-2464.463013902858
  0
INSERT
  8
1DIM
  2
_OPEN30
 10
41905.6707798823
 20
-2856.669077685088
 30
0.0
 41
20.0
 42
20.0
 43
20.0
 50
270.0
  0
INSERT
  8
1DIM
  2
_OPEN30
 10
41905.6707798823
 20
-2444.463013902858
 30
0.0
 41
20.0
 42
20.0
 43
20.0
 50
90.0
  0
TEXT
  8
1DIM
  6
CONTINUOUS
 62
   201
 10
41898.6707798823
 20
-2700.566045793974
 40
35.0
  1
420
 50
90.0
  0
POINT
  8
DEFPOINTS
 62
     0
 10
42005.6707798823
 20
-2856.669077685088
 30
0.0
  0
POINT
  8
DEFPOINTS
 62
     0
 10
42005.6707798823
 20
-2444.463013902858
 30
0.0
  0
POINT
  8
DEFPOINTS
 62
     0
 10
41905.6707798823
 20
-2444.463013902858
 30
0.0
  0
ENDBLK
  8
0
  0
BLOCK
  8
0
  2
*D206
 70
     1
 10
0.0
 20
0.0
  0
LINE
  8
1DIM
 10
42071.31588734892
 20
-3106.669077685088
 11
42071.31588734892
 21
-3046.669077685088
  0
LINE
  8
1DIM
 10
42490.22898972603
 20
-3106.669077685088
 11
42490.22898972603
 21
-3046.669077685088
  0
LINE
  8
1DIM
 10
42091.31588734892
 20
-3056.669077685088
 11
42470.22898972603
 21
-3056.669077685088
  0
INSERT
  8
1DIM
  2
_OPEN30
 10
42071.31588734892
 20
-3056.669077685088
 30
0.0
 41
20.0
 42
20.0
 43
20.0
 50
180.0
  0
INSERT
  8
1DIM
  2
_OPEN30
 10
42490.22898972603
 20
-3056.669077685088
 30
0.0
 41
20.0
 42
20.0
 43
20.0
  0
TEXT
  8
1DIM
  6
CONTINUOUS
 62
   201
 10
42230.77243853747
 20
-3049.669077685088
 40
35.0
  1
420
  0
POINT
  8
DEFPOINTS
 62
     0
 10
42071.31588734892
 20
-3156.669077685088
 30
0.0
  0
POINT
  8
DEFPOINTS
 62
     0
 10
42490.22898972603
 20
-3156.669077685088
 30
0.0
  0
POINT
  8
DEFPOINTS
 62
     0
 10
42490.22898972603
 20
-3056.669077685088
 30
0.0
  0
ENDBLK
  8
0
  0
BLOCK
  8
0
  2
*D240
 70
     1
 10
0.0
 20
0.0
  0
LINE
  8
1DIM
 10
43467.01622796573
 20
-779.840746125876
 11
43407.01622796573
 21
-779.840746125876
  0
LINE
  8
1DIM
 10
43467.01622796573
 20
-1270.332851278365
 11
43407.01622796573
 21
-1270.332851278365
  0
LINE
  8
1DIM
 10
43417.01622796573
 20
-799.840746125876
 11
43417.01622796573
 21
-1250.332851278365
  0
INSERT
  8
1DIM
  2
_OPEN30
 10
43417.01622796573
 20
-779.840746125876
 30
0.0
 41
20.0
 42
20.0
 43
20.0
 50
90.0
  0
INSERT
  8
1DIM
  2
_OPEN30
 10
43417.01622796573
 20
-1270.332851278365
 30
0.0
 41
20.0
 42
20.0
 43
20.0
 50
270.0
  0
TEXT
  8
1DIM
  6
CONTINUOUS
 62
   201
 10
43410.01622796573
 20
-1075.086798702119
 40
35.0
  1
490
 50
90.0
  0
POINT
  8
DEFPOINTS
 62
     0
 10
43517.01622796573
 20
-779.840746125876
 30
0.0
  0
POINT
  8
DEFPOINTS
 62
     0
 10
43517.01622796573
 20
-1270.332851278365
 30
0.0
  0
POINT
  8
DEFPOINTS
 62
     0
 10
43417.01622796573
 20
-1270.332851278365
 30
0.0
  0
ENDBLK
  8
0
  0
BLOCK
  8
0
  2
*D241
 70
     1
 10
0.0
 20
0.0
  0
LINE
  8
1DIM
 10
43517.01622796573
 20
-1320.332851278365
 11
43517.01622796573
 21
-1380.332851278365
  0
LINE
  8
1DIM
 10
44077.37495531156
 20
-1320.332851278365
 11
44077.37495531156
 21
-1380.332851278365
  0
LINE
  8
1DIM
 10
43537.01622796573
 20
-1370.332851278365
 11
44057.37495531156
 21
-1370.332851278365
  0
INSERT
  8
1DIM
  2
_OPEN30
 10
43517.01622796573
 20
-1370.332851278365
 30
0.0
 41
20.0
 42
20.0
 43
20.0
 50
180.0
  0
INSERT
  8
1DIM
  2
_OPEN30
 10
44077.37495531156
 20
-1370.332851278365
 30
0.0
 41
20.0
 42
20.0
 43
20.0
  0
TEXT
  8
1DIM
  6
CONTINUOUS
 62
   201
 10
43747.19559163864
 20
-1363.332851278365
 40
35.0
  1
560
  0
POINT
  8
DEFPOINTS
 62
     0
 10
43517.01622796573
 20
-1270.332851278365
 30
0.0
  0
POINT
  8
DEFPOINTS
 62
     0
 10
44077.37495531156
 20
-1270.332851278365
 30
0.0
  0
POINT
  8
DEFPOINTS
 62
     0
 10
44077.37495531156
 20
-1370.332851278365
 30
0.0
  0
ENDBLK
  8
0
  0
BLOCK
  8
0
  2
*D242
 70
     1
 10
0.0
 20
0.0
  0
LINE
  8
1DIM
 10
42466.8129102715
 20
-1320.332851278365
 11
42466.8129102715
 21
-1380.332851278365
  0
LINE
  8
1DIM
 10
43017.01622796573
 20
-1320.332851278365
 11
43017.01622796573
 21
-1380.332851278365
  0
LINE
  8
1DIM
 10
42486.8129102715
 20
-1370.332851278365
 11
42997.01622796573
 21
-1370.332851278365
  0
INSERT
  8
1DIM
  2
_OPEN30
 10
42466.8129102715
 20
-1370.332851278365
 30
0.0
 41
20.0
 42
20.0
 43
20.0
 50
180.0
  0
INSERT
  8
1DIM
  2
_OPEN30
 10
43017.01622796573
 20
-1370.332851278365
 30
0.0
 41
20.0
 42
20.0
 43
20.0
  0
TEXT
  8
1DIM
  6
CONTINUOUS
 62
   201
 10
42691.91456911861
 20
-1363.332851278365
 40
35.0
  1
550
  0
POINT
  8
DEFPOINTS
 62
     0
 10
42466.8129102715
 20
-1270.332851278365
 30
0.0
  0
POINT
  8
DEFPOINTS
 62
     0
 10
43017.01622796573
 20
-1270.332851278365
 30
0.0
  0
POINT
  8
DEFPOINTS
 62
     0
 10
43017.01622796573
 20
-1370.332851278365
 30
0.0
  0
ENDBLK
  8
0
  0
BLOCK
  8
0
  2
*D243
 70
     1
 10
0.0
 20
0.0
  0
LINE
  8
1DIM
 10
44127.37495531156
 20
-482.074377443143
 11
44187.37495531156
 21
-482.074377443143
  0
LINE
  8
1DIM
 10
44127.37495531156
 20
-1270.332851278365
 11
44187.37495531156
 21
-1270.332851278365
  0
LINE
  8
1DIM
 10
44177.37495531156
 20
-502.074377443143
 11
44177.37495531156
 21
-1250.332851278365
  0
INSERT
  8
1DIM
  2
_OPEN30
 10
44177.37495531156
 20
-482.074377443143
 30
0.0
 41
20.0
 42
20.0
 43
20.0
 50
90.0
  0
INSERT
  8
1DIM
  2
_OPEN30
 10
44177.37495531156
 20
-1270.332851278365
 30
0.0
 41
20.0
 42
20.0
 43
20.0
 50
270.0
  0
TEXT
  8
1DIM
  6
CONTINUOUS
 62
   201
 10
44170.37495531156
 20
-926.203614360755
 40
35.0
  1
790
 50
90.0
  0
POINT
  8
DEFPOINTS
 62
     0
 10
44077.37495531156
 20
-482.074377443143
 30
0.0
  0
POINT
  8
DEFPOINTS
 62
     0
 10
44077.37495531156
 20
-1270.332851278365
 30
0.0
  0
POINT
  8
DEFPOINTS
 62
     0
 10
44177.37495531156
 20
-1270.332851278365
 30
0.0
  0
ENDBLK
  8
0
  0
BLOCK
  8
0
  2
*D244
 70
     1
 10
0.0
 20
0.0
  0
LINE
  8
1DIM
 10
42416.74843318335
 20
-847.648286426733
 11
42356.74843318335
 21
-847.648286426733
  0
LINE
  8
1DIM
 10
42416.74843318335
 20
-1270.332851278365
 11
42356.74843318335
 21
-1270.332851278365
  0
LINE
  8
1DIM
 10
42366.74843318335
 20
-867.648286426733
 11
42366.74843318335
 21
-1250.332851278365
  0
INSERT
  8
1DIM
  2
_OPEN30
 10
42366.74843318335
 20
-847.648286426733
 30
0.0
 41
20.0
 42
20.0
 43
20.0
 50
90.0
  0
INSERT
  8
1DIM
  2
_OPEN30
 10
42366.74843318335
 20
-1270.332851278365
 30
0.0
 41
20.0
 42
20.0
 43
20.0
 50
270.0
  0
TEXT
  8
1DIM
  6
CONTINUOUS
 62
   201
 10
42359.74843318335
 20
-1108.990568852547
 40
35.0
  1
425
 50
90.0
  0
POINT
  8
DEFPOINTS
 62
     0
 10
42466.74843318335
 20
-847.648286426733
 30
0.0
  0
POINT
  8
DEFPOINTS
 62
     0
 10
42466.74843318335
 20
-1270.332851278365
 30
0.0
  0
POINT
  8
DEFPOINTS
 62
     0
 10
42366.74843318335
 20
-1270.332851278365
 30
0.0
  0
ENDBLK
  8
0
  0
BLOCK
  8
0
  2
*D245
 70
     1
 10
0.0
 20
0.0
  0
LINE
  8
1DIM
 10
42532.39354064997
 20
-433.491907109456
 11
42532.39354064997
 21
-373.491907109456
  0
LINE
  8
1DIM
 10
42951.30664302708
 20
-433.491907109456
 11
42951.30664302708
 21
-373.491907109456
  0
LINE
  8
1DIM
 10
42552.39354064997
 20
-383.491907109456
 11
42931.30664302708
 21
-383.491907109456
  0
INSERT
  8
1DIM
  2
_OPEN30
 10
42532.39354064997
 20
-383.491907109456
 30
0.0
 41
20.0
 42
20.0
 43
20.0
 50
180.0
  0
INSERT
  8
1DIM
  2
_OPEN30
 10
42951.30664302708
 20
-383.491907109456
 30
0.0
 41
20.0
 42
20.0
 43
20.0
  0
TEXT
  8
1DIM
  6
CONTINUOUS
 62
   201
 10
42691.85009183853
 20
-376.491907109456
 40
35.0
  1
420
  0
POINT
  8
DEFPOINTS
 62
     0
 10
42532.39354064997
 20
-483.491907109456
 30
0.0
  0
POINT
  8
DEFPOINTS
 62
     0
 10
42951.30664302708
 20
-483.491907109456
 30
0.0
  0
POINT
  8
DEFPOINTS
 62
     0
 10
42951.30664302708
 20
-383.491907109456
 30
0.0
  0
ENDBLK
  8
0
  0
BLOCK
  8
0
  2
*D246
 70
     1
 10
0.0
 20
0.0
  0
LINE
  8
1DIM
 10
43519.61622796573
 20
-432.074377443143
 11
43519.61622796573
 21
-372.074377443143
  0
LINE
  8
1DIM
 10
43939.68600619607
 20
-432.074377443143
 11
43939.68600619607
 21
-372.074377443143
  0
LINE
  8
1DIM
 10
43539.61622796573
 20
-382.074377443143
 11
43919.68600619607
 21
-382.074377443143
  0
INSERT
  8
1DIM
  2
_OPEN30
 10
43519.61622796573
 20
-382.074377443143
 30
0.0
 41
20.0
 42
20.0
 43
20.0
 50
180.0
  0
INSERT
  8
1DIM
  2
_OPEN30
 10
43939.68600619607
 20
-382.074377443143
 30
0.0
 41
20.0
 42
20.0
 43
20.0
  0
TEXT
  8
1DIM
  6
CONTINUOUS
 62
   201
 10
43679.6511170809
 20
-375.074377443143
 40
35.0
  1
420
  0
POINT
  8
DEFPOINTS
 62
     0
 10
43519.61622796573
 20
-482.074377443143
 30
0.0
  0
POINT
  8
DEFPOINTS
 62
     0
 10
43939.68600619607
 20
-482.074377443143
 30
0.0
  0
POINT
  8
DEFPOINTS
 62
     0
 10
43939.68600619607
 20
-382.074377443143
 30
0.0
  0
ENDBLK
  8
0
  0
BLOCK
  8
0
  2
*D254
 70
     1
 10
0.0
 20
0.0
  0
LINE
  8
1DIM
 10
38900.82638174239
 20
-6714.82651730407
 11
38900.82638174239
 21
-6774.82651730407
  0
LINE
  8
1DIM
 10
39321.26190446367
 20
-6714.82651730407
 11
39321.26190446367
 21
-6774.82651730407
  0
LINE
  8
1DIM
 10
38920.82638174239
 20
-6764.82651730407
 11
39301.26190446367
 21
-6764.82651730407
  0
INSERT
  8
1DIM
  2
_OPEN30
 10
38900.82638174239
 20
-6764.82651730407
 30
0.0
 41
20.0
 42
20.0
 43
20.0
 50
180.0
  0
INSERT
  8
1DIM
  2
_OPEN30
 10
39321.26190446367
 20
-6764.82651730407
 30
0.0
 41
20.0
 42
20.0
 43
20.0
  0
TEXT
  8
1DIM
  6
CONTINUOUS
 62
   201
 10
39061.04414310303
 20
-6757.82651730407
 40
35.0
  1
420
  0
POINT
  8
DEFPOINTS
 62
     0
 10
38900.82638174239
 20
-6664.82651730407
 30
0.0
  0
POINT
  8
DEFPOINTS
 62
     0
 10
39321.26190446367
 20
-6664.82651730407
 30
0.0
  0
POINT
  8
DEFPOINTS
 62
     0
 10
39321.26190446367
 20
-6764.82651730407
 30
0.0
  0
ENDBLK
  8
0
  0
BLOCK
  8
0
  2
*D255
 70
     1
 10
0.0
 20
0.0
  0
LINE
  8
1DIM
 10
39823.26190446367
 20
-6714.82651730407
 11
39823.26190446367
 21
-6774.82651730407
  0
LINE
  8
1DIM
 10
40341.41905519964
 20
-6714.82651730407
 11
40341.41905519964
 21
-6774.82651730407
  0
LINE
  8
1DIM
 10
39843.26190446367
 20
-6764.82651730407
 11
40321.41905519964
 21
-6764.82651730407
  0
INSERT
  8
1DIM
  2
_OPEN30
 10
39823.26190446367
 20
-6764.82651730407
 30
0.0
 41
20.0
 42
20.0
 43
20.0
 50
180.0
  0
INSERT
  8
1DIM
  2
_OPEN30
 10
40341.41905519964
 20
-6764.82651730407
 30
0.0
 41
20.0
 42
20.0
 43
20.0
  0
TEXT
  8
1DIM
  6
CONTINUOUS
 62
   201
 10
40032.34047983166
 20
-6757.82651730407
 40
35.0
  1
518
  0
POINT
  8
DEFPOINTS
 62
     0
 10
39823.26190446367
 20
-6664.82651730407
 30
0.0
  0
POINT
  8
DEFPOINTS
 62
     0
 10
40341.41905519964
 20
-6664.82651730407
 30
0.0
  0
POINT
  8
DEFPOINTS
 62
     0
 10
40341.41905519964
 20
-6764.82651730407
 30
0.0
  0
ENDBLK
  8
0
  0
BLOCK
  8
0
  2
*D256
 70
     1
 10
0.0
 20
0.0
  0
LINE
  8
1DIM
 10
40391.41905519964
 20
-6664.82651730407
 11
40451.41905519964
 21
-6664.82651730407
  0
LINE
  8
1DIM
 10
40391.41905519964
 20
-5789.82651730407
 11
40451.41905519964
 21
-5789.82651730407
  0
LINE
  8
1DIM
 10
40441.41905519964
 20
-6644.82651730407
 11
40441.41905519964
 21
-5809.82651730407
  0
INSERT
  8
1DIM
  2
_OPEN30
 10
40441.41905519964
 20
-6664.82651730407
 30
0.0
 41
20.0
 42
20.0
 43
20.0
 50
270.0
  0
INSERT
  8
1DIM
  2
_OPEN30
 10
40441.41905519964
 20
-5789.82651730407
 30
0.0
 41
20.0
 42
20.0
 43
20.0
 50
90.0
  0
TEXT
  8
1DIM
  6
CONTINUOUS
 62
   201
 10
40434.41905519964
 20
-6277.326517304071
 40
35.0
  1
880
 50
90.0
  0
POINT
  8
DEFPOINTS
 62
     0
 10
40341.41905519964
 20
-6664.82651730407
 30
0.0
  0
POINT
  8
DEFPOINTS
 62
     0
 10
40341.41905519964
 20
-5789.82651730407
 30
0.0
  0
POINT
  8
DEFPOINTS
 62
     0
 10
40441.41905519964
 20
-5789.82651730407
 30
0.0
  0
ENDBLK
  8
0
  0
BLOCK
  8
0
  2
*D257
 70
     1
 10
0.0
 20
0.0
  0
LINE
  8
1DIM
 10
39823.26190446367
 20
-5739.82651730407
 11
39823.26190446367
 21
-5679.82651730407
  0
LINE
  8
1DIM
 10
40227.36637812293
 20
-5739.82651730407
 11
40227.36637812293
 21
-5679.82651730407
  0
LINE
  8
1DIM
 10
39843.26190446367
 20
-5689.82651730407
 11
40207.36637812293
 21
-5689.82651730407
  0
INSERT
  8
1DIM
  2
_OPEN30
 10
39823.26190446367
 20
-5689.82651730407
 30
0.0
 41
20.0
 42
20.0
 43
20.0
 50
180.0
  0
INSERT
  8
1DIM
  2
_OPEN30
 10
40227.36637812293
 20
-5689.82651730407
 30
0.0
 41
20.0
 42
20.0
 43
20.0
  0
TEXT
  8
1DIM
  6
CONTINUOUS
 62
   201
 10
39974.48080795996
 20
-5682.82651730407
 40
35.0
  1
404
  0
POINT
  8
DEFPOINTS
 62
     0
 10
39823.26190446367
 20
-5789.82651730407
 30
0.0
  0
POINT
  8
DEFPOINTS
 62
     0
 10
40227.36637812293
 20
-5789.82651730407
 30
0.0
  0
POINT
  8
DEFPOINTS
 62
     0
 10
40227.36637812293
 20
-5689.82651730407
 30
0.0
  0
ENDBLK
  8
0
  0
BLOCK
  8
0
  2
*D258
 70
     1
 10
0.0
 20
0.0
  0
LINE
  8
1DIM
 10
38846.82724623389
 20
-6222.474032201824
 11
38788.82724623389
 21
-6222.474032201824
  0
LINE
  8
1DIM
 10
38848.82724623389
 20
-6664.826523641706
 11
38788.82724623389
 21
-6664.826523641706
  0
LINE
  8
1DIM
 10
38798.82724623389
 20
-6242.474032201824
 11
38798.82724623389
 21
-6644.826523641706
  0
INSERT
  8
1DIM
  2
_OPEN30
 10
38798.82724623389
 20
-6222.474032201824
 30
0.0
 41
20.0
 42
20.0
 43
20.0
 50
90.0
  0
INSERT
  8
1DIM
  2
_OPEN30
 10
38798.82724623389
 20
-6664.826523641706
 30
0.0
 41
20.0
 42
20.0
 43
20.0
 50
270.0
  0
TEXT
  8
1DIM
  6
CONTINUOUS
 62
   201
 10
38791.82724623389
 20
-6493.650277921763
 40
35.0
  1
440
 50
90.0
  0
POINT
  8
DEFPOINTS
 62
     0
 10
38896.82724623389
 20
-6222.474032201824
 30
0.0
  0
POINT
  8
DEFPOINTS
 62
     0
 10
38898.82724623389
 20
-6664.826523641706
 30
0.0
  0
POINT
  8
DEFPOINTS
 62
     0
 10
38798.82724623389
 20
-6664.826523641706
 30
0.0
  0
ENDBLK
  8
0
  0
BLOCK
  8
0
  2
*D259
 70
     1
 10
0.0
 20
0.0
  0
LINE
  8
1DIM
 10
40823.26181744663
 20
-6664.826502045281
 11
40763.26181744663
 21
-6664.826502045281
  0
LINE
  8
1DIM
 10
40823.26181744663
 20
-5864.826502045283
 11
40763.26181744663
 21
-5864.826502045283
  0
LINE
  8
1DIM
 10
40773.26181744663
 20
-6644.826502045281
 11
40773.26181744663
 21
-5884.826502045283
  0
INSERT
  8
1DIM
  2
_OPEN30
 10
40773.26181744663
 20
-6664.826502045281
 30
0.0
 41
20.0
 42
20.0
 43
20.0
 50
270.0
  0
INSERT
  8
1DIM
  2
_OPEN30
 10
40773.26181744663
 20
-5864.826502045283
 30
0.0
 41
20.0
 42
20.0
 43
20.0
 50
90.0
  0
TEXT
  8
1DIM
  6
CONTINUOUS
 62
   201
 10
40766.26181744663
 20
-6314.826502045282
 40
35.0
  1
800
 50
90.0
  0
POINT
  8
DEFPOINTS
 62
     0
 10
40873.26181744663
 20
-6664.826502045281
 30
0.0
  0
POINT
  8
DEFPOINTS
 62
     0
 10
40873.26181744663
 20
-5864.826502045283
 30
0.0
  0
POINT
  8
DEFPOINTS
 62
     0
 10
40773.26181744663
 20
-5864.826502045283
 30
0.0
  0
ENDBLK
  8
0
  0
BLOCK
  8
0
  2
*D260
 70
     1
 10
0.0
 20
0.0
  0
LINE
  8
1DIM
 10
45523.25123621211
 20
-1320.332927572316
 11
45523.25123621211
 21
-1380.332927572316
  0
LINE
  8
1DIM
 10
45943.68675893338
 20
-1320.332927572316
 11
45943.68675893338
 21
-1380.332927572316
  0
LINE
  8
1DIM
 10
45543.25123621211
 20
-1370.332927572316
 11
45923.68675893338
 21
-1370.332927572316
  0
INSERT
  8
1DIM
  2
_OPEN30
 10
45523.25123621211
 20
-1370.332927572316
 30
0.0
 41
20.0
 42
20.0
 43
20.0
 50
180.0
  0
INSERT
  8
1DIM
  2
_OPEN30
 10
45943.68675893338
 20
-1370.332927572316
 30
0.0
 41
20.0
 42
20.0
 43
20.0
  0
TEXT
  8
1DIM
  6
CONTINUOUS
 62
   201
 10
45683.46899757274
 20
-1363.332927572316
 40
35.0
  1
420
  0
POINT
  8
DEFPOINTS
 62
     0
 10
45523.25123621211
 20
-1270.332927572316
 30
0.0
  0
POINT
  8
DEFPOINTS
 62
     0
 10
45943.68675893338
 20
-1270.332927572316
 30
0.0
  0
POINT
  8
DEFPOINTS
 62
     0
 10
45943.68675893338
 20
-1370.332927572316
 30
0.0
  0
ENDBLK
  8
0
  0
BLOCK
  8
0
  2
*D261
 70
     1
 10
0.0
 20
0.0
  0
LINE
  8
1DIM
 10
46445.68675893338
 20
-1320.332927572316
 11
46445.68675893338
 21
-1380.332927572316
  0
LINE
  8
1DIM
 10
46963.84390966935
 20
-1320.332927572316
 11
46963.84390966935
 21
-1380.332927572316
  0
LINE
  8
1DIM
 10
46465.68675893338
 20
-1370.332927572316
 11
46943.84390966935
 21
-1370.332927572316
  0
INSERT
  8
1DIM
  2
_OPEN30
 10
46445.68675893338
 20
-1370.332927572316
 30
0.0
 41
20.0
 42
20.0
 43
20.0
 50
180.0
  0
INSERT
  8
1DIM
  2
_OPEN30
 10
46963.84390966935
 20
-1370.332927572316
 30
0.0
 41
20.0
 42
20.0
 43
20.0
  0
TEXT
  8
1DIM
  6
CONTINUOUS
 62
   201
 10
46654.76533430137
 20
-1363.332927572316
 40
35.0
  1
518
  0
POINT
  8
DEFPOINTS
 62
     0
 10
46445.68675893338
 20
-1270.332927572316
 30
0.0
  0
POINT
  8
DEFPOINTS
 62
     0
 10
46963.84390966935
 20
-1270.332927572316
 30
0.0
  0
POINT
  8
DEFPOINTS
 62
     0
 10
46963.84390966935
 20
-1370.332927572316
 30
0.0
  0
ENDBLK
  8
0
  0
BLOCK
  8
0
  2
*D262
 70
     1
 10
0.0
 20
0.0
  0
LINE
  8
1DIM
 10
47013.84390966935
 20
-1270.332927572316
 11
47073.84390966935
 21
-1270.332927572316
  0
LINE
  8
1DIM
 10
47013.84390966935
 20
-395.332927572316
 11
47073.84390966935
 21
-395.332927572316
  0
LINE
  8
1DIM
 10
47063.84390966935
 20
-1250.332927572316
 11
47063.84390966935
 21
-415.332927572316
  0
INSERT
  8
1DIM
  2
_OPEN30
 10
47063.84390966935
 20
-1270.332927572316
 30
0.0
 41
20.0
 42
20.0
 43
20.0
 50
270.0
  0
INSERT
  8
1DIM
  2
_OPEN30
 10
47063.84390966935
 20
-395.332927572316
 30
0.0
 41
20.0
 42
20.0
 43
20.0
 50
90.0
  0
TEXT
  8
1DIM
  6
CONTINUOUS
 62
   201
 10
47056.84390966935
 20
-882.832927572315
 40
35.0
  1
880
 50
90.0
  0
POINT
  8
DEFPOINTS
 62
     0
 10
46963.84390966935
 20
-1270.332927572316
 30
0.0
  0
POINT
  8
DEFPOINTS
 62
     0
 10
46963.84390966935
 20
-395.332927572316
 30
0.0
  0
POINT
  8
DEFPOINTS
 62
     0
 10
47063.84390966935
 20
-395.332927572316
 30
0.0
  0
ENDBLK
  8
0
  0
BLOCK
  8
0
  2
*D263
 70
     1
 10
0.0
 20
0.0
  0
LINE
  8
1DIM
 10
46445.68675893338
 20
-345.332927572316
 11
46445.68675893338
 21
-285.332927572316
  0
LINE
  8
1DIM
 10
46849.79123259264
 20
-345.332927572316
 11
46849.79123259264
 21
-285.332927572316
  0
LINE
  8
1DIM
 10
46465.68675893338
 20
-295.332927572316
 11
46829.79123259264
 21
-295.332927572316
  0
INSERT
  8
1DIM
  2
_OPEN30
 10
46445.68675893338
 20
-295.332927572316
 30
0.0
 41
20.0
 42
20.0
 43
20.0
 50
180.0
  0
INSERT
  8
1DIM
  2
_OPEN30
 10
46849.79123259264
 20
-295.332927572316
 30
0.0
 41
20.0
 42
20.0
 43
20.0
  0
TEXT
  8
1DIM
  6
CONTINUOUS
 62
   201
 10
46596.90566242967
 20
-288.332927572316
 40
35.0
  1
404
  0
POINT
  8
DEFPOINTS
 62
     0
 10
46445.68675893338
 20
-395.332927572316
 30
0.0
  0
POINT
  8
DEFPOINTS
 62
     0
 10
46849.79123259264
 20
-395.332927572316
 30
0.0
  0
POINT
  8
DEFPOINTS
 62
     0
 10
46849.79123259264
 20
-295.332927572316
 30
0.0
  0
ENDBLK
  8
0
  0
BLOCK
  8
0
  2
*D264
 70
     1
 10
0.0
 20
0.0
  0
LINE
  8
1DIM
 10
45469.2521007036
 20
-827.980442470069
 11
45411.2521007036
 21
-827.980442470069
  0
LINE
  8
1DIM
 10
45471.2521007036
 20
-1270.332933909951
 11
45411.2521007036
 21
-1270.332933909951
  0
LINE
  8
1DIM
 10
45421.2521007036
 20
-847.980442470069
 11
45421.2521007036
 21
-1250.332933909951
  0
INSERT
  8
1DIM
  2
_OPEN30
 10
45421.2521007036
 20
-827.980442470069
 30
0.0
 41
20.0
 42
20.0
 43
20.0
 50
90.0
  0
INSERT
  8
1DIM
  2
_OPEN30
 10
45421.2521007036
 20
-1270.332933909951
 30
0.0
 41
20.0
 42
20.0
 43
20.0
 50
270.0
  0
TEXT
  8
1DIM
  6
CONTINUOUS
 62
   201
 10
45414.2521007036
 20
-1099.156688190007
 40
35.0
  1
440
 50
90.0
  0
POINT
  8
DEFPOINTS
 62
     0
 10
45519.2521007036
 20
-827.980442470069
 30
0.0
  0
POINT
  8
DEFPOINTS
 62
     0
 10
45521.2521007036
 20
-1270.332933909951
 30
0.0
  0
POINT
  8
DEFPOINTS
 62
     0
 10
45421.2521007036
 20
-1270.332933909951
 30
0.0
  0
ENDBLK
  8
0
  0
BLOCK
  8
0
  2
*D265
 70
     1
 10
0.0
 20
0.0
  0
LINE
  8
1DIM
 10
47445.68667191634
 20
-1270.332912313527
 11
47385.68667191634
 21
-1270.332912313527
  0
LINE
  8
1DIM
 10
47445.68667191634
 20
-470.332912313529
 11
47385.68667191634
 21
-470.332912313529
  0
LINE
  8
1DIM
 10
47395.68667191634
 20
-1250.332912313527
 11
47395.68667191634
 21
-490.332912313529
  0
INSERT
  8
1DIM
  2
_OPEN30
 10
47395.68667191634
 20
-1270.332912313527
 30
0.0
 41
20.0
 42
20.0
 43
20.0
 50
270.0
  0
INSERT
  8
1DIM
  2
_OPEN30
 10
47395.68667191634
 20
-470.332912313529
 30
0.0
 41
20.0
 42
20.0
 43
20.0
 50
90.0
  0
TEXT
  8
1DIM
  6
CONTINUOUS
 62
   201
 10
47388.68667191634
 20
-920.332912313526
 40
35.0
  1
800
 50
90.0
  0
POINT
  8
DEFPOINTS
 62
     0
 10
47495.68667191634
 20
-1270.332912313527
 30
0.0
  0
POINT
  8
DEFPOINTS
 62
     0
 10
47495.68667191634
 20
-470.332912313529
 30
0.0
  0
POINT
  8
DEFPOINTS
 62
     0
 10
47395.68667191634
 20
-470.332912313529
 30
0.0
  0
ENDBLK
  8
0
  0
BLOCK
  8
0
  2
NOCIRCLE
 70
     2
 10
0.0
 20
0.0
  0
CIRCLE
  8
0
  6
BYBLOCK
 62
     0
 10
0.0
 20
0.0
 40
4.2
  0
ATTDEF
  8
1TEXT
 10
-1.904761904762
 20
-2.0
 40
4.0
  1
0
 72
     4
 11
0.0
 21
0.0
  3
NO.
  2
NO
 70
     0
  0
ENDBLK
  8
0
  0
BLOCK
  8
0
  2
_OPEN
 70
     0
 10
0.0
 20
0.0
  0
LINE
  8
0
  6
BYBLOCK
 62
     0
 10
-1.0
 20
0.166667
 11
0.0
 21
0.0
  0
LINE
  8
0
  6
BYBLOCK
 62
     0
 10
-1.0
 20
-0.166667
 11
0.0
 21
0.0
  0
LINE
  8
0
  6
BYBLOCK
 62
     0
 10
0.0
 20
0.0
 11
-1.0
 21
0.0
  0
ENDBLK
  8
0
  0
BLOCK
  8
0
  2
YA__
 70
     0
 10
0.0
 20
0.0
  0
INSERT
  8
0
  2
YA_
 10
0.0
 20
0.0
 30
0.0
 50
180.0
  0
ENDBLK
  8
0
  0
BLOCK
  8
0
  2
YA_
 70
     0
 10
0.0
 20
0.0
  0
LINE
  8
0
 10
-5.598760219962
 20
0.622116757674
 11
-2.488360049962
 21
0.622116757674
  0
LINE
  8
0
 10
-5.598760219962
 20
-0.622043242326
 11
-2.488359989962
 21
-0.622043242326
  0
LINE
  8
0
 10
-5.598760219962
 20
0.622116757674
 11
-5.598760219962
 21
-0.622043242326
  0
LINE
  8
0
 10
-2.488360079962
 20
1.346879757674
 11
-2.488360049962
 21
0.622116757674
  0
LINE
  8
0
 10
0.155480482306
 20
-1.993947296099
 11
0.155480380551
 21
1.993947304034
  0
LINE
  8
0
 10
-0.000039515118
 20
-1.99999999961
 11
-0.000039719246
 21
1.999999999606
  0
LINE
  8
0
 10
-0.155559515297
 20
-1.993941131829
 11
-0.155559619962
 21
0.000036757674
  0
LINE
  8
0
 10
-0.155559619962
 20
0.000036757674
 11
-0.155559718965
 21
1.99394111594
  0
LINE
  8
0
 10
-2.488359989962
 20
-0.622043242326
 11
-2.488359959962
 21
-1.346806242326
  0
LINE
  8
0
 10
-0.155559619962
 20
0.000036757674
 11
-2.488360199962
 21
-1.346806242326
  0
LINE
  8
0
 10
-0.155559619962
 20
0.000036757674
 11
-2.488360079962
 21
1.346879757674
  0
POINT
  8
POINT
 10
0.0
 20
0.0
 30
0.0
  0
ENDBLK
  8
0
  0
BLOCK
  8
0
  2
*D273
 70
     1
 10
0.0
 20
0.0
  0
LINE
  8
1DIM
 10
39111.07107297645
 20
-5489.82651730407
 11
39622.24617163939
 21
-5489.82651730407
  0
LINE
  8
1DIM
 10
39111.07107391537
 20
-5085.737894010413
 11
39622.24617163939
 21
-5085.737894010413
  0
LINE
  8
1DIM
 10
39572.24617163939
 20
-5389.82651730407
 11
39572.24617163939
 21
-5185.737894010413
  0
INSERT
  8
1DIM
  2
_OPEN30
 10
39572.24617163939
 20
-5489.82651730407
 30
0.0
 41
100.0
 42
100.0
 43
100.0
 50
270.0
  0
INSERT
  8
1DIM
  2
_OPEN30
 10
39572.24617163939
 20
-5085.737894010413
 30
0.0
 41
100.0
 42
100.0
 43
100.0
 50
90.0
  0
TEXT
  8
1DIM
  6
CONTINUOUS
 62
   201
 10
39537.24617163939
 20
-5381.115538990569
 40
175.0
  1
★
 50
90.0
  0
POINT
  8
DEFPOINTS
 62
     0
 10
39111.07107297645
 20
-5489.82651730407
 30
0.0
  0
POINT
  8
DEFPOINTS
 62
     0
 10
39111.07107391537
 20
-5085.737894010413
 30
0.0
  0
POINT
  8
DEFPOINTS
 62
     0
 10
39572.24617163939
 20
-5085.737894010413
 30
0.0
  0
ENDBLK
  8
0
  0
BLOCK
  8
0
  2
*D275
 70
     1
 10
0.0
 20
0.0
  0
LINE
  8
1DIM
 10
1000.0
 20
400.000000000015
 11
1102.054045411707
 21
400.000000000015
  0
LINE
  8
1DIM
 10
1000.0
 20
0.000000000015
 11
1102.054045411707
 21
0.000000000015
  0
LINE
  8
1DIM
 10
1092.054045411707
 20
380.000000000015
 11
1092.054045411707
 21
20.000000000015
  0
INSERT
  8
1DIM
  2
_OPEN30
 10
1092.054045411707
 20
400.000000000015
 30
0.0
 41
20.0
 42
20.0
 43
20.0
 50
90.0
  0
INSERT
  8
1DIM
  2
_OPEN30
 10
1092.054045411707
 20
0.000000000015
 30
0.0
 41
20.0
 42
20.0
 43
20.0
 50
270.0
  0
TEXT
  8
1DIM
  6
CONTINUOUS
 62
   201
 10
1085.054045411707
 20
122.500000000015
 40
35.0
  1
H:400
 50
90.0
  0
POINT
  8
DEFPOINTS
 62
     0
 10
1000.0
 20
400.000000000015
 30
0.0
  0
POINT
  8
DEFPOINTS
 62
     0
 10
1000.0
 20
0.000000000015
 30
0.0
  0
POINT
  8
DEFPOINTS
 62
     0
 10
1092.054045411707
 20
0.000000000015
 30
0.0
  0
ENDBLK
  8
0
  0
BLOCK
  8
0
  2
*D276
 70
     1
 10
0.0
 20
0.0
  0
LINE
  8
1DIM
 10
1000.0
 20
400.000000000015
 11
1000.0
 21
484.065599456459
  0
LINE
  8
1DIM
 10
600.0
 20
400.000000000015
 11
600.0
 21
484.065599456459
  0
LINE
  8
1DIM
 10
980.0
 20
474.065599456459
 11
620.0
 21
474.065599456459
  0
INSERT
  8
1DIM
  2
_OPEN30
 10
1000.0
 20
474.065599456459
 30
0.0
 41
20.0
 42
20.0
 43
20.0
  0
INSERT
  8
1DIM
  2
_OPEN30
 10
600.0
 20
474.065599456459
 30
0.0
 41
20.0
 42
20.0
 43
20.0
 50
180.0
  0
TEXT
  8
1DIM
  6
CONTINUOUS
 62
   201
 10
723.333333333333
 20
481.065599456459
 40
35.0
  1
D:400
  0
POINT
  8
DEFPOINTS
 62
     0
 10
1000.0
 20
400.000000000015
 30
0.0
  0
POINT
  8
DEFPOINTS
 62
     0
 10
600.0
 20
400.000000000015
 30
0.0
  0
POINT
  8
DEFPOINTS
 62
     0
 10
600.0
 20
474.065599456459
 30
0.0
  0
ENDBLK
  8
0
  0
BLOCK
  8
0
  2
*D277
 70
     1
 10
0.0
 20
0.0
  0
LINE
  8
1DIM
 10
400.0
 20
400.000000000015
 11
400.0
 21
484.065599456459
  0
LINE
  8
1DIM
 10
0.0
 20
400.000000000015
 11
0.0
 21
484.065599456459
  0
LINE
  8
1DIM
 10
380.0
 20
474.065599456459
 11
20.0
 21
474.065599456459
  0
INSERT
  8
1DIM
  2
_OPEN30
 10
400.0
 20
474.065599456459
 30
0.0
 41
20.0
 42
20.0
 43
20.0
  0
INSERT
  8
1DIM
  2
_OPEN30
 10
0.0
 20
474.065599456459
 30
0.0
 41
20.0
 42
20.0
 43
20.0
 50
180.0
  0
TEXT
  8
1DIM
  6
CONTINUOUS
 62
   201
 10
122.5
 20
481.065599456459
 40
35.0
  1
W:400
  0
POINT
  8
DEFPOINTS
 62
     0
 10
400.0
 20
400.000000000015
 30
0.0
  0
POINT
  8
DEFPOINTS
 62
     0
 10
0.0
 20
400.000000000015
 30
0.0
  0
POINT
  8
DEFPOINTS
 62
     0
 10
0.0
 20
474.065599456459
 30
0.0
  0
ENDBLK
  8
0
  0
BLOCK
  8
0
  2
*D278
 70
     1
 10
0.0
 20
0.0
  0
LINE
  8
1DIM
 10
40223.26190446367
 20
-6264.826517304055
 11
40325.31594987537
 21
-6264.826517304055
  0
LINE
  8
1DIM
 10
40223.26190446367
 20
-6664.826517304055
 11
40325.31594987537
 21
-6664.826517304055
  0
LINE
  8
1DIM
 10
40315.31594987537
 20
-6284.826517304055
 11
40315.31594987537
 21
-6644.826517304055
  0
INSERT
  8
1DIM
  2
_OPEN30
 10
40315.31594987537
 20
-6264.826517304055
 30
0.0
 41
20.0
 42
20.0
 43
20.0
 50
90.0
  0
INSERT
  8
1DIM
  2
_OPEN30
 10
40315.31594987537
 20
-6664.826517304055
 30
0.0
 41
20.0
 42
20.0
 43
20.0
 50
270.0
  0
TEXT
  8
1DIM
  6
CONTINUOUS
 62
   201
 10
40308.31594987537
 20
-6542.326517304056
 40
35.0
  1
H:400
 50
90.0
  0
POINT
  8
DEFPOINTS
 62
     0
 10
40223.26190446367
 20
-6264.826517304055
 30
0.0
  0
POINT
  8
DEFPOINTS
 62
     0
 10
40223.26190446367
 20
-6664.826517304055
 30
0.0
  0
POINT
  8
DEFPOINTS
 62
     0
 10
40315.31594987537
 20
-6664.826517304055
 30
0.0
  0
ENDBLK
  8
0
  0
BLOCK
  8
0
  2
*D279
 70
     1
 10
0.0
 20
0.0
  0
LINE
  8
1DIM
 10
40223.26190446367
 20
-6264.826517304055
 11
40223.26190446367
 21
-6180.760917847611
  0
LINE
  8
1DIM
 10
39823.26190446367
 20
-6264.826517304055
 11
39823.26190446367
 21
-6180.760917847611
  0
LINE
  8
1DIM
 10
40203.26190446367
 20
-6190.760917847611
 11
39843.26190446367
 21
-6190.760917847611
  0
INSERT
  8
1DIM
  2
_OPEN30
 10
40223.26190446367
 20
-6190.760917847611
 30
0.0
 41
20.0
 42
20.0
 43
20.0
  0
INSERT
  8
1DIM
  2
_OPEN30
 10
39823.26190446367
 20
-6190.760917847611
 30
0.0
 41
20.0
 42
20.0
 43
20.0
 50
180.0
  0
TEXT
  8
1DIM
  6
CONTINUOUS
 62
   201
 10
39946.595237797
 20
-6183.760917847611
 40
35.0
  1
D:400
  0
POINT
  8
DEFPOINTS
 62
     0
 10
40223.26190446367
 20
-6264.826517304055
 30
0.0
  0
POINT
  8
DEFPOINTS
 62
     0
 10
39823.26190446367
 20
-6264.826517304055
 30
0.0
  0
POINT
  8
DEFPOINTS
 62
     0
 10
39823.26190446367
 20
-6190.760917847611
 30
0.0
  0
ENDBLK
  8
0
  0
BLOCK
  8
0
  2
*D280
 70
     1
 10
0.0
 20
0.0
  0
LINE
  8
1DIM
 10
39323.26190446367
 20
-6264.82651730407
 11
39323.26190446367
 21
-6180.760917847626
  0
LINE
  8
1DIM
 10
38923.26190446367
 20
-6264.82651730407
 11
38923.26190446367
 21
-6180.760917847626
  0
LINE
  8
1DIM
 10
39303.26190446367
 20
-6190.760917847626
 11
38943.26190446367
 21
-6190.760917847626
  0
INSERT
  8
1DIM
  2
_OPEN30
 10
39323.26190446367
 20
-6190.760917847626
 30
0.0
 41
20.0
 42
20.0
 43
20.0
  0
INSERT
  8
1DIM
  2
_OPEN30
 10
38923.26190446367
 20
-6190.760917847626
 30
0.0
 41
20.0
 42
20.0
 43
20.0
 50
180.0
  0
TEXT
  8
1DIM
  6
CONTINUOUS
 62
   201
 10
39045.76190446367
 20
-6183.760917847626
 40
35.0
  1
W:400
  0
POINT
  8
DEFPOINTS
 62
     0
 10
39323.26190446367
 20
-6264.82651730407
 30
0.0
  0
POINT
  8
DEFPOINTS
 62
     0
 10
38923.26190446367
 20
-6264.82651730407
 30
0.0
  0
POINT
  8
DEFPOINTS
 62
     0
 10
38923.26190446367
 20
-6190.760917847626
 30
0.0
  0
ENDBLK
  8
0
  0
BLOCK
  8
0
  2
*D282
 70
     1
 10
0.0
 20
0.0
  0
LINE
  8
1DIM
 10
565.913847032702
 20
1486.16740266791
 11
565.913847032702
 21
1361.04087319145
  0
LINE
  8
1DIM
 10
965.913847032702
 20
1486.16740266791
 11
965.913847032702
 21
1361.04087319145
  0
LINE
  8
1DIM
 10
585.913847032702
 20
1371.04087319145
 11
945.913847032702
 21
1371.04087319145
  0
INSERT
  8
1DIM
  2
_OPEN30
 10
565.913847032702
 20
1371.04087319145
 30
0.0
 41
20.0
 42
20.0
 43
20.0
 50
180.0
  0
INSERT
  8
1DIM
  2
_OPEN30
 10
965.913847032702
 20
1371.04087319145
 30
0.0
 41
20.0
 42
20.0
 43
20.0
  0
TEXT
  8
1DIM
  6
CONTINUOUS
 62
   201
 10
715.913847032702
 20
1378.04087319145
 40
35.0
  1
400
  0
POINT
  8
DEFPOINTS
 62
     0
 10
565.913847032702
 20
1486.16740266791
 30
0.0
  0
POINT
  8
DEFPOINTS
 62
     0
 10
965.913847032702
 20
1486.16740266791
 30
0.0
  0
POINT
  8
DEFPOINTS
 62
     0
 10
965.913847032702
 20
1371.04087319145
 30
0.0
  0
ENDBLK
  8
0
  0
BLOCK
  8
0
  2
*D283
 70
     1
 10
0.0
 20
0.0
  0
LINE
  8
1DIM
 10
965.913847032702
 20
1186.167402667925
 11
1055.692727763671
 21
1186.167402667925
  0
LINE
  8
1DIM
 10
965.913847032702
 20
786.167402667925
 11
1055.692727763671
 21
786.167402667925
  0
LINE
  8
1DIM
 10
1045.692727763671
 20
1166.167402667925
 11
1045.692727763671
 21
806.167402667925
  0
INSERT
  8
1DIM
  2
_OPEN30
 10
1045.692727763671
 20
1186.167402667925
 30
0.0
 41
20.0
 42
20.0
 43
20.0
 50
90.0
  0
INSERT
  8
1DIM
  2
_OPEN30
 10
1045.692727763671
 20
786.167402667925
 30
0.0
 41
20.0
 42
20.0
 43
20.0
 50
270.0
  0
TEXT
  8
1DIM
  6
CONTINUOUS
 62
   201
 10
1038.692727763671
 20
936.167402667925
 40
35.0
  1
400
 50
90.0
  0
POINT
  8
DEFPOINTS
 62
     0
 10
965.913847032702
 20
1186.167402667925
 30
0.0
  0
POINT
  8
DEFPOINTS
 62
     0
 10
965.913847032702
 20
786.167402667925
 30
0.0
  0
POINT
  8
DEFPOINTS
 62
     0
 10
1045.692727763671
 20
786.167402667925
 30
0.0
  0
ENDBLK
  8
0
  0
BLOCK
  8
0
  2
*D284
 70
     1
 10
0.0
 20
0.0
  0
LINE
  8
1DIM
 10
965.913847032702
 20
1886.167402667925
 11
1055.692727763671
 21
1886.167402667925
  0
LINE
  8
1DIM
 10
965.913847032702
 20
1486.167402667925
 11
1055.692727763671
 21
1486.167402667925
  0
LINE
  8
1DIM
 10
1045.692727763671
 20
1866.167402667925
 11
1045.692727763671
 21
1506.167402667925
  0
INSERT
  8
1DIM
  2
_OPEN30
 10
1045.692727763671
 20
1886.167402667925
 30
0.0
 41
20.0
 42
20.0
 43
20.0
 50
90.0
  0
INSERT
  8
1DIM
  2
_OPEN30
 10
1045.692727763671
 20
1486.167402667925
 30
0.0
 41
20.0
 42
20.0
 43
20.0
 50
270.0
  0
TEXT
  8
1DIM
  6
CONTINUOUS
 62
   201
 10
1038.692727763671
 20
1636.167402667925
 40
35.0
  1
400
 50
90.0
  0
POINT
  8
DEFPOINTS
 62
     0
 10
965.913847032702
 20
1886.167402667925
 30
0.0
  0
POINT
  8
DEFPOINTS
 62
     0
 10
965.913847032702
 20
1486.167402667925
 30
0.0
  0
POINT
  8
DEFPOINTS
 62
     0
 10
1045.692727763671
 20
1486.167402667925
 30
0.0
  0
ENDBLK
  8
0
  0
BLOCK
  8
0
  2
*D285
 70
     1
 10
0.0
 20
0.0
  0
LINE
  8
1DIM
 10
965.913847032702
 20
450.719229589595
 11
965.913847032702
 21
534.018101285837
  0
LINE
  8
1DIM
 10
948.913847032702
 20
458.719229589595
 11
948.913847032702
 21
534.018101285837
  0
LINE
  8
1DIM
 10
928.913847032702
 20
524.018101285837
 11
843.247180366035
 21
524.018101285837
  0
LINE
  8
1DIM
 10
965.913847032702
 20
524.018101285837
 11
948.913847032702
 21
524.018101285837
  0
LINE
  8
1DIM
 10
985.913847032702
 20
524.018101285837
 11
1005.913847032702
 21
524.018101285837
  0
INSERT
  8
1DIM
  2
_OPEN30
 10
965.913847032702
 20
524.018101285837
 30
0.0
 41
20.0
 42
20.0
 43
20.0
 50
180.0
  0
INSERT
  8
1DIM
  2
_OPEN30
 10
948.913847032702
 20
524.018101285837
 30
0.0
 41
20.0
 42
20.0
 43
20.0
  0
TEXT
  8
1DIM
  6
CONTINUOUS
 62
   201
 10
840.247180366035
 20
531.018101285837
 40
35.0
  1
17
  0
POINT
  8
DEFPOINTS
 62
     0
 10
965.913847032702
 20
450.719229589595
 30
0.0
  0
POINT
  8
DEFPOINTS
 62
     0
 10
948.913847032702
 20
458.719229589595
 30
0.0
  0
POINT
  8
DEFPOINTS
 62
     0
 10
948.913847032702
 20
524.018101285837
 30
0.0
  0
ENDBLK
  8
0
  0
BLOCK
  8
0
  2
*D286
 70
     1
 10
0.0
 20
0.0
  0
LINE
  8
1DIM
 10
973.913847032702
 20
433.719229589595
 11
1078.975991756102
 21
433.719229589595
  0
LINE
  8
1DIM
 10
965.913847032702
 20
450.719229589595
 11
1078.975991756102
 21
450.719229589595
  0
LINE
  8
1DIM
 10
1068.975991756102
 20
470.719229589595
 11
1068.975991756102
 21
556.385896256261
  0
LINE
  8
1DIM
 10
1068.975991756102
 20
433.719229589595
 11
1068.975991756102
 21
450.719229589595
  0
LINE
  8
1DIM
 10
1068.975991756102
 20
413.719229589595
 11
1068.975991756102
 21
393.719229589595
  0
INSERT
  8
1DIM
  2
_OPEN30
 10
1068.975991756102
 20
433.719229589595
 30
0.0
 41
20.0
 42
20.0
 43
20.0
 50
90.0
  0
INSERT
  8
1DIM
  2
_OPEN30
 10
1068.975991756102
 20
450.719229589595
 30
0.0
 41
20.0
 42
20.0
 43
20.0
 50
270.0
  0
TEXT
  8
1DIM
  6
CONTINUOUS
 62
   201
 10
1061.975991756102
 20
487.719229589595
 40
35.0
  1
17
 50
90.0
  0
POINT
  8
DEFPOINTS
 62
     0
 10
973.913847032702
 20
433.719229589595
 30
0.0
  0
POINT
  8
DEFPOINTS
 62
     0
 10
965.913847032702
 20
450.719229589595
 30
0.0
  0
POINT
  8
DEFPOINTS
 62
     0
 10
1068.975991756102
 20
450.719229589595
 30
0.0
  0
ENDBLK
  8
0
  0
BLOCK
  8
0
  2
*D287
 70
     1
 10
0.0
 20
0.0
  0
LINE
  8
1DIM
 10
974.325738082005
 20
417.774456361355
 11
1353.368107369856
 21
179.943095819585
  0
LINE
  8
1DIM
 10
923.50195598342
 20
449.66400281785
 11
906.560695283904
 21
460.293851636673
  0
TEXT
  8
1DIM
  6
CONTINUOUS
 62
   201
 10
1006.686812321463
 20
405.733243467086
 40
35.0
  1
4-\U+220520 深さ8mm
 50
327.893651385727
  0
LINE
  8
1DIM
 10
940.443216682936
 20
439.034153999026
 11
957.384477382489
 21
428.404305180178
  0
INSERT
  8
1DIM
  2
_OPEN30
 10
940.443216682936
 20
439.034153999026
 30
0.0
 41
20.0
 42
20.0
 43
20.0
 50
327.893651385727
  0
INSERT
  8
1DIM
  2
_OPEN30
 10
957.384477382489
 20
428.404305180178
 30
0.0
 41
20.0
 42
20.0
 43
20.0
 50
147.893651385727
  0
POINT
  8
DEFPOINTS
 62
     0
 10
957.384477382489
 20
428.404305180178
 30
0.0
  0
POINT
  8
DEFPOINTS
 62
     0
 10
940.443216682936
 20
439.034153999026
 30
0.0
  0
ENDBLK
  8
0
  0
BLOCK
  8
0
  2
*D288
 70
     1
 10
0.0
 20
0.0
  0
LINE
  8
1DIM
 10
1270.913847032703
 20
1156.16740266791
 11
1145.697456365036
 21
1156.16740266791
  0
LINE
  8
1DIM
 10
1265.913847032694
 20
1186.16740266791
 11
1145.697456365036
 21
1186.16740266791
  0
LINE
  8
1DIM
 10
1155.697456365036
 20
1206.16740266791
 11
1155.697456365036
 21
1361.834069334577
  0
LINE
  8
1DIM
 10
1155.697456365036
 20
1156.16740266791
 11
1155.697456365036
 21
1186.16740266791
  0
LINE
  8
1DIM
 10
1155.697456365036
 20
1136.16740266791
 11
1155.697456365036
 21
1116.16740266791
  0
INSERT
  8
1DIM
  2
_OPEN30
 10
1155.697456365036
 20
1156.16740266791
 30
0.0
 41
20.0
 42
20.0
 43
20.0
 50
90.0
  0
INSERT
  8
1DIM
  2
_OPEN30
 10
1155.697456365036
 20
1186.16740266791
 30
0.0
 41
20.0
 42
20.0
 43
20.0
 50
270.0
  0
TEXT
  8
1DIM
  6
CONTINUOUS
 62
   201
 10
1148.697456365036
 20
1229.834069334577
 40
35.0
  1
t=30
 50
90.0
  0
POINT
  8
DEFPOINTS
 62
     0
 10
1270.913847032703
 20
1156.16740266791
 30
0.0
  0
POINT
  8
DEFPOINTS
 62
     0
 10
1265.913847032694
 20
1186.16740266791
 30
0.0
  0
POINT
  8
DEFPOINTS
 62
     0
 10
1155.697456365036
 20
1186.16740266791
 30
0.0
  0
ENDBLK
  8
0
  0
BLOCK
  8
0
  2
*D289
 70
     1
 10
0.0
 20
0.0
  0
LINE
  8
1DIM
 10
1296.413847032709
 20
1050.786985680694
 11
1296.413847032709
 21
1027.639050001904
  0
LINE
  8
1DIM
 10
1266.413847032709
 20
1050.786985680694
 11
1266.413847032709
 21
1027.639050001904
  0
LINE
  8
1DIM
 10
1246.413847032709
 20
1037.639050001904
 11
1090.747180366042
 21
1037.639050001904
  0
LINE
  8
1DIM
 10
1296.413847032709
 20
1037.639050001904
 11
1266.413847032709
 21
1037.639050001904
  0
LINE
  8
1DIM
 10
1316.413847032709
 20
1037.639050001904
 11
1336.413847032709
 21
1037.639050001904
  0
INSERT
  8
1DIM
  2
_OPEN30
 10
1296.413847032709
 20
1037.639050001904
 30
0.0
 41
20.0
 42
20.0
 43
20.0
 50
180.0
  0
INSERT
  8
1DIM
  2
_OPEN30
 10
1266.413847032709
 20
1037.639050001904
 30
0.0
 41
20.0
 42
20.0
 43
20.0
  0
TEXT
  8
1DIM
  6
CONTINUOUS
 62
   201
 10
1094.413847032709
 20
1044.639050001904
 40
35.0
  1
t=30
  0
POINT
  8
DEFPOINTS
 62
     0
 10
1296.413847032709
 20
1050.786985680694
 30
0.0
  0
POINT
  8
DEFPOINTS
 62
     0
 10
1266.413847032709
 20
1050.786985680694
 30
0.0
  0
POINT
  8
DEFPOINTS
 62
     0
 10
1266.413847032709
 20
1037.639050001904
 30
0.0
  0
ENDBLK
  8
0
  0
BLOCK
  8
0
  2
*D290
 70
     1
 10
0.0
 20
0.0
  0
LINE
  8
1DIM
 10
1480.4472009042
 20
1186.167402667925
 11
1605.183206643014
 21
1186.167402667925
  0
LINE
  8
1DIM
 10
1480.4472009042
 20
1185.667402667925
 11
1605.183206643014
 21
1185.667402667925
  0
LINE
  8
1DIM
 10
1595.183206643014
 20
1186.167402667925
 11
1595.183206643014
 21
1378.500736001278
  0
LINE
  8
1DIM
 10
1595.183206643014
 20
1186.167402667925
 11
1595.183206643014
 21
1185.667402667925
  0
LINE
  8
1DIM
 10
1595.183206643014
 20
1206.167402667925
 11
1595.183206643014
 21
1226.167402667925
  0
LINE
  8
1DIM
 10
1595.183206643014
 20
1165.667402667925
 11
1595.183206643014
 21
1145.667402667925
  0
INSERT
  8
1DIM
  2
_OPEN30
 10
1595.183206643014
 20
1186.167402667925
 30
0.0
 41
20.0
 42
20.0
 43
20.0
 50
270.0
  0
INSERT
  8
1DIM
  2
_OPEN30
 10
1595.183206643014
 20
1185.667402667925
 30
0.0
 41
20.0
 42
20.0
 43
20.0
 50
90.0
  0
INSERT
  8
1DIM
 62
   201
  2
*X314
 10
0.0
 20
0.0
 30
0.0
  0
POINT
  8
DEFPOINTS
 62
     0
 10
1480.4472009042
 20
1186.167402667925
 30
0.0
  0
POINT
  8
DEFPOINTS
 62
     0
 10
1480.4472009042
 20
1185.667402667925
 30
0.0
  0
POINT
  8
DEFPOINTS
 62
     0
 10
1595.183206643005
 20
1185.667402667925
 30
0.0
  0
ENDBLK
  8
0
  0
BLOCK
  8
0
  2
*D291
 70
     1
 10
0.0
 20
0.0
  0
LINE
  8
1DIM
 10
1266.413847032702
 20
948.075707973388
 11
1266.413847032702
 21
911.675736882491
  0
LINE
  8
1DIM
 10
1265.913847032702
 20
948.075707973388
 11
1265.913847032702
 21
911.675736882491
  0
LINE
  8
1DIM
 10
1245.913847032702
 20
921.675736882491
 11
1073.580513699368
 21
921.675736882491
  0
LINE
  8
1DIM
 10
1266.413847032702
 20
921.675736882491
 11
1265.913847032702
 21
921.675736882491
  0
LINE
  8
1DIM
 10
1286.413847032702
 20
921.675736882491
 11
1306.413847032702
 21
921.675736882491
  0
INSERT
  8
1DIM
  2
_OPEN30
 10
1266.413847032702
 20
921.675736882491
 30
0.0
 41
20.0
 42
20.0
 43
20.0
 50
180.0
  0
INSERT
  8
1DIM
  2
_OPEN30
 10
1265.913847032702
 20
921.675736882491
 30
0.0
 41
20.0
 42
20.0
 43
20.0
  0
INSERT
  8
1DIM
 62
   201
  2
*X315
 10
0.0
 20
0.0
 30
0.0
  0
POINT
  8
DEFPOINTS
 62
     0
 10
1266.413847032702
 20
948.075707973388
 30
0.0
  0
POINT
  8
DEFPOINTS
 62
     0
 10
1265.913847032702
 20
948.075707973388
 30
0.0
  0
POINT
  8
DEFPOINTS
 62
     0
 10
1265.913847032702
 20
921.675736882491
 30
0.0
  0
ENDBLK
  8
0
  0
BLOCK
  8
0
  2
刻印1MM
 70
     0
 10
0.0
 20
0.0
  0
LINE
  8
0
 10
-0.03822222222
 20
-0.210522222223
 11
0.275111111113
 21
-0.210522222223
  0
LINE
  8
0
 10
-0.328999999997
 20
-0.473688888889
 11
0.118444444447
 21
0.52631111111
  0
LINE
  8
0
 10
0.026555555558
 20
-0.065788888889
 11
0.118444444447
 21
0.139666666666
  0
LINE
  8
0
 10
0.026555555558
 20
-0.065788888889
 11
0.210333333336
 21
-0.065788888889
  0
LINE
  8
0
 10
-1.748111111107
 20
-0.473688888889
 11
-1.630333333329
 21
-0.210522222223
  0
LINE
  8
0
 10
-1.871333333329
 20
-0.362566666667
 11
-1.473666666663
 21
0.526322222221
  0
LINE
  8
0
 10
-2.499999999995
 20
0.499999999999
 11
-2.499999999995
 21
-0.473677777778
  0
LINE
  8
0
 10
-2.342111111106
 20
0.499999999999
 11
-2.342111111106
 21
-0.473677777778
  0
LINE
  8
0
 10
-1.986888888884
 20
-0.473688888889
 11
-2.342111111106
 21
0.052633333333
  0
LINE
  8
0
 10
-1.871333333329
 20
-0.362566666667
 11
-2.14644444444
 21
0.045055555555
  0
LINE
  8
0
 10
-2.499999999995
 20
-0.473677777778
 11
-2.342111111106
 21
-0.473677777778
  0
LINE
  8
0
 10
-1.986888888884
 20
-0.473677777778
 11
-1.748111111107
 21
-0.473677777778
  0
LINE
  8
0
 10
-1.986888888884
 20
0.499999999999
 11
-2.342111111106
 21
0.052633333333
  0
LINE
  8
0
 10
-1.785222222218
 20
0.499999999999
 11
-2.14644444444
 21
0.045055555555
  0
LINE
  8
0
 10
-2.499999999995
 20
0.499999999999
 11
-2.342111111106
 21
0.499999999999
  0
LINE
  8
0
 10
-1.986888888884
 20
0.499999999999
 11
-1.785222222218
 21
0.499999999999
  0
LINE
  8
0
 10
-0.433555555553
 20
-0.105255555556
 11
-0.670999999997
 21
0.52631111111
  0
LINE
  8
0
 10
-0.433555555553
 20
-0.105255555556
 11
-0.178777777775
 21
0.499999999999
  0
LINE
  8
0
 10
-1.565555555551
 20
-0.065788888889
 11
-1.473666666663
 21
0.139666666666
  0
LINE
  8
0
 10
-1.381777777774
 20
-0.065788888889
 11
-1.473666666663
 21
0.139666666666
  0
LINE
  8
0
 10
-0.908444444441
 20
-0.105255555556
 11
-1.16333333333
 21
0.499999999999
  0
LINE
  8
0
 10
-0.908444444441
 20
-0.105255555556
 11
-0.670999999997
 21
0.52631111111
  0
LINE
  8
0
 10
-0.907888888885
 20
-0.5
 11
-1.328999999996
 21
0.499999999999
  0
LINE
  8
0
 10
-0.907888888885
 20
-0.5
 11
-0.670999999997
 21
0.129977777777
  0
LINE
  8
0
 10
-0.434222222219
 20
-0.5
 11
-0.013111111109
 21
0.499999999999
  0
LINE
  8
0
 10
-0.434222222219
 20
-0.5
 11
-0.670999999997
 21
0.129977777777
  0
LINE
  8
0
 10
-1.02633333333
 20
-0.473688888889
 11
-1.473666666663
 21
0.52631111111
  0
LINE
  8
0
 10
-1.19933333333
 20
-0.473688888889
 11
-1.316999999996
 21
-0.210522222223
  0
LINE
  8
0
 10
-1.19933333333
 20
-0.473677777778
 11
-1.02633333333
 21
-0.473677777778
  0
LINE
  8
0
 10
-1.565555555551
 20
-0.065788888889
 11
-1.381777777774
 21
-0.065788888889
  0
LINE
  8
0
 10
-1.630333333329
 20
-0.210522222223
 11
-1.316999999996
 21
-0.210522222223
  0
LINE
  8
0
 10
-0.155999999997
 20
-0.473688888889
 11
-0.03822222222
 21
-0.210522222223
  0
LINE
  8
0
 10
-0.328999999997
 20
-0.473677777778
 11
-0.155999999997
 21
-0.473677777778
  0
LINE
  8
0
 10
-1.328999999996
 20
0.499999999999
 11
-1.16333333333
 21
0.499999999999
  0
LINE
  8
0
 10
-0.178777777775
 20
0.499999999999
 11
-0.013111111109
 21
0.499999999999
  0
POINT
  8
1CENTER
 10
0.0
 20
0.0
 30
0.0
  0
ARC
  8
0
 10
1.395777777779
 20
-0.197942286342
 40
0.29
 50
299.999999999977
 51
0.0
  0
LINE
  8
0
 10
0.755777777779
 20
0.499999999999
 11
0.755777777779
 21
-0.220000000001
  0
LINE
  8
0
 10
0.915777777779
 20
0.499999999999
 11
0.915777777779
 21
-0.210000000001
  0
LINE
  8
0
 10
1.175777777779
 20
0.499999999999
 11
1.175777777779
 21
-0.197942286342
  0
LINE
  8
0
 10
1.525777777779
 20
0.499999999999
 11
1.525777777779
 21
-0.197942286342
  0
LINE
  8
0
 10
1.685777777779
 20
0.499999999999
 11
1.685777777779
 21
-0.197942286342
  0
LINE
  8
0
 10
1.015777777779
 20
0.499999999999
 11
1.015777777779
 21
-0.197942286342
  0
LINE
  8
0
 10
0.210333333336
 20
-0.065788888889
 11
0.118444444447
 21
0.139666666666
  0
LINE
  8
0
 10
0.497065436477
 20
-0.320000000001
 11
0.118444444447
 21
0.52631111111
  0
ARC
  8
0
 10
0.655777777779
 20
-0.210000000001
 40
0.26
 50
270.0
 51
0.0
  0
LINE
  8
0
 10
0.391128407574
 20
-0.470000000001
 11
0.275111111113
 21
-0.210522222223
  0
LINE
  8
0
 10
0.391128407574
 20
-0.470000000001
 11
0.655777777779
 21
-0.470000000001
  0
ARC
  8
0
 10
0.655777777779
 20
-0.220000000001
 40
0.1
 50
270.0
 51
0.0
  0
LINE
  8
0
 10
0.497065436477
 20
-0.320000000001
 11
0.655777777779
 21
-0.320000000001
  0
ARC
  8
0
 10
1.305777777779
 20
-0.197942286342
 40
0.29
 50
180.0
 51
240.000000000025
  0
ARC
  8
0
 10
1.350777777779
 20
-0.120000000001
 40
0.3800000000000008
 50
240.000000000025
 51
299.999999999977
  0
ARC
  8
0
 10
1.350777777779
 20
-0.120000000001
 40
0.2199999999999989
 50
240.000000000023
 51
299.999999999969
  0
ARC
  8
0
 10
1.305777777779
 20
-0.197942286342
 40
0.13
 50
180.0
 51
240.000000000023
  0
ARC
  8
0
 10
1.395777777779
 20
-0.197942286342
 40
0.13
 50
299.999999999969
 51
0.0
  0
LINE
  8
0
 10
0.755777777779
 20
0.499999999999
 11
0.915777777779
 21
0.499999999999
  0
LINE
  8
0
 10
1.175777777779
 20
0.499999999999
 11
1.015777777779
 21
0.499999999999
  0
LINE
  8
0
 10
1.685777777779
 20
0.499999999999
 11
1.525777777779
 21
0.499999999999
  0
LINE
  8
0
 10
2.342111111111
 20
0.499999999999
 11
2.342111111111
 21
-0.093544444445
  0
LINE
  8
0
 10
2.342111111111
 20
-0.093544444445
 11
1.789444444445
 21
0.52631111111
  0
LINE
  8
0
 10
1.789444444445
 20
0.526322222221
 11
1.789444444445
 21
-0.473677777778
  0
LINE
  8
0
 10
1.947333333334
 20
0.119855555555
 11
1.947333333334
 21
-0.473677777778
  0
LINE
  8
0
 10
1.789444444445
 20
-0.473677777778
 11
1.947333333334
 21
-0.473677777778
  0
LINE
  8
0
 10
2.5
 20
0.499999999999
 11
2.5
 21
-0.5
  0
LINE
  8
0
 10
2.5
 20
-0.5
 11
1.947333333334
 21
0.119855555555
  0
LINE
  8
0
 10
2.342111111111
 20
0.499999999999
 11
2.5
 21
0.499999999999
  0
ENDBLK
  8
0
  0
BLOCK
  8
0
  2
*D293
 70
     1
 10
0.0
 20
0.0
  0
LINE
  8
1DIM
 10
45442.02821338159
 20
-8035.163261122932
 11
45442.02821338159
 21
-8160.289790599392
  0
LINE
  8
1DIM
 10
45842.02821338159
 20
-8035.163261122932
 11
45842.02821338159
 21
-8160.289790599392
  0
LINE
  8
1DIM
 10
45462.02821338159
 20
-8150.289790599392
 11
45822.02821338159
 21
-8150.289790599392
  0
INSERT
  8
1DIM
  2
_OPEN30
 10
45442.02821338159
 20
-8150.289790599392
 30
0.0
 41
20.0
 42
20.0
 43
20.0
 50
180.0
  0
INSERT
  8
1DIM
  2
_OPEN30
 10
45842.02821338159
 20
-8150.289790599392
 30
0.0
 41
20.0
 42
20.0
 43
20.0
  0
TEXT
  8
1DIM
  6
CONTINUOUS
 62
   201
 10
45592.02821338159
 20
-8143.289790599392
 40
35.0
  1
400
  0
POINT
  8
DEFPOINTS
 62
     0
 10
45442.02821338159
 20
-8035.163261122932
 30
0.0
  0
POINT
  8
DEFPOINTS
 62
     0
 10
45842.02821338159
 20
-8035.163261122932
 30
0.0
  0
POINT
  8
DEFPOINTS
 62
     0
 10
45842.02821338159
 20
-8150.289790599392
 30
0.0
  0
ENDBLK
  8
0
  0
BLOCK
  8
0
  2
*D294
 70
     1
 10
0.0
 20
0.0
  0
LINE
  8
1DIM
 10
45842.02821338159
 20
-8335.163261122918
 11
45931.80709411256
 21
-8335.163261122918
  0
LINE
  8
1DIM
 10
45842.02821338159
 20
-8735.163261122918
 11
45931.80709411256
 21
-8735.163261122918
  0
LINE
  8
1DIM
 10
45921.80709411256
 20
-8355.163261122918
 11
45921.80709411256
 21
-8715.163261122918
  0
INSERT
  8
1DIM
  2
_OPEN30
 10
45921.80709411256
 20
-8335.163261122918
 30
0.0
 41
20.0
 42
20.0
 43
20.0
 50
90.0
  0
INSERT
  8
1DIM
  2
_OPEN30
 10
45921.80709411256
 20
-8735.163261122918
 30
0.0
 41
20.0
 42
20.0
 43
20.0
 50
270.0
  0
TEXT
  8
1DIM
  6
CONTINUOUS
 62
   201
 10
45914.80709411255
 20
-8585.163261122922
 40
35.0
  1
400
 50
90.0
  0
POINT
  8
DEFPOINTS
 62
     0
 10
45842.02821338159
 20
-8335.163261122918
 30
0.0
  0
POINT
  8
DEFPOINTS
 62
     0
 10
45842.02821338159
 20
-8735.163261122918
 30
0.0
  0
POINT
  8
DEFPOINTS
 62
     0
 10
45921.80709411256
 20
-8735.163261122918
 30
0.0
  0
ENDBLK
  8
0
  0
BLOCK
  8
0
  2
*D295
 70
     1
 10
0.0
 20
0.0
  0
LINE
  8
1DIM
 10
45842.02821338159
 20
-7635.163261122918
 11
45931.80709411256
 21
-7635.163261122918
  0
LINE
  8
1DIM
 10
45842.02821338159
 20
-8035.163261122918
 11
45931.80709411256
 21
-8035.163261122918
  0
LINE
  8
1DIM
 10
45921.80709411256
 20
-7655.163261122918
 11
45921.80709411256
 21
-8015.163261122918
  0
INSERT
  8
1DIM
  2
_OPEN30
 10
45921.80709411256
 20
-7635.163261122918
 30
0.0
 41
20.0
 42
20.0
 43
20.0
 50
90.0
  0
INSERT
  8
1DIM
  2
_OPEN30
 10
45921.80709411256
 20
-8035.163261122918
 30
0.0
 41
20.0
 42
20.0
 43
20.0
 50
270.0
  0
TEXT
  8
1DIM
  6
CONTINUOUS
 62
   201
 10
45914.80709411255
 20
-7885.163261122922
 40
35.0
  1
400
 50
90.0
  0
POINT
  8
DEFPOINTS
 62
     0
 10
45842.02821338159
 20
-7635.163261122918
 30
0.0
  0
POINT
  8
DEFPOINTS
 62
     0
 10
45842.02821338159
 20
-8035.163261122918
 30
0.0
  0
POINT
  8
DEFPOINTS
 62
     0
 10
45921.80709411256
 20
-8035.163261122918
 30
0.0
  0
ENDBLK
  8
0
  0
BLOCK
  8
0
  2
*D296
 70
     1
 10
0.0
 20
0.0
  0
LINE
  8
1DIM
 10
45842.02821338159
 20
-9070.611434201248
 11
45842.02821338159
 21
-8987.312562505005
  0
LINE
  8
1DIM
 10
45825.02821338159
 20
-9062.611434201248
 11
45825.02821338159
 21
-8987.312562505005
  0
LINE
  8
1DIM
 10
45805.02821338159
 20
-8997.312562505005
 11
45719.36154671491
 21
-8997.312562505005
  0
LINE
  8
1DIM
 10
45842.02821338159
 20
-8997.312562505005
 11
45825.02821338159
 21
-8997.312562505005
  0
LINE
  8
1DIM
 10
45862.02821338159
 20
-8997.312562505005
 11
45882.02821338159
 21
-8997.312562505005
  0
INSERT
  8
1DIM
  2
_OPEN30
 10
45842.02821338159
 20
-8997.312562505005
 30
0.0
 41
20.0
 42
20.0
 43
20.0
 50
180.0
  0
INSERT
  8
1DIM
  2
_OPEN30
 10
45825.02821338159
 20
-8997.312562505005
 30
0.0
 41
20.0
 42
20.0
 43
20.0
  0
TEXT
  8
1DIM
  6
CONTINUOUS
 62
   201
 10
45716.36154671491
 20
-8990.312562505005
 40
35.0
  1
17
  0
POINT
  8
DEFPOINTS
 62
     0
 10
45842.02821338159
 20
-9070.611434201248
 30
0.0
  0
POINT
  8
DEFPOINTS
 62
     0
 10
45825.02821338159
 20
-9062.611434201248
 30
0.0
  0
POINT
  8
DEFPOINTS
 62
     0
 10
45825.02821338159
 20
-8997.312562505005
 30
0.0
  0
ENDBLK
  8
0
  0
BLOCK
  8
0
  2
*D297
 70
     1
 10
0.0
 20
0.0
  0
LINE
  8
1DIM
 10
45850.02821338159
 20
-9087.611434201248
 11
45955.09035810499
 21
-9087.611434201248
  0
LINE
  8
1DIM
 10
45842.02821338159
 20
-9070.611434201248
 11
45955.09035810499
 21
-9070.611434201248
  0
LINE
  8
1DIM
 10
45945.09035810499
 20
-9050.611434201248
 11
45945.09035810499
 21
-8964.944767534576
  0
LINE
  8
1DIM
 10
45945.09035810499
 20
-9087.611434201248
 11
45945.09035810499
 21
-9070.611434201248
  0
LINE
  8
1DIM
 10
45945.09035810499
 20
-9107.611434201248
 11
45945.09035810499
 21
-9127.611434201248
  0
INSERT
  8
1DIM
  2
_OPEN30
 10
45945.09035810499
 20
-9087.611434201248
 30
0.0
 41
20.0
 42
20.0
 43
20.0
 50
90.0
  0
INSERT
  8
1DIM
  2
_OPEN30
 10
45945.09035810499
 20
-9070.611434201248
 30
0.0
 41
20.0
 42
20.0
 43
20.0
 50
270.0
  0
TEXT
  8
1DIM
  6
CONTINUOUS
 62
   201
 10
45938.09035810499
 20
-9033.611434201244
 40
35.0
  1
17
 50
90.0
  0
POINT
  8
DEFPOINTS
 62
     0
 10
45850.02821338159
 20
-9087.611434201248
 30
0.0
  0
POINT
  8
DEFPOINTS
 62
     0
 10
45842.02821338159
 20
-9070.611434201248
 30
0.0
  0
POINT
  8
DEFPOINTS
 62
     0
 10
45945.09035810499
 20
-9070.611434201248
 30
0.0
  0
ENDBLK
  8
0
  0
BLOCK
  8
0
  2
*D298
 70
     1
 10
0.0
 20
0.0
  0
LINE
  8
1DIM
 10
45850.44010443089
 20
-9103.556207429488
 11
46229.48247371874
 21
-9341.38756797126
  0
LINE
  8
1DIM
 10
45799.6163223323
 20
-9071.666660972993
 11
45782.67506163278
 21
-9061.036812154169
  0
TEXT
  8
1DIM
  6
CONTINUOUS
 62
   201
 10
45882.80117867035
 20
-9115.597420323764
 40
35.0
  1
4-\U+220520 深さ8mm
 50
327.893651385727
  0
LINE
  8
1DIM
 10
45816.55758303182
 20
-9082.296509791817
 11
45833.49884373137
 21
-9092.926358610664
  0
INSERT
  8
1DIM
  2
_OPEN30
 10
45816.55758303182
 20
-9082.296509791817
 30
0.0
 41
20.0
 42
20.0
 43
20.0
 50
327.893651385727
  0
INSERT
  8
1DIM
  2
_OPEN30
 10
45833.49884373137
 20
-9092.926358610664
 30
0.0
 41
20.0
 42
20.0
 43
20.0
 50
147.893651385727
  0
POINT
  8
DEFPOINTS
 62
     0
 10
45833.49884373137
 20
-9092.926358610664
 30
0.0
  0
POINT
  8
DEFPOINTS
 62
     0
 10
45816.55758303182
 20
-9082.296509791817
 30
0.0
  0
ENDBLK
  8
0
  0
BLOCK
  8
0
  2
*D299
 70
     1
 10
0.0
 20
0.0
  0
LINE
  8
1DIM
 10
46147.02821338159
 20
-8365.163261122932
 11
46021.81182271392
 21
-8365.163261122932
  0
LINE
  8
1DIM
 10
46142.02821338158
 20
-8335.163261122932
 11
46021.81182271392
 21
-8335.163261122932
  0
LINE
  8
1DIM
 10
46031.81182271392
 20
-8315.163261122932
 11
46031.81182271392
 21
-8159.496594456261
  0
LINE
  8
1DIM
 10
46031.81182271392
 20
-8365.163261122932
 11
46031.81182271392
 21
-8335.163261122932
  0
LINE
  8
1DIM
 10
46031.81182271392
 20
-8385.163261122932
 11
46031.81182271392
 21
-8405.163261122932
  0
INSERT
  8
1DIM
  2
_OPEN30
 10
46031.81182271392
 20
-8365.163261122932
 30
0.0
 41
20.0
 42
20.0
 43
20.0
 50
90.0
  0
INSERT
  8
1DIM
  2
_OPEN30
 10
46031.81182271392
 20
-8335.163261122932
 30
0.0
 41
20.0
 42
20.0
 43
20.0
 50
270.0
  0
TEXT
  8
1DIM
  6
CONTINUOUS
 62
   201
 10
46024.81182271392
 20
-8291.496594456272
 40
35.0
  1
t=30
 50
90.0
  0
POINT
  8
DEFPOINTS
 62
     0
 10
46147.02821338159
 20
-8365.163261122932
 30
0.0
  0
POINT
  8
DEFPOINTS
 62
     0
 10
46142.02821338158
 20
-8335.163261122932
 30
0.0
  0
POINT
  8
DEFPOINTS
 62
     0
 10
46031.81182271392
 20
-8335.163261122932
 30
0.0
  0
ENDBLK
  8
0
  0
BLOCK
  8
0
  2
*D300
 70
     1
 10
0.0
 20
0.0
  0
LINE
  8
1DIM
 10
46172.52821338159
 20
-8470.543678110149
 11
46172.52821338159
 21
-8493.691613788938
  0
LINE
  8
1DIM
 10
46142.52821338159
 20
-8470.543678110149
 11
46142.52821338159
 21
-8493.691613788938
  0
LINE
  8
1DIM
 10
46122.52821338159
 20
-8483.691613788938
 11
45966.86154671492
 21
-8483.691613788938
  0
LINE
  8
1DIM
 10
46172.52821338159
 20
-8483.691613788938
 11
46142.52821338159
 21
-8483.691613788938
  0
LINE
  8
1DIM
 10
46192.52821338159
 20
-8483.691613788938
 11
46212.52821338159
 21
-8483.691613788938
  0
INSERT
  8
1DIM
  2
_OPEN30
 10
46172.52821338159
 20
-8483.691613788938
 30
0.0
 41
20.0
 42
20.0
 43
20.0
 50
180.0
  0
INSERT
  8
1DIM
  2
_OPEN30
 10
46142.52821338159
 20
-8483.691613788938
 30
0.0
 41
20.0
 42
20.0
 43
20.0
  0
TEXT
  8
1DIM
  6
CONTINUOUS
 62
   201
 10
45970.52821338159
 20
-8476.691613788938
 40
35.0
  1
t=30
  0
POINT
  8
DEFPOINTS
 62
     0
 10
46172.52821338159
 20
-8470.543678110149
 30
0.0
  0
POINT
  8
DEFPOINTS
 62
     0
 10
46142.52821338159
 20
-8470.543678110149
 30
0.0
  0
POINT
  8
DEFPOINTS
 62
     0
 10
46142.52821338159
 20
-8483.691613788938
 30
0.0
  0
ENDBLK
  8
0
  0
BLOCK
  8
0
  2
*D301
 70
     1
 10
0.0
 20
0.0
  0
LINE
  8
1DIM
 10
46356.56156725308
 20
-8335.163261122918
 11
46481.2975729919
 21
-8335.163261122918
  0
LINE
  8
1DIM
 10
46356.56156725308
 20
-8335.663261122918
 11
46481.2975729919
 21
-8335.663261122918
  0
LINE
  8
1DIM
 10
46471.2975729919
 20
-8335.163261122918
 11
46471.2975729919
 21
-8142.829927789568
  0
LINE
  8
1DIM
 10
46471.2975729919
 20
-8335.163261122918
 11
46471.2975729919
 21
-8335.663261122918
  0
LINE
  8
1DIM
 10
46471.2975729919
 20
-8315.163261122918
 11
46471.2975729919
 21
-8295.163261122918
  0
LINE
  8
1DIM
 10
46471.2975729919
 20
-8355.663261122918
 11
46471.2975729919
 21
-8375.663261122918
  0
INSERT
  8
1DIM
  2
_OPEN30
 10
46471.2975729919
 20
-8335.163261122918
 30
0.0
 41
20.0
 42
20.0
 43
20.0
 50
270.0
  0
INSERT
  8
1DIM
  2
_OPEN30
 10
46471.2975729919
 20
-8335.663261122918
 30
0.0
 41
20.0
 42
20.0
 43
20.0
 50
90.0
  0
INSERT
  8
1DIM
 62
   201
  2
*X316
 10
0.0
 20
0.0
 30
0.0
  0
POINT
  8
DEFPOINTS
 62
     0
 10
46356.56156725308
 20
-8335.163261122918
 30
0.0
  0
POINT
  8
DEFPOINTS
 62
     0
 10
46356.56156725308
 20
-8335.663261122918
 30
0.0
  0
POINT
  8
DEFPOINTS
 62
     0
 10
46471.2975729919
 20
-8335.663261122918
 30
0.0
  0
ENDBLK
  8
0
  0
BLOCK
  8
0
  2
*D302
 70
     1
 10
0.0
 20
0.0
  0
LINE
  8
1DIM
 10
46142.52821338159
 20
-8573.254955817454
 11
46142.52821338159
 21
-8609.654926908352
  0
LINE
  8
1DIM
 10
46142.02821338159
 20
-8573.254955817454
 11
46142.02821338159
 21
-8609.654926908352
  0
LINE
  8
1DIM
 10
46122.02821338159
 20
-8599.654926908352
 11
45949.69488004826
 21
-8599.654926908352
  0
LINE
  8
1DIM
 10
46142.52821338159
 20
-8599.654926908352
 11
46142.02821338159
 21
-8599.654926908352
  0
LINE
  8
1DIM
 10
46162.52821338159
 20
-8599.654926908352
 11
46182.52821338159
 21
-8599.654926908352
  0
INSERT
  8
1DIM
  2
_OPEN30
 10
46142.52821338159
 20
-8599.654926908352
 30
0.0
 41
20.0
 42
20.0
 43
20.0
 50
180.0
  0
INSERT
  8
1DIM
  2
_OPEN30
 10
46142.02821338159
 20
-8599.654926908352
 30
0.0
 41
20.0
 42
20.0
 43
20.0
  0
INSERT
  8
1DIM
 62
   201
  2
*X317
 10
0.0
 20
0.0
 30
0.0
  0
POINT
  8
DEFPOINTS
 62
     0
 10
46142.52821338159
 20
-8573.254955817454
 30
0.0
  0
POINT
  8
DEFPOINTS
 62
     0
 10
46142.02821338159
 20
-8573.254955817454
 30
0.0
  0
POINT
  8
DEFPOINTS
 62
     0
 10
46142.02821338159
 20
-8599.654926908352
 30
0.0
  0
ENDBLK
  8
0
  0
BLOCK
  8
0
  2
*D303
 70
     1
 10
0.0
 20
0.0
  0
LINE
  8
1DIM
 10
39823.26190446367
 20
-6714.82651730407
 11
39823.26190446367
 21
-6774.82651730407
  0
LINE
  8
1DIM
 10
40623.26190446367
 20
-6714.826517304071
 11
40623.26190446367
 21
-6774.82651730407
  0
LINE
  8
1DIM
 10
39843.26190446367
 20
-6764.82651730407
 11
40603.26190446367
 21
-6764.82651730407
  0
INSERT
  8
1DIM
  2
_OPEN30
 10
39823.26190446367
 20
-6764.82651730407
 30
0.0
 41
20.0
 42
20.0
 43
20.0
 50
180.0
  0
INSERT
  8
1DIM
  2
_OPEN30
 10
40623.26190446367
 20
-6764.82651730407
 30
0.0
 41
20.0
 42
20.0
 43
20.0
  0
TEXT
  8
1DIM
  6
CONTINUOUS
 62
   201
 10
40173.26190446367
 20
-6757.82651730407
 40
35.0
  1
800
  0
POINT
  8
DEFPOINTS
 62
     0
 10
39823.26190446367
 20
-6664.82651730407
 30
0.0
  0
POINT
  8
DEFPOINTS
 62
     0
 10
40623.26190446367
 20
-6664.826517304071
 30
0.0
  0
POINT
  8
DEFPOINTS
 62
     0
 10
40623.26190446367
 20
-6764.82651730407
 30
0.0
  0
ENDBLK
  8
0
  0
BLOCK
  8
0
  2
*D304
 70
     1
 10
0.0
 20
0.0
  0
LINE
  8
1DIM
 10
40673.26190446367
 20
-6664.826517304048
 11
40733.26190446367
 21
-6664.826517304048
  0
LINE
  8
1DIM
 10
40673.26190446367
 20
-6264.826517304048
 11
40733.26190446367
 21
-6264.826517304048
  0
LINE
  8
1DIM
 10
40723.26190446367
 20
-6644.826517304048
 11
40723.26190446367
 21
-6284.826517304048
  0
INSERT
  8
1DIM
  2
_OPEN30
 10
40723.26190446367
 20
-6664.826517304048
 30
0.0
 41
20.0
 42
20.0
 43
20.0
 50
270.0
  0
INSERT
  8
1DIM
  2
_OPEN30
 10
40723.26190446367
 20
-6264.826517304048
 30
0.0
 41
20.0
 42
20.0
 43
20.0
 50
90.0
  0
TEXT
  8
1DIM
  6
CONTINUOUS
 62
   201
 10
40716.26190446367
 20
-6514.826517304049
 40
35.0
  1
400
 50
90.0
  0
POINT
  8
DEFPOINTS
 62
     0
 10
40623.26190446367
 20
-6664.826517304048
 30
0.0
  0
POINT
  8
DEFPOINTS
 62
     0
 10
40623.26190446367
 20
-6264.826517304048
 30
0.0
  0
POINT
  8
DEFPOINTS
 62
     0
 10
40723.26190446367
 20
-6264.826517304048
 30
0.0
  0
ENDBLK
  8
0
  0
BLOCK
  8
0
  2
*D305
 70
     1
 10
0.0
 20
0.0
  0
LINE
  8
1DIM
 10
38523.26190446366
 20
-6714.826517304085
 11
38523.26190446366
 21
-6774.82651730407
  0
LINE
  8
1DIM
 10
39323.26190446367
 20
-6714.82651730407
 11
39323.26190446367
 21
-6774.82651730407
  0
LINE
  8
1DIM
 10
38543.26190446366
 20
-6764.82651730407
 11
39303.26190446367
 21
-6764.82651730407
  0
INSERT
  8
1DIM
  2
_OPEN30
 10
38523.26190446366
 20
-6764.82651730407
 30
0.0
 41
20.0
 42
20.0
 43
20.0
 50
180.0
  0
INSERT
  8
1DIM
  2
_OPEN30
 10
39323.26190446367
 20
-6764.82651730407
 30
0.0
 41
20.0
 42
20.0
 43
20.0
  0
TEXT
  8
1DIM
  6
CONTINUOUS
 62
   201
 10
38873.26190446367
 20
-6757.82651730407
 40
35.0
  1
800
  0
POINT
  8
DEFPOINTS
 62
     0
 10
38523.26190446366
 20
-6664.826517304085
 30
0.0
  0
POINT
  8
DEFPOINTS
 62
     0
 10
39323.26190446367
 20
-6664.82651730407
 30
0.0
  0
POINT
  8
DEFPOINTS
 62
     0
 10
39323.26190446367
 20
-6764.82651730407
 30
0.0
  0
ENDBLK
  8
0
  0
BLOCK
  8
0
  2
*D307
 70
     1
 10
0.0
 20
0.0
  0
LINE
  8
1DIM
 10
1800.000000000007
 20
400.000000000015
 11
1927.10048443036
 21
400.000000000015
  0
LINE
  8
1DIM
 10
1800.000000000007
 20
0.0
 11
1927.10048443036
 21
0.0
  0
LINE
  8
1DIM
 10
1917.10048443036
 20
380.000000000015
 11
1917.10048443036
 21
20.0
  0
INSERT
  8
1DIM
  2
_OPEN30
 10
1917.10048443036
 20
400.000000000015
 30
0.0
 41
20.0
 42
20.0
 43
20.0
 50
90.0
  0
INSERT
  8
1DIM
  2
_OPEN30
 10
1917.10048443036
 20
0.0
 30
0.0
 41
20.0
 42
20.0
 43
20.0
 50
270.0
  0
TEXT
  8
1DIM
  6
CONTINUOUS
 62
   201
 10
1910.10048443036
 20
122.500000000008
 40
35.0
  1
H:400
 50
90.0
  0
POINT
  8
DEFPOINTS
 62
     0
 10
1800.000000000007
 20
400.000000000015
 30
0.0
  0
POINT
  8
DEFPOINTS
 62
     0
 10
1800.000000000007
 20
0.0
 30
0.0
  0
POINT
  8
DEFPOINTS
 62
     0
 10
1917.10048443036
 20
0.0
 30
0.0
  0
ENDBLK
  8
0
  0
BLOCK
  8
0
  2
*D308
 70
     1
 10
0.0
 20
0.0
  0
LINE
  8
1DIM
 10
1000.000000000007
 20
400.000000000015
 11
1000.000000000007
 21
484.065599456459
  0
LINE
  8
1DIM
 10
1800.000000000007
 20
400.000000000015
 11
1800.000000000007
 21
484.065599456459
  0
LINE
  8
1DIM
 10
1020.000000000007
 20
474.065599456459
 11
1780.000000000007
 21
474.065599456459
  0
INSERT
  8
1DIM
  2
_OPEN30
 10
1000.000000000007
 20
474.065599456459
 30
0.0
 41
20.0
 42
20.0
 43
20.0
 50
180.0
  0
INSERT
  8
1DIM
  2
_OPEN30
 10
1800.000000000007
 20
474.065599456459
 30
0.0
 41
20.0
 42
20.0
 43
20.0
  0
TEXT
  8
1DIM
  6
CONTINUOUS
 62
   201
 10
1323.33333333334
 20
481.065599456459
 40
35.0
  1
D:800
  0
POINT
  8
DEFPOINTS
 62
     0
 10
1000.000000000007
 20
400.000000000015
 30
0.0
  0
POINT
  8
DEFPOINTS
 62
     0
 10
1800.000000000007
 20
400.000000000015
 30
0.0
  0
POINT
  8
DEFPOINTS
 62
     0
 10
1800.000000000007
 20
474.065599456459
 30
0.0
  0
ENDBLK
  8
0
  0
BLOCK
  8
0
  2
*D309
 70
     1
 10
0.0
 20
0.0
  0
LINE
  8
1DIM
 10
0.000000000007
 20
400.000000000015
 11
0.000000000007
 21
484.065599456459
  0
LINE
  8
1DIM
 10
800.000000000007
 20
400.000000000015
 11
800.000000000007
 21
484.065599456459
  0
LINE
  8
1DIM
 10
20.000000000007
 20
474.065599456459
 11
780.000000000007
 21
474.065599456459
  0
INSERT
  8
1DIM
  2
_OPEN30
 10
0.000000000007
 20
474.065599456459
 30
0.0
 41
20.0
 42
20.0
 43
20.0
 50
180.0
  0
INSERT
  8
1DIM
  2
_OPEN30
 10
800.000000000007
 20
474.065599456459
 30
0.0
 41
20.0
 42
20.0
 43
20.0
  0
TEXT
  8
1DIM
  6
CONTINUOUS
 62
   201
 10
322.500000000007
 20
481.065599456459
 40
35.0
  1
W:800
  0
POINT
  8
DEFPOINTS
 62
     0
 10
0.000000000007
 20
400.000000000015
 30
0.0
  0
POINT
  8
DEFPOINTS
 62
     0
 10
800.000000000007
 20
400.000000000015
 30
0.0
  0
POINT
  8
DEFPOINTS
 62
     0
 10
800.000000000007
 20
474.065599456459
 30
0.0
  0
ENDBLK
  8
0
  0
BLOCK
  8
0
  2
*D310
 70
     1
 10
0.0
 20
0.0
  0
LINE
  8
1DIM
 10
40323.26190446367
 20
-6264.826517304069
 11
40450.36238889402
 21
-6264.826517304069
  0
LINE
  8
1DIM
 10
40323.26190446367
 20
-6664.826517304085
 11
40450.36238889402
 21
-6664.826517304085
  0
LINE
  8
1DIM
 10
40440.36238889402
 20
-6284.826517304069
 11
40440.36238889402
 21
-6644.826517304085
  0
INSERT
  8
1DIM
  2
_OPEN30
 10
40440.36238889402
 20
-6264.826517304069
 30
0.0
 41
20.0
 42
20.0
 43
20.0
 50
90.0
  0
INSERT
  8
1DIM
  2
_OPEN30
 10
40440.36238889402
 20
-6664.826517304085
 30
0.0
 41
20.0
 42
20.0
 43
20.0
 50
270.0
  0
TEXT
  8
1DIM
  6
CONTINUOUS
 62
   201
 10
40433.36238889402
 20
-6542.326517304078
 40
35.0
  1
H:400
 50
90.0
  0
POINT
  8
DEFPOINTS
 62
     0
 10
40323.26190446367
 20
-6264.826517304069
 30
0.0
  0
POINT
  8
DEFPOINTS
 62
     0
 10
40323.26190446367
 20
-6664.826517304085
 30
0.0
  0
POINT
  8
DEFPOINTS
 62
     0
 10
40440.36238889402
 20
-6664.826517304085
 30
0.0
  0
ENDBLK
  8
0
  0
BLOCK
  8
0
  2
*D311
 70
     1
 10
0.0
 20
0.0
  0
LINE
  8
1DIM
 10
39523.26190446367
 20
-6264.826517304069
 11
39523.26190446367
 21
-6180.760917847625
  0
LINE
  8
1DIM
 10
40323.26190446367
 20
-6264.826517304069
 11
40323.26190446367
 21
-6180.760917847625
  0
LINE
  8
1DIM
 10
39543.26190446367
 20
-6190.760917847625
 11
40303.26190446367
 21
-6190.760917847625
  0
INSERT
  8
1DIM
  2
_OPEN30
 10
39523.26190446367
 20
-6190.760917847625
 30
0.0
 41
20.0
 42
20.0
 43
20.0
 50
180.0
  0
INSERT
  8
1DIM
  2
_OPEN30
 10
40323.26190446367
 20
-6190.760917847625
 30
0.0
 41
20.0
 42
20.0
 43
20.0
  0
TEXT
  8
1DIM
  6
CONTINUOUS
 62
   201
 10
39846.595237797
 20
-6183.760917847625
 40
35.0
  1
D:800
  0
POINT
  8
DEFPOINTS
 62
     0
 10
39523.26190446367
 20
-6264.826517304069
 30
0.0
  0
POINT
  8
DEFPOINTS
 62
     0
 10
40323.26190446367
 20
-6264.826517304069
 30
0.0
  0
POINT
  8
DEFPOINTS
 62
     0
 10
40323.26190446367
 20
-6190.760917847625
 30
0.0
  0
ENDBLK
  8
0
  0
BLOCK
  8
0
  2
*D312
 70
     1
 10
0.0
 20
0.0
  0
LINE
  8
1DIM
 10
38523.26190446367
 20
-6264.826517304069
 11
38523.26190446367
 21
-6180.760917847625
  0
LINE
  8
1DIM
 10
39323.26190446367
 20
-6264.826517304069
 11
39323.26190446367
 21
-6180.760917847625
  0
LINE
  8
1DIM
 10
38543.26190446367
 20
-6190.760917847625
 11
39303.26190446367
 21
-6190.760917847625
  0
INSERT
  8
1DIM
  2
_OPEN30
 10
38523.26190446367
 20
-6190.760917847625
 30
0.0
 41
20.0
 42
20.0
 43
20.0
 50
180.0
  0
INSERT
  8
1DIM
  2
_OPEN30
 10
39323.26190446367
 20
-6190.760917847625
 30
0.0
 41
20.0
 42
20.0
 43
20.0
  0
TEXT
  8
1DIM
  6
CONTINUOUS
 62
   201
 10
38845.76190446367
 20
-6183.760917847625
 40
35.0
  1
W:800
  0
POINT
  8
DEFPOINTS
 62
     0
 10
38523.26190446367
 20
-6264.826517304069
 30
0.0
  0
POINT
  8
DEFPOINTS
 62
     0
 10
39323.26190446367
 20
-6264.826517304069
 30
0.0
  0
POINT
  8
DEFPOINTS
 62
     0
 10
39323.26190446367
 20
-6190.760917847625
 30
0.0
  0
ENDBLK
  8
0
  0
BLOCK
  8
0
  2
*X314
 70
     1
 10
0.0
 20
0.0
  0
TEXT
  8
1DIM
  6
CONTINUOUS
 62
     0
 10
1529.849873309681
 20
1229.834069334611
 40
35.0
  1
t=0.5
 50
90.0
  0
TEXT
  8
1DIM
  6
CONTINUOUS
 62
     0
 10
1588.183206643014
 20
1221.250736001278
 40
35.0
  1
（突板）
 50
90.0
  0
ENDBLK
  8
0
  0
BLOCK
  8
0
  2
*X315
 70
     1
 10
0.0
 20
0.0
  0
TEXT
  8
1DIM
  6
CONTINUOUS
 62
     0
 10
1077.247180366035
 20
987.009070215824
 40
35.0
  1
t=0.5
  0
TEXT
  8
1DIM
  6
CONTINUOUS
 62
     0
 10
1068.663847032702
 20
928.675736882491
 40
35.0
  1
（突板）
  0
ENDBLK
  8
0
  0
BLOCK
  8
0
  2
*X316
 70
     1
 10
0.0
 20
0.0
  0
TEXT
  8
1DIM
  6
CONTINUOUS
 62
     0
 10
46405.96423965856
 20
-8291.496594456235
 40
35.0
  1
t=0.5
 50
90.0
  0
TEXT
  8
1DIM
  6
CONTINUOUS
 62
     0
 10
46464.2975729919
 20
-8300.079927789571
 40
35.0
  1
（突板）
 50
90.0
  0
ENDBLK
  8
0
  0
BLOCK
  8
0
  2
*X317
 70
     1
 10
0.0
 20
0.0
  0
TEXT
  8
1DIM
  6
CONTINUOUS
 62
     0
 10
45953.36154671492
 20
-8534.32159357502
 40
35.0
  1
t=0.5
  0
TEXT
  8
1DIM
  6
CONTINUOUS
 62
     0
 10
45944.77821338159
 20
-8592.654926908353
 40
35.0
  1
（突板）
  0
ENDBLK
  8
0
  0
ENDSEC
  0
SECTION
  2
ENTITIES
  0
DIMENSION
  8
1DIM
  2
*D303
 10
40623.26190446367
 20
-6764.82651730407
 11
40223.26190446367
 21
-6740.32651730407
 70
    32
 13
39823.26190446367
 23
-6664.82651730407
 33
0.0
 14
40623.26190446367
 24
-6664.826517304071
 34
0.0
  0
DIMENSION
  8
1DIM
  2
*D304
 10
40723.26190446367
 20
-6264.826517304048
 11
40698.76190446367
 21
-6464.826517304048
 70
    32
 13
40623.26190446367
 23
-6664.826517304048
 33
0.0
 14
40623.26190446367
 24
-6264.826517304048
 34
0.0
 50
90.0
  0
DIMENSION
  8
1DIM
  2
*D305
 10
39323.26190446367
 20
-6764.82651730407
 11
38923.26190446367
 21
-6740.32651730407
 70
    32
 13
38523.26190446366
 23
-6664.826517304085
 33
0.0
 14
39323.26190446367
 24
-6664.82651730407
 34
0.0
  0
LINE
  8
0
  6
BYBLOCK
 62
     0
 10
39823.26190446366
 20
-6664.826517304085
 11
39823.26190446367
 21
-6264.82651730407
  0
LINE
  8
0
  6
BYBLOCK
 62
     0
 10
39823.26190446367
 20
-6264.82651730407
 11
40623.26190446367
 21
-6264.82651730407
  0
LINE
  8
0
  6
BYBLOCK
 62
     0
 10
40623.26190446367
 20
-6264.82651730407
 11
40623.26190446367
 21
-6664.826517304071
  0
LINE
  8
0
  6
BYBLOCK
 62
     0
 10
39823.26190446366
 20
-6664.826517304085
 11
40623.26190446367
 21
-6664.826517304071
  0
LINE
  8
0
 10
39823.26190446367
 20
-6274.826517304072
 11
39833.26190446367
 21
-6264.82651730407
  0
LINE
  8
0
 10
40623.26190446367
 20
-6274.826517304072
 11
40613.26190446367
 21
-6264.82651730407
  0
LINE
  8
0
  6
BYBLOCK
 62
     0
 10
38523.26190446366
 20
-6664.826517304085
 11
38523.26190446367
 21
-6264.826517304069
  0
LINE
  8
0
  6
BYBLOCK
 62
     0
 10
38523.26190446367
 20
-6264.826517304069
 11
39323.26190446367
 21
-6264.826517304069
  0
LINE
  8
0
  6
BYBLOCK
 62
     0
 10
39323.26190446367
 20
-6264.826517304069
 11
39323.26190446367
 21
-6664.82651730407
  0
LINE
  8
0
  6
BYBLOCK
 62
     0
 10
38523.26190446366
 20
-6664.826517304085
 11
39323.26190446367
 21
-6664.82651730407
  0
LINE
  8
0
 10
38523.26190446367
 20
-6274.826517304071
 11
38533.26190446367
 21
-6264.826517304069
  0
LINE
  8
0
 10
39323.26190446367
 20
-6274.826517304071
 11
39313.26190446367
 21
-6264.826517304069
  0
LINE
  8
0
  6
BYBLOCK
 62
     0
 10
38523.26190446367
 20
-5964.82651730407
 11
39323.26190446367
 21
-5964.82651730407
  0
LINE
  8
0
  6
BYBLOCK
 62
     0
 10
38523.26190446367
 20
-5164.82651730407
 11
39323.26190446367
 21
-5164.82651730407
  0
LINE
  8
0
  6
BYBLOCK
 62
     0
 10
38523.26190446367
 20
-5964.82651730407
 11
38523.26190446367
 21
-5164.82651730407
  0
LINE
  8
0
  6
BYBLOCK
 62
     0
 10
39323.26190446367
 20
-5964.82651730407
 11
39323.26190446367
 21
-5164.82651730407
  0
LINE
  8
0
 10
38523.26190446367
 20
-5174.82651730407
 11
38533.26190446367
 21
-5164.82651730407
  0
LINE
  8
0
 10
38523.26190446367
 20
-5954.82651730407
 11
38533.26190446367
 21
-5964.82651730407
  0
LINE
  8
0
 10
39323.26190446367
 20
-5174.82651730407
 11
39313.26190446367
 21
-5164.82651730407
  0
LINE
  8
0
 10
39323.26190446367
 20
-5954.82651730407
 11
39313.26190446367
 21
-5964.82651730407
  0
ENDSEC
  0
EOF
