  0
SECTION
  2
HEADER
  9
$ACADVER
  1
AC1004
  9
$INSBASE
 10
0.0
 20
0.0
  9
$EXTMIN
 10
37610.74490850791
 20
-6834.82651730407
  9
$EXTMAX
 10
40956.67607390926
 20
-4731.784796052442
  9
$LIMMIN
 10
0.0
 20
0.0
  9
$LIMMAX
 10
12.0
 20
9.0
  9
$ORTHOMODE
 70
     0
  9
$REGENMODE
 70
     1
  9
$FILLMODE
 70
     1
  9
$QTEXTMODE
 70
     0
  9
$DRAGMODE
 70
     2
  9
$LTSCALE
 40
0.5
  9
$OSMODE
 70
  2175
  9
$ATTMODE
 70
     1
  9
$TEXTSIZE
 40
4.0
  9
$TRACEWID
 40
0.05
  9
$TEXTSTYLE
  7
STANDARD
  9
$CLAYER
  8
0
  9
$CELTYPE
  6
BYLAYER
  9
$CECOLOR
 62
   256
  9
$DIMSCALE
 40
20.0
  9
$DIMASZ
 40
2.0
  9
$DIMEXO
 40
0.0
  9
$DIMDLI
 40
7.0
  9
$DIMRND
 40
0.0
  9
$DIMDLE
 40
0.0
  9
$DIMEXE
 40
1.0
  9
$DIMTP
 40
0.0
  9
$DIMTM
 40
0.0
  9
$DIMTXT
 40
3.5
  9
$DIMCEN
 40
0.0
  9
$DIMTSZ
 40
0.0
  9
$DIMTOL
 70
     0
  9
$DIMLIM
 70
     0
  9
$DIMTIH
 70
     0
  9
$DIMTOH
 70
     0
  9
$DIMSE1
 70
     0
  9
$DIMSE2
 70
     0
  9
$DIMTAD
 70
     1
  9
$DIMZIN
 70
     8
  9
$DIMBLK
  1

  9
$DIMASO
 70
     1
  9
$DIMSHO
 70
     1
  9
$DIMPOST
  1
 
  9
$DIMAPOST
  1

  9
$DIMALT
 70
     0
  9
$DIMALTD
 70
     2
  9
$DIMALTF
 40
25.4
  9
$DIMLFAC
 40
1.0
  9
$DIMTOFL
 70
     1
  9
$DIMTVP
 40
0.0
  9
$DIMTIX
 70
     0
  9
$DIMSOXD
 70
     0
  9
$DIMSAH
 70
     1
  9
$DIMBLK1
  1
OPEN30
  9
$DIMBLK2
  1
OPEN30
  9
$LUNITS
 70
     2
  9
$LUPREC
 70
     4
  9
$SKETCHINC
 40
0.1
  9
$FILLETRAD
 40
10.0
  9
$AUNITS
 70
     0
  9
$AUPREC
 70
     2
  9
$MENU
  1
acad
  9
$ELEVATION
 40
0.0
  9
$THICKNESS
 40
0.0
  9
$LIMCHECK
 70
     0
  9
$CHAMFERA
 40
0.0
  9
$CHAMFERB
 40
0.0
  9
$SKPOLY
 70
     0
  9
$TDCREATE
 40
2448750.487089225
  9
$TDUPDATE
 40
2459431.6811014
  9
$TDINDWG
 40
2.421089838
  9
$TDUSRTIMER
 40
2.421089838
  9
$USRTIMER
 70
     1
  9
$ANGBASE
 50
0.0
  9
$ANGDIR
 70
     0
  9
$PDMODE
 70
     0
  9
$PDSIZE
 40
0.0
  9
$PLINEWID
 40
1.0
  9
$COORDS
 70
     2
  9
$SPLFRAME
 70
     0
  9
$SPLINETYPE
 70
     6
  9
$SPLINESEGS
 70
     8
  9
$ATTDIA
 70
     0
  9
$ATTREQ
 70
     1
  9
$SURFTAB1
 70
     6
  9
$SURFTAB2
 70
     6
  9
$SURFTYPE
 70
     6
  9
$SURFU
 70
     6
  9
$SURFV
 70
     6
  9
$UCSNAME
  2

  9
$UCSORG
 10
0.0
 20
0.0
 30
0.0
  9
$UCSXDIR
 10
1.0
 20
0.0
 30
0.0
  9
$UCSYDIR
 10
0.0
 20
1.0
 30
0.0
  9
$USERI1
 70
     0
  9
$USERI2
 70
     0
  9
$USERI3
 70
     0
  9
$USERI4
 70
     0
  9
$USERI5
 70
     0
  9
$USERR1
 40
0.0
  9
$USERR2
 40
0.0
  9
$USERR3
 40
0.0
  9
$USERR4
 40
0.0
  9
$USERR5
 40
0.0
  9
$WORLDVIEW
 70
     1
  0
ENDSEC
  0
SECTION
  2
TABLES
  0
TABLE
  2
LTYPE
 70
    13
  0
LTYPE
  2
CONTINUOUS
 70
     0
  3
Solid line
 72
    65
 73
     0
 40
0.0
  0
LTYPE
  2
HIDDEN
 70
     0
  3
Hidden __ __ __ __ __ __ __ __ __ __ __ __ __ _
 72
    65
 73
     2
 40
9.525
 49
6.35
 49
-3.175
  0
LTYPE
  2
PHANTOM2
 70
     0
  3
Phantom (0.5x) ___ _ _ ___ _ _ ___ _ _ ___ _ _
 72
    65
 73
     6
 40
31.75
 49
15.875
 49
-3.175
 49
3.175
 49
-3.175
 49
3.175
 49
-3.175
  0
LTYPE
  2
CENTER2
 70
     0
  3
Center (.5x) ___ _ ___ _ ___ _ ___ _ ___ _ ___
 72
    65
 73
     4
 40
28.575
 49
19.05
 49
-3.175
 49
3.175
 49
-3.175
  0
LTYPE
  2
HADAN
 70
     0
  3
Hadansen
 72
    65
 73
     4
 40
58.0
 49
50.0
 49
-2.0
 49
-4.0
 49
-2.0
  0
LTYPE
  2
BATTING
 70
     0
  3
Batting SSSSSSSSSSSSSSSSSSSSSSSSSSSSSSSSSSSSSSS
 72
    65
 73
     4
 40
10.16254
 49
0.00254
 49
-2.54
 49
-5.08
 49
-2.54
  0
LTYPE
  2
DASHED2
 70
     0
  3
Dashed (0.5x) _ _ _ _ _ _ _ _ _ _ _ _ _ _ _ _ _
 72
    65
 73
     2
 40
9.525
 49
6.35
 49
-3.175
  0
LTYPE
  2
FENCELINE1
 70
     0
  3
Fenceline circle -0-----0----0-----0----0-----0
 72
    65
 73
     4
 40
36.83
 49
3.81
 49
-2.54
 49
-2.54
 49
27.94
  0
LTYPE
  2
FENCELINE2
 70
     0
  3
Fenceline square -[]-----[]----[]-----[]----[]-
 72
    65
 73
     4
 40
36.83
 49
3.81
 49
-2.54
 49
-2.54
 49
27.94
  0
LTYPE
  2
TRACKS
 70
     0
  3
Tracks -|-|-|-|-|-|-|-|-|-|-|-|-|-|-|-|-|-|-|-|
 72
    65
 73
     2
 40
7.62
 49
3.81
 49
3.81
  0
LTYPE
  2
ZIGZAG
 70
     0
  3
Zig zag /\/\/\/\/\/\/\/\/\/\/\/\/\/\/\/\/\/\/\/
 72
    65
 73
     4
 40
20.32254
 49
0.00254
 49
-5.08
 49
-10.16
 49
-5.08
  0
LTYPE
  2
BORDER2
 70
     0
  3
Border (0.5x) __.__.__.__.__.__.__.__.__.__.__.
 72
    65
 73
     6
 40
22.225
 49
6.35
 49
-3.175
 49
6.35
 49
-3.175
 49
0.0
 49
-3.175
  0
LTYPE
  2
PHANTOM
 70
     0
  3
Phantom ______  __  __  ______  __  __  ______
 72
    65
 73
     6
 40
63.5
 49
31.75
 49
-6.35
 49
6.35
 49
-6.35
 49
6.35
 49
-6.35
  0
ENDTAB
  0
TABLE
  2
LAYER
 70
    38
  0
LAYER
  2
0
 70
     0
 62
     7
  6
CONTINUOUS
  0
LAYER
  2
1DIM
 70
     0
 62
     8
  6
CONTINUOUS
  0
LAYER
  2
2VIEWPORT
 70
     0
 62
    -1
  6
CONTINUOUS
  0
LAYER
  2
01
 70
     0
 62
     1
  6
CONTINUOUS
  0
LAYER
  2
DEFPOINTS
 70
     0
 62
     7
  6
CONTINUOUS
  0
LAYER
  2
1HIDDEN
 70
     0
 62
     8
  6
HIDDEN
  0
LAYER
  2
1PHANTOM
 70
     0
 62
   254
  6
PHANTOM2
  0
LAYER
  2
03
 70
     0
 62
     3
  6
CONTINUOUS
  0
LAYER
  2
02
 70
     0
 62
     2
  6
CONTINUOUS
  0
LAYER
  2
1TEXT
 70
     0
 62
   201
  6
CONTINUOUS
  0
LAYER
  2
04
 70
     0
 62
     4
  6
CONTINUOUS
  0
LAYER
  2
POINT
 70
     0
 62
     7
  6
CONTINUOUS
  0
LAYER
  2
1HATCH
 70
     0
 62
     8
  6
CONTINUOUS
  0
LAYER
  2
05
 70
     0
 62
     5
  6
CONTINUOUS
  0
LAYER
  2
06
 70
     0
 62
     6
  6
CONTINUOUS
  0
LAYER
  2
07
 70
     0
 62
   143
  6
CONTINUOUS
  0
LAYER
  2
08
 70
     0
 62
    95
  6
CONTINUOUS
  0
LAYER
  2
09
 70
     0
 62
    15
  6
CONTINUOUS
  0
LAYER
  2
10
 70
     0
 62
   213
  6
CONTINUOUS
  0
LAYER
  2
11
 70
     0
 62
     7
  6
CONTINUOUS
  0
LAYER
  2
1CENTER
 70
     0
 62
   221
  6
CONTINUOUS
  0
LAYER
  2
1DIM1
 70
     0
 62
   221
  6
CONTINUOUS
  0
LAYER
  2
1DIM2
 70
     0
 62
   254
  6
CONTINUOUS
  0
LAYER
  2
1DIM3
 70
     0
 62
     8
  6
CONTINUOUS
  0
LAYER
  2
2BATTING
 70
     0
 62
     7
  6
BATTING
  0
LAYER
  2
2FENCELINE1
 70
     0
 62
     7
  6
FENCELINE1
  0
LAYER
  2
2FENCELINE2
 70
     0
 62
     7
  6
FENCELINE2
  0
LAYER
  2
2TRACKS
 70
     0
 62
     7
  6
TRACKS
  0
LAYER
  2
2ZIGZAG
 70
     0
 62
     7
  6
ZIGZAG
  0
LAYER
  2
2HADAN
 70
     0
 62
     7
  6
HADAN
  0
LAYER
  2
1TEXT2
 70
     0
 62
   221
  6
CONTINUOUS
  0
LAYER
  2
99WAKU
 70
     0
 62
   253
  6
CONTINUOUS
  0
LAYER
  2
MIDFINE
 70
     0
 62
     9
  6
CONTINUOUS
  0
LAYER
  2
THICK
 70
     0
 62
   252
  6
CONTINUOUS
  0
LAYER
  2
ZZ
 70
     0
 62
    -8
  6
CONTINUOUS
  0
LAYER
  2
ZZXX
 70
     0
 62
   243
  6
CONTINUOUS
  0
LAYER
  2
MAKE2D$VISIBLE$LINES
 70
     0
 62
     7
  6
CONTINUOUS
  0
LAYER
  2
MAKE2D$VISIBLE$TANGENTS
 70
     0
 62
     7
  6
CONTINUOUS
  0
ENDTAB
  0
TABLE
  2
STYLE
 70
     4
  0
STYLE
  2
STANDARD
 70
     0
 40
0.0
 41
1.0
 50
0.0
 71
     0
 42
4.0
  3
romans.shx
  4
extfont2.shx
  0
STYLE
  2
KAI
 70
     0
 40
0.0
 41
1.0
 50
0.0
 71
     0
 42
4.0
  3
HGSeikaishotaiPRO.ttf
  4

  0
STYLE
  2

 70
     1
 40
0.2
 41
1.0
 50
0.0
 71
     0
 42
4.0
  3
ltypeshp.shx
  4

  0
STYLE
  2
TATE2
 70
     4
 40
0.0
 41
1.0
 50
0.0
 71
     0
 42
4.0
  3
romans.shx
  4
@extfont2.shx
  0
ENDTAB
  0
TABLE
  2
VIEW
 70
     0
  0
ENDTAB
  0
ENDSEC
  0
SECTION
  2
BLOCKS
  0
BLOCK
  8
0
  2
_OPEN30
 70
     0
 10
0.0
 20
0.0
  0
LINE
  8
0
  6
BYBLOCK
 62
     0
 10
-1.0
 20
0.26794919
 11
0.0
 21
0.0
  0
LINE
  8
0
  6
BYBLOCK
 62
     0
 10
0.0
 20
0.0
 11
-1.0
 21
-0.26794919
  0
LINE
  8
0
  6
BYBLOCK
 62
     0
 10
0.0
 20
0.0
 11
-1.0
 21
0.0
  0
ENDBLK
  8
0
  0
BLOCK
  8
0
  2
NOCIRCLE
 70
     2
 10
0.0
 20
0.0
  0
CIRCLE
  8
0
  6
BYBLOCK
 62
     0
 10
0.0
 20
0.0
 40
4.2
  0
ATTDEF
  8
1TEXT
 10
-1.904761904762
 20
-2.0
 40
4.0
  1
0
 72
     4
 11
0.0
 21
0.0
  3
NO.
  2
NO
 70
     0
  0
ENDBLK
  8
0
  0
BLOCK
  8
0
  2
_OPEN
 70
     0
 10
0.0
 20
0.0
  0
LINE
  8
0
  6
BYBLOCK
 62
     0
 10
-1.0
 20
0.166667
 11
0.0
 21
0.0
  0
LINE
  8
0
  6
BYBLOCK
 62
     0
 10
-1.0
 20
-0.166667
 11
0.0
 21
0.0
  0
LINE
  8
0
  6
BYBLOCK
 62
     0
 10
0.0
 20
0.0
 11
-1.0
 21
0.0
  0
ENDBLK
  8
0
  0
BLOCK
  8
0
  2
YA__
 70
     0
 10
0.0
 20
0.0
  0
INSERT
  8
0
  2
YA_
 10
0.0
 20
0.0
 30
0.0
 50
180.0
  0
ENDBLK
  8
0
  0
BLOCK
  8
0
  2
YA_
 70
     0
 10
0.0
 20
0.0
  0
LINE
  8
0
 10
-5.598760219962
 20
0.622116757674
 11
-2.488360049962
 21
0.622116757674
  0
LINE
  8
0
 10
-5.598760219962
 20
-0.622043242326
 11
-2.488359989962
 21
-0.622043242326
  0
LINE
  8
0
 10
-5.598760219962
 20
0.622116757674
 11
-5.598760219962
 21
-0.622043242326
  0
LINE
  8
0
 10
-2.488360079962
 20
1.346879757674
 11
-2.488360049962
 21
0.622116757674
  0
LINE
  8
0
 10
0.155480482306
 20
-1.993947296099
 11
0.155480380551
 21
1.993947304034
  0
LINE
  8
0
 10
-0.000039515118
 20
-1.99999999961
 11
-0.000039719246
 21
1.999999999606
  0
LINE
  8
0
 10
-0.155559515297
 20
-1.993941131829
 11
-0.155559619962
 21
0.000036757674
  0
LINE
  8
0
 10
-0.155559619962
 20
0.000036757674
 11
-0.155559718965
 21
1.99394111594
  0
LINE
  8
0
 10
-2.488359989962
 20
-0.622043242326
 11
-2.488359959962
 21
-1.346806242326
  0
LINE
  8
0
 10
-0.155559619962
 20
0.000036757674
 11
-2.488360199962
 21
-1.346806242326
  0
LINE
  8
0
 10
-0.155559619962
 20
0.000036757674
 11
-2.488360079962
 21
1.346879757674
  0
POINT
  8
POINT
 10
0.0
 20
0.0
 30
0.0
  0
ENDBLK
  8
0
  0
BLOCK
  8
0
  2
金属脚
 70
     0
 10
0.0
 20
0.0
  0
LINE
  8
0
  6
BYBLOCK
 62
     0
 10
0.0
 20
0.0
 11
125.0
 21
0.0
  0
LINE
  8
0
  6
BYBLOCK
 62
     0
 10
7.011342610203
 20
-155.999982357025
 11
23.011342610203
 21
-155.999982357025
  0
LINE
  8
0
  6
BYBLOCK
 62
     0
 10
7.011342610203
 20
-155.999982357025
 11
7.011342610203
 21
-145.999982357025
  0
LINE
  8
0
  6
BYBLOCK
 62
     0
 10
23.011342610203
 20
-155.999982357025
 11
23.011342610218
 21
-145.999982357025
  0
LINE
  8
0
  6
BYBLOCK
 62
     0
 10
4.0
 20
-145.999982357025
 11
22.0
 21
-145.999982357025
  0
LINE
  8
0
  6
BYBLOCK
 62
     0
 10
4.0
 20
-5.999982357025
 11
4.0
 21
-145.999982357025
  0
LINE
  8
0
  6
BYBLOCK
 62
     0
 10
22.0
 20
-5.999982357025
 11
104.0
 21
-5.999982357025
  0
LINE
  8
0
  6
BYBLOCK
 62
     0
 10
22.0
 20
-145.999982357025
 11
26.0
 21
-145.999982357025
  0
ARC
  8
0
  6
BYBLOCK
 62
     0
 10
31.0
 20
-32.999982357025
 40
5.0
 50
90.0
 51
180.0
  0
LINE
  8
0
  6
BYBLOCK
 62
     0
 10
26.0
 20
-145.999982357025
 11
26.0
 21
-32.999982357025
  0
LINE
  8
0
  6
BYBLOCK
 62
     0
 10
31.0
 20
-27.999982357025
 11
104.0
 21
-27.999982357025
  0
LINE
  8
0
  6
BYBLOCK
 62
     0
 10
104.0
 20
-27.999982357025
 11
104.0
 21
-5.999982357025
  0
LINE
  8
0
  6
BYBLOCK
 62
     0
 10
125.0
 20
-5.999982357025
 11
119.999885559082
 21
-5.999982357025
  0
LINE
  8
0
  6
BYBLOCK
 62
     0
 10
125.0
 20
-5.999982357025
 11
125.0
 21
0.0
  0
LINE
  8
0
  6
BYBLOCK
 62
     0
 10
119.999885559082
 20
-5.999982357025
 11
0.0
 21
-5.999982357025
  0
LINE
  8
0
  6
BYBLOCK
 62
     0
 10
0.0
 20
-5.999982357025
 11
0.0
 21
0.0
  0
ENDBLK
  8
0
  0
BLOCK
  8
0
  2
A-A
 70
     0
 10
0.0
 20
0.0
  0
LINE
  8
0
 10
0.0
 20
0.0
 11
53.759996799999
 21
0.0
  0
LINE
  8
0
 10
8.0321632
 20
10.63999856
 11
11.2933376
 21
1.68
  0
LINE
  8
0
 10
3.36
 20
1.68000624
 11
6.6211696
 21
10.63998944
  0
LINE
  8
0
 10
9.8630848
 20
1.68
 11
11.2933392
 21
1.68
  0
LINE
  8
0
 10
8.905750399999
 20
4.31024896
 11
9.8630848
 21
1.67999952
  0
LINE
  8
0
 10
4.7902528
 20
1.68000016
 11
5.7475856
 21
4.31024864
  0
LINE
  8
0
 10
3.36
 20
1.68
 11
4.7902528
 21
1.68
  0
LINE
  8
0
 10
5.7475856
 20
4.31024928
 11
8.905750399999
 21
4.31024928
  0
LINE
  8
0
 10
6.171791999999
 20
5.47574928
 11
8.4815424
 21
5.47574928
  0
LINE
  8
0
 10
6.171791999999
 20
5.4757488
 11
7.3266672
 21
8.64873968
  0
LINE
  8
0
 10
7.326668799999
 20
8.64873888
 11
8.481544
 21
5.4757488
  0
LINE
  8
0
 10
12.678397759999
 20
5.57759664
 11
16.441594239999
 21
5.57759664
  0
LINE
  8
0
 10
12.678397759999
 20
6.65279616
 11
16.441594239999
 21
6.65279616
  0
ARC
  8
0
 10
12.678397759999
 20
5.93599664
 40
0.3583999840000001
 50
179.99994
 51
270.0
  0
ARC
  8
0
 10
12.678397759999
 20
6.29439616
 40
0.3583999840000001
 50
90.0
 51
179.99994
  0
LINE
  8
0
 10
12.319997759999
 20
6.29439616
 11
12.319997759999
 21
5.93599664
  0
ARC
  8
0
 10
16.441594239999
 20
6.29439616
 40
0.3583999840000001
 50
0.0
 51
90.0
  0
ARC
  8
0
 10
16.441594239999
 20
5.93599664
 40
0.3583999840000001
 50
270.0
 51
0.0
  0
LINE
  8
0
 10
16.79999424
 20
6.29439616
 11
16.79999424
 21
5.93599664
  0
LINE
  8
0
 10
6.621172799999
 20
10.63999856
 11
8.0321632
 21
10.63999856
  0
LINE
  8
0
 10
25.952162927999
 20
10.63999936
 11
29.21333792
 21
1.68000064
  0
LINE
  8
0
 10
21.279999519999
 20
1.68000528
 11
24.541168639999
 21
10.639988
  0
LINE
  8
0
 10
23.667586079999
 20
4.31024928
 11
26.8257509616
 21
4.31024928
  0
LINE
  8
0
 10
22.7102536
 20
1.67999904
 11
23.667586559999
 21
4.31024784
  0
LINE
  8
0
 10
21.28000064
 20
1.68
 11
22.71025168
 21
1.68
  0
LINE
  8
0
 10
24.09179248
 20
5.47574928
 11
26.401542576
 21
5.47574928
  0
LINE
  8
0
 10
24.091794239999
 20
5.475748
 11
25.24666896
 21
8.64873888
  0
LINE
  8
0
 10
25.2466664
 20
8.64873968
 11
26.401541424
 21
5.475748
  0
LINE
  8
0
 10
26.8257489648
 20
4.31024816
 11
27.783081824
 21
1.67999952
  0
LINE
  8
0
 10
27.783083439999
 20
1.68
 11
29.21333888
 21
1.68
  0
POINT
  8
0
 10
26.8799984
 20
0.0
 30
0.0
  0
POINT
  8
0
 10
26.8799984
 20
0.0
 30
0.0
  0
LINE
  8
0
 10
24.541171999999
 20
10.63999856
 11
25.952163024
 21
10.63999856
  0
TEXT
  8
0
 10
35.978853279999
 20
1.99199984
 40
8.0
  1
断面
 41
0.8643459
  0
ENDBLK
  8
0
  0
BLOCK
  8
0
  2
AA
 70
     0
 10
0.0
 20
0.0
  0
LINE
  8
0
 10
0.000001680067
 20
0.00000565232
 11
2.9117599
 21
7.9999905
  0
LINE
  8
0
 10
3.5416694
 20
6.2220893
 11
4.5728078
 21
3.3890617
  0
LINE
  8
0
 10
2.5105312
 20
3.3890617
 11
3.5416694
 21
6.2220888
  0
LINE
  8
0
 10
4.171576
 20
7.999999
 11
7.0833392
 21
0.000000048888
  0
LINE
  8
0
 10
2.1317739
 20
2.3484368
 11
4.9515643
 21
2.3484368
  0
LINE
  8
0
 10
2.5105309
 20
3.3890619
 11
4.5728073
 21
3.3890619
  0
LINE
  8
0
 10
0.000001907349
 20
0.0
 11
1.2770123
 21
0.0
  0
POINT
  8
0
 10
0.0
 20
0.0
 30
0.0
  0
LINE
  8
0
 10
1.2770127
 20
-0.000000009364
 11
2.1317742
 21
2.3484364
  0
LINE
  8
0
 10
5.8063259
 20
0.0
 11
7.0833392
 21
0.0
  0
LINE
  8
0
 10
4.9515648
 20
2.3484368
 11
5.8063259
 21
0.000000268506
  0
LINE
  8
0
 10
2.9117632
 20
7.999999
 11
4.171576
 21
7.999999
  0
ENDBLK
  8
0
  0
BLOCK
  8
0
  2
訂正1
 70
     0
 10
0.0
 20
0.0
  0
LINE
  8
1HATCH
 10
0.000000135843
 20
2.025
 11
2.33826804
 21
-2.0250009
  0
LINE
  8
1HATCH
 10
-2.33826867
 20
-2.025
 11
2.33826849
 21
-2.025
  0
TEXT
  8
1TEXT
 10
-0.434499620191
 20
-1.510450886077
 40
1.8
  1
1
 41
0.66666667
 72
     1
 11
0.051214667951
 21
-1.510450886077
  0
LINE
  8
1HATCH
 10
0.000000476316
 20
2.02500018
 11
-2.33826849
 21
-2.02499937
  0
ENDBLK
  8
0
  0
BLOCK
  8
0
  2
*D429
 70
     1
 10
0.0
 20
0.0
  0
LINE
  8
1DIM
 10
37844.74490850791
 20
-6764.82651730407
 11
37844.74490850791
 21
-6834.82651730407
  0
LINE
  8
1DIM
 10
39323.26190446367
 20
-6764.82651730407
 11
39323.26190446367
 21
-6834.82651730407
  0
LINE
  8
1DIM
 10
37884.74490850791
 20
-6814.82651730407
 11
39283.26190446367
 21
-6814.82651730407
  0
INSERT
  8
1DIM
  2
_OPEN30
 10
37844.74490850791
 20
-6814.82651730407
 30
0.0
 41
40.0
 42
40.0
 43
40.0
 50
180.0
  0
INSERT
  8
1DIM
  2
_OPEN30
 10
39323.26190446367
 20
-6814.82651730407
 30
0.0
 41
40.0
 42
40.0
 43
40.0
  0
TEXT
  8
1DIM
  6
CONTINUOUS
 62
   201
 10
38445.67007315245
 20
-6800.82651730407
 40
70.0
  1
1480
  0
POINT
  8
DEFPOINTS
 62
     0
 10
37844.74490850791
 20
-6664.82651730407
 30
0.0
  0
POINT
  8
DEFPOINTS
 62
     0
 10
39323.26190446367
 20
-6664.82651730407
 30
0.0
  0
POINT
  8
DEFPOINTS
 62
     0
 10
39323.26190446367
 20
-6814.82651730407
 30
0.0
  0
ENDBLK
  8
0
  0
BLOCK
  8
0
  2
*D430
 70
     1
 10
0.0
 20
0.0
  0
LINE
  8
1DIM
 10
39823.26190446367
 20
-6764.82651730407
 11
39823.26190446367
 21
-6834.82651730407
  0
LINE
  8
1DIM
 10
40786.67607390926
 20
-6764.82651730407
 11
40786.67607390926
 21
-6834.82651730407
  0
LINE
  8
1DIM
 10
39863.26190446367
 20
-6814.82651730407
 11
40746.67607390926
 21
-6814.82651730407
  0
INSERT
  8
1DIM
  2
_OPEN30
 10
39823.26190446367
 20
-6814.82651730407
 30
0.0
 41
40.0
 42
40.0
 43
40.0
 50
180.0
  0
INSERT
  8
1DIM
  2
_OPEN30
 10
40786.67607390926
 20
-6814.82651730407
 30
0.0
 41
40.0
 42
40.0
 43
40.0
  0
TEXT
  8
1DIM
  6
CONTINUOUS
 62
   201
 10
40204.96898918647
 20
-6800.82651730407
 40
70.0
  1
963
  0
POINT
  8
DEFPOINTS
 62
     0
 10
39823.26190446367
 20
-6664.82651730407
 30
0.0
  0
POINT
  8
DEFPOINTS
 62
     0
 10
40786.67607390926
 20
-6664.82651730407
 30
0.0
  0
POINT
  8
DEFPOINTS
 62
     0
 10
40786.67607390926
 20
-6814.82651730407
 30
0.0
  0
ENDBLK
  8
0
  0
BLOCK
  8
0
  2
*D431
 70
     1
 10
0.0
 20
0.0
  0
LINE
  8
1DIM
 10
40886.67607390926
 20
-6044.840818664527
 11
40956.67607390926
 21
-6044.840818664527
  0
LINE
  8
1DIM
 10
40886.67607390926
 20
-6664.82651730407
 11
40956.67607390926
 21
-6664.82651730407
  0
LINE
  8
1DIM
 10
40936.67607390926
 20
-6084.840818664527
 11
40936.67607390926
 21
-6624.82651730407
  0
INSERT
  8
1DIM
  2
_OPEN30
 10
40936.67607390926
 20
-6044.840818664527
 30
0.0
 41
40.0
 42
40.0
 43
40.0
 50
90.0
  0
INSERT
  8
1DIM
  2
_OPEN30
 10
40936.67607390926
 20
-6664.82651730407
 30
0.0
 41
40.0
 42
40.0
 43
40.0
 50
270.0
  0
TEXT
  8
1DIM
  6
CONTINUOUS
 62
   201
 10
40922.67607390926
 20
-6456.500334650969
 40
70.0
  1
620
 50
90.0
  0
POINT
  8
DEFPOINTS
 62
     0
 10
40786.67607390926
 20
-6044.840818664527
 30
0.0
  0
POINT
  8
DEFPOINTS
 62
     0
 10
40786.67607390926
 20
-6664.82651730407
 30
0.0
  0
POINT
  8
DEFPOINTS
 62
     0
 10
40936.67607390926
 20
-6664.82651730407
 30
0.0
  0
ENDBLK
  8
0
  0
BLOCK
  8
0
  2
*D432
 70
     1
 10
0.0
 20
0.0
  0
LINE
  8
1DIM
 10
38191.85633050305
 20
-5944.840818664527
 11
38191.85633050305
 21
-5874.840818664527
  0
LINE
  8
1DIM
 10
38976.15050569694
 20
-5944.840818664527
 11
38976.15050569694
 21
-5874.840818664527
  0
LINE
  8
1DIM
 10
38231.85633050305
 20
-5894.840818664527
 11
38936.15050569694
 21
-5894.840818664527
  0
INSERT
  8
1DIM
  2
_OPEN30
 10
38191.85633050305
 20
-5894.840818664527
 30
0.0
 41
40.0
 42
40.0
 43
40.0
 50
180.0
  0
INSERT
  8
1DIM
  2
_OPEN30
 10
38976.15050569694
 20
-5894.840818664527
 30
0.0
 41
40.0
 42
40.0
 43
40.0
  0
TEXT
  8
1DIM
  6
CONTINUOUS
 62
   201
 10
38484.00341809999
 20
-5880.840818664527
 40
70.0
  1
800
  0
POINT
  8
DEFPOINTS
 62
     0
 10
38191.85633050305
 20
-6044.840818664527
 30
0.0
  0
POINT
  8
DEFPOINTS
 62
     0
 10
38976.15050569694
 20
-6044.840818664527
 30
0.0
  0
POINT
  8
DEFPOINTS
 62
     0
 10
38976.15050569694
 20
-5894.840818664527
 30
0.0
  0
ENDBLK
  8
0
  0
BLOCK
  8
0
  2
*D433
 70
     1
 10
0.0
 20
0.0
  0
LINE
  8
1DIM
 10
39823.23964619497
 20
-5944.840818664527
 11
39823.23964619497
 21
-5874.840818664527
  0
LINE
  8
1DIM
 10
40462.47225361584
 20
-5944.751634811298
 11
40462.47225361584
 21
-5874.840818664527
  0
LINE
  8
1DIM
 10
39863.23964619497
 20
-5894.840818664527
 11
40422.47225361584
 21
-5894.840818664527
  0
INSERT
  8
1DIM
  2
_OPEN30
 10
39823.23964619497
 20
-5894.840818664527
 30
0.0
 41
40.0
 42
40.0
 43
40.0
 50
180.0
  0
INSERT
  8
1DIM
  2
_OPEN30
 10
40462.47225361584
 20
-5894.840818664527
 30
0.0
 41
40.0
 42
40.0
 43
40.0
  0
TEXT
  8
1DIM
  6
CONTINUOUS
 62
   201
 10
40041.18928323873
 20
-5880.840818664527
 40
70.0
  1
640
  0
POINT
  8
DEFPOINTS
 62
     0
 10
39823.23964619497
 20
-6044.840818664527
 30
0.0
  0
POINT
  8
DEFPOINTS
 62
     0
 10
40462.47225361584
 20
-6044.751634811298
 30
0.0
  0
POINT
  8
DEFPOINTS
 62
     0
 10
40462.47225361584
 20
-5894.840818664527
 30
0.0
  0
ENDBLK
  8
0
  0
BLOCK
  8
0
  2
*D434
 70
     1
 10
0.0
 20
0.0
  0
LINE
  8
1DIM
 10
37744.74490850791
 20
-6244.81835009045
 11
37674.74490850791
 21
-6244.81835009045
  0
LINE
  8
1DIM
 10
37744.74490850791
 20
-6664.82651730407
 11
37674.74490850791
 21
-6664.82651730407
  0
LINE
  8
1DIM
 10
37694.74490850791
 20
-6284.81835009045
 11
37694.74490850791
 21
-6624.82651730407
  0
INSERT
  8
1DIM
  2
_OPEN30
 10
37694.74490850791
 20
-6244.81835009045
 30
0.0
 41
40.0
 42
40.0
 43
40.0
 50
90.0
  0
INSERT
  8
1DIM
  2
_OPEN30
 10
37694.74490850791
 20
-6664.82651730407
 30
0.0
 41
40.0
 42
40.0
 43
40.0
 50
270.0
  0
TEXT
  8
1DIM
  6
CONTINUOUS
 62
   201
 10
37680.74490850791
 20
-6554.822433697263
 40
70.0
  1
420
 50
90.0
  0
POINT
  8
DEFPOINTS
 62
     0
 10
37844.74490850791
 20
-6244.81835009045
 30
0.0
  0
POINT
  8
DEFPOINTS
 62
     0
 10
37844.74490850791
 20
-6664.82651730407
 30
0.0
  0
POINT
  8
DEFPOINTS
 62
     0
 10
37694.74490850791
 20
-6664.82651730407
 30
0.0
  0
ENDBLK
  8
0
  0
ENDSEC
  0
SECTION
  2
ENTITIES
  0
POLYLINE
  8
0
  6
CONTINUOUS
 10
0.0
 20
0.0
 30
0.0
 66
     1
 70
     8
  0
VERTEX
  8
0
  6
CONTINUOUS
 10
38584.00341837315
 20
-6364.952193546158
 30
0.0
 70
    32
  0
VERTEX
  8
0
  6
CONTINUOUS
 10
38584.0034178777
 20
-6364.952193546158
 30
0.0
 70
    32
  0
VERTEX
  8
0
  6
CONTINUOUS
 10
38584.00341738223
 20
-6364.952193546158
 30
0.0
 70
    32
  0
VERTEX
  8
0
  6
CONTINUOUS
 10
38584.00341688678
 20
-6364.952193546158
 30
0.0
 70
    32
  0
VERTEX
  8
0
  6
CONTINUOUS
 10
38584.00341639131
 20
-6364.952193546161
 30
0.0
 70
    32
  0
VERTEX
  8
0
  6
CONTINUOUS
 10
38584.00341589586
 20
-6364.952193546161
 30
0.0
 70
    32
  0
VERTEX
  8
0
  6
CONTINUOUS
 10
38584.00341540041
 20
-6364.952193546161
 30
0.0
 70
    32
  0
VERTEX
  8
0
  6
CONTINUOUS
 10
38584.00341490494
 20
-6364.952193546161
 30
0.0
 70
    32
  0
VERTEX
  8
0
  6
CONTINUOUS
 10
38584.00341440949
 20
-6364.952193546161
 30
0.0
 70
    32
  0
VERTEX
  8
0
  6
CONTINUOUS
 10
38584.00341391404
 20
-6364.952193546161
 30
0.0
 70
    32
  0
VERTEX
  8
0
  6
CONTINUOUS
 10
38584.00341341857
 20
-6364.952193546161
 30
0.0
 70
    32
  0
VERTEX
  8
0
  6
CONTINUOUS
 10
38584.00341292312
 20
-6364.952193546161
 30
0.0
 70
    32
  0
VERTEX
  8
0
  6
CONTINUOUS
 10
38584.00341242765
 20
-6364.952193546163
 30
0.0
 70
    32
  0
VERTEX
  8
0
  6
CONTINUOUS
 10
38584.0034119322
 20
-6364.952193546163
 30
0.0
 70
    32
  0
VERTEX
  8
0
  6
CONTINUOUS
 10
38584.00341143675
 20
-6364.952193546163
 30
0.0
 70
    32
  0
VERTEX
  8
0
  6
CONTINUOUS
 10
38584.00341094128
 20
-6364.952193546163
 30
0.0
 70
    32
  0
VERTEX
  8
0
  6
CONTINUOUS
 10
38584.00341044583
 20
-6364.952193546163
 30
0.0
 70
    32
  0
VERTEX
  8
0
  6
CONTINUOUS
 10
38584.00340995038
 20
-6364.952193546163
 30
0.0
 70
    32
  0
VERTEX
  8
0
  6
CONTINUOUS
 10
38584.00340945491
 20
-6364.952193546163
 30
0.0
 70
    32
  0
VERTEX
  8
0
  6
CONTINUOUS
 10
38584.00340895946
 20
-6364.952193546163
 30
0.0
 70
    32
  0
VERTEX
  8
0
  6
CONTINUOUS
 10
38584.00340846399
 20
-6364.952193546166
 30
0.0
 70
    32
  0
VERTEX
  8
0
  6
CONTINUOUS
 10
38584.00340796854
 20
-6364.952193546166
 30
0.0
 70
    32
  0
VERTEX
  8
0
  6
CONTINUOUS
 10
38584.00340747309
 20
-6364.952193546166
 30
0.0
 70
    32
  0
VERTEX
  8
0
  6
CONTINUOUS
 10
38584.00340697762
 20
-6364.952193546166
 30
0.0
 70
    32
  0
VERTEX
  8
0
  6
CONTINUOUS
 10
38584.00340648217
 20
-6364.952193546166
 30
0.0
 70
    32
  0
SEQEND
  8
0
  6
CONTINUOUS
  0
POLYLINE
  8
0
  6
CONTINUOUS
 66
     1
  0
VERTEX
  8
0
  6
CONTINUOUS
 10
38984.00340648249
 20
-5598.677536978515
  0
VERTEX
  8
0
  6
CONTINUOUS
 10
38956.13021542575
 20
-5513.082793714584
  0
VERTEX
  8
0
  6
CONTINUOUS
 10
38926.83263983655
 20
-5434.931071619279
  0
VERTEX
  8
0
  6
CONTINUOUS
 10
38896.24016919922
 20
-5364.222370690516
  0
VERTEX
  8
0
  6
CONTINUOUS
 10
38864.48229299814
 20
-5300.956690926209
  0
VERTEX
  8
0
  6
CONTINUOUS
 10
38831.68850071763
 20
-5245.134032324274
  0
VERTEX
  8
0
  6
CONTINUOUS
 10
38797.98828184207
 20
-5196.754394882625
  0
VERTEX
  8
0
  6
CONTINUOUS
 10
38763.5111258558
 20
-5155.817778599178
  0
VERTEX
  8
0
  6
CONTINUOUS
 10
38728.38652224316
 20
-5122.324183471848
  0
VERTEX
  8
0
  6
CONTINUOUS
 10
38692.74396048851
 20
-5096.273609498551
  0
VERTEX
  8
0
  6
CONTINUOUS
 10
38656.71293007621
 20
-5077.666056677201
  0
VERTEX
  8
0
  6
CONTINUOUS
 10
38620.4229204906
 20
-5066.501525005714
  0
VERTEX
  8
0
  6
CONTINUOUS
 10
38584.00342121603
 20
-5062.780014482006
  0
VERTEX
  8
0
  6
CONTINUOUS
 10
38547.58392173686
 20
-5066.50152510399
  0
VERTEX
  8
0
  6
CONTINUOUS
 10
38511.29391153743
 20
-5077.666056869583
  0
VERTEX
  8
0
  6
CONTINUOUS
 10
38475.26288010211
 20
-5096.273609776701
  0
VERTEX
  8
0
  6
CONTINUOUS
 10
38439.62031691523
 20
-5122.324183823257
  0
VERTEX
  8
0
  6
CONTINUOUS
 10
38404.49571146115
 20
-5155.817779007167
  0
VERTEX
  8
0
  6
CONTINUOUS
 10
38370.01855322422
 20
-5196.754395326347
  0
VERTEX
  8
0
  6
CONTINUOUS
 10
38336.3183316888
 20
-5245.13403277871
  0
VERTEX
  8
0
  6
CONTINUOUS
 10
38303.52453633922
 20
-5300.956691362176
  0
VERTEX
  8
0
  6
CONTINUOUS
 10
38271.76665665986
 20
-5364.222371074655
  0
VERTEX
  8
0
  6
CONTINUOUS
 10
38241.17418213504
 20
-5434.931071914065
  0
VERTEX
  8
0
  6
CONTINUOUS
 10
38211.87660224913
 20
-5513.08279387832
  0
VERTEX
  8
0
  6
CONTINUOUS
 10
38184.00340648648
 20
-5598.677536965337
  0
SEQEND
  8
0
  6
CONTINUOUS
  0
LINE
  8
1HATCH
 10
38984.00340648249
 20
-5598.677536978515
 11
38984.00340648249
 21
-5598.677536978515
  0
LINE
  8
1HATCH
 10
38984.00340648249
 20
-5598.677536978515
 11
38984.00340648249
 21
-5598.677536978515
  0
LINE
  8
1HATCH
 10
38984.00340648249
 20
-5598.677536978515
 11
38984.00340648249
 21
-5598.677536978515
  0
LINE
  8
1HATCH
 10
38984.00340648249
 20
-5598.677536978515
 11
38984.00340648249
 21
-5598.677536978515
  0
LINE
  8
1HATCH
 10
38984.00340648249
 20
-5598.677536978515
 11
38984.00340648249
 21
-5598.677536978515
  0
POLYLINE
  8
0
  6
CONTINUOUS
 10
0.0
 20
0.0
 30
0.0
 66
     1
 70
     8
  0
VERTEX
  8
0
  6
CONTINUOUS
 10
39944.14707695885
 20
-6364.828320231075
 30
0.0
 70
    32
  0
VERTEX
  8
0
  6
CONTINUOUS
 10
39944.13875925514
 20
-6364.828322842674
 30
0.0
 70
    32
  0
VERTEX
  8
0
  6
CONTINUOUS
 10
39944.13116011522
 20
-6364.828325228655
 30
0.0
 70
    32
  0
VERTEX
  8
0
  6
CONTINUOUS
 10
39944.12499810288
 20
-6364.828327163403
 30
0.0
 70
    32
  0
VERTEX
  8
0
  6
CONTINUOUS
 10
39944.12099178194
 20
-6364.828328421306
 30
0.0
 70
    32
  0
VERTEX
  8
0
  6
CONTINUOUS
 10
39944.11983554577
 20
-6364.82832878434
 30
0.0
 70
    32
  0
VERTEX
  8
0
  6
CONTINUOUS
 10
39944.12180226997
 20
-6364.828328166827
 30
0.0
 70
    32
  0
VERTEX
  8
0
  6
CONTINUOUS
 10
39944.12680671749
 20
-6364.82832659553
 30
0.0
 70
    32
  0
VERTEX
  8
0
  6
CONTINUOUS
 10
39944.13475226763
 20
-6364.828324100786
 30
0.0
 70
    32
  0
VERTEX
  8
0
  6
CONTINUOUS
 10
39944.1455422997
 20
-6364.828320712933
 30
0.0
 70
    32
  0
VERTEX
  8
0
  6
CONTINUOUS
 10
39944.159080193
 20
-6364.828316462305
 30
0.0
 70
    32
  0
VERTEX
  8
0
  6
CONTINUOUS
 10
39944.17526932683
 20
-6364.828311379243
 30
0.0
 70
    32
  0
VERTEX
  8
0
  6
CONTINUOUS
 10
39944.19401308049
 20
-6364.828305494081
 30
0.0
 70
    32
  0
VERTEX
  8
0
  6
CONTINUOUS
 10
39944.2152148333
 20
-6364.828298837157
 30
0.0
 70
    32
  0
VERTEX
  8
0
  6
CONTINUOUS
 10
39944.23877796455
 20
-6364.828291438807
 30
0.0
 70
    32
  0
VERTEX
  8
0
  6
CONTINUOUS
 10
39944.26460585355
 20
-6364.82828332937
 30
0.0
 70
    32
  0
VERTEX
  8
0
  6
CONTINUOUS
 10
39944.29260187961
 20
-6364.82827453918
 30
0.0
 70
    32
  0
VERTEX
  8
0
  6
CONTINUOUS
 10
39944.32266942201
 20
-6364.828265098577
 30
0.0
 70
    32
  0
VERTEX
  8
0
  6
CONTINUOUS
 10
39944.35471186008
 20
-6364.828255037895
 30
0.0
 70
    32
  0
VERTEX
  8
0
  6
CONTINUOUS
 10
39944.38863257311
 20
-6364.828244387474
 30
0.0
 70
    32
  0
VERTEX
  8
0
  6
CONTINUOUS
 10
39944.42433494042
 20
-6364.828233177649
 30
0.0
 70
    32
  0
VERTEX
  8
0
  6
CONTINUOUS
 10
39944.46172234129
 20
-6364.828221438757
 30
0.0
 70
    32
  0
VERTEX
  8
0
  6
CONTINUOUS
 10
39944.50069815504
 20
-6364.828209201136
 30
0.0
 70
    32
  0
VERTEX
  8
0
  6
CONTINUOUS
 10
39944.54116686636
 20
-6364.828196494775
 30
0.0
 70
    32
  0
VERTEX
  8
0
  6
CONTINUOUS
 10
39944.58304164171
 20
-6364.828183346937
 30
0.0
 70
    32
  0
VERTEX
  8
0
  6
CONTINUOUS
 10
39944.62623974855
 20
-6364.828169783601
 30
0.0
 70
    32
  0
VERTEX
  8
0
  6
CONTINUOUS
 10
39944.67067847869
 20
-6364.828155830734
 30
0.0
 70
    32
  0
VERTEX
  8
0
  6
CONTINUOUS
 10
39944.71627512389
 20
-6364.828141514304
 30
0.0
 70
    32
  0
VERTEX
  8
0
  6
CONTINUOUS
 10
39944.76294697594
 20
-6364.828126860281
 30
0.0
 70
    32
  0
VERTEX
  8
0
  6
CONTINUOUS
 10
39944.81061132662
 20
-6364.828111894634
 30
0.0
 70
    32
  0
VERTEX
  8
0
  6
CONTINUOUS
 10
39944.85918546771
 20
-6364.828096643331
 30
0.0
 70
    32
  0
VERTEX
  8
0
  6
CONTINUOUS
 10
39944.90858669099
 20
-6364.82808113234
 30
0.0
 70
    32
  0
VERTEX
  8
0
  6
CONTINUOUS
 10
39944.95873228824
 20
-6364.828065387631
 30
0.0
 70
    32
  0
VERTEX
  8
0
  6
CONTINUOUS
 10
39945.00953955125
 20
-6364.828049435173
 30
0.0
 70
    32
  0
VERTEX
  8
0
  6
CONTINUOUS
 10
39945.0609257718
 20
-6364.828033300932
 30
0.0
 70
    32
  0
VERTEX
  8
0
  6
CONTINUOUS
 10
39945.11280824165
 20
-6364.828017010881
 30
0.0
 70
    32
  0
VERTEX
  8
0
  6
CONTINUOUS
 10
39945.1651042526
 20
-6364.828000590985
 30
0.0
 70
    32
  0
VERTEX
  8
0
  6
CONTINUOUS
 10
39945.21773109643
 20
-6364.827984067214
 30
0.0
 70
    32
  0
VERTEX
  8
0
  6
CONTINUOUS
 10
39945.27060606492
 20
-6364.827967465538
 30
0.0
 70
    32
  0
VERTEX
  8
0
  6
CONTINUOUS
 10
39945.32364644983
 20
-6364.827950811923
 30
0.0
 70
    32
  0
VERTEX
  8
0
  6
CONTINUOUS
 10
39945.37676954298
 20
-6364.82793413234
 30
0.0
 70
    32
  0
SEQEND
  8
0
  6
CONTINUOUS
  0
LINE
  8
0
 10
40240.97467128006
 20
-6364.735122336605
 11
40240.97467128006
 21
-6564.735129730358
  0
POLYLINE
  8
0
  6
CONTINUOUS
 66
     1
  0
VERTEX
  8
0
  6
CONTINUOUS
 10
39833.37207217485
 20
-6364.863101354586
 42
-0.416673400009
  0
VERTEX
  8
0
  6
CONTINUOUS
 10
39823.28416273237
 20
-6354.866268262374
  0
VERTEX
  8
0
  6
CONTINUOUS
 10
39823.23964619497
 20
-6160.322585367891
 42
-0.378146527869
  0
VERTEX
  8
0
  6
CONTINUOUS
 10
39858.25585058874
 20
-6120.625124353231
  0
VERTEX
  8
0
  6
CONTINUOUS
 10
40439.98747253471
 20
-6047.575124530651
 42
-0.451127660276
  0
VERTEX
  8
0
  6
CONTINUOUS
 10
40462.48150500211
 20
-6067.412998932535
  0
VERTEX
  8
0
  6
CONTINUOUS
 10
40462.55384105905
 20
-6244.60090095446
  0
SEQEND
  8
0
  6
CONTINUOUS
  0
POLYLINE
  8
0
  6
CONTINUOUS
 66
     1
  0
VERTEX
  8
0
  6
CONTINUOUS
 10
40461.76204050542
 20
-6044.840818664527
  0
VERTEX
  8
0
  6
CONTINUOUS
 10
40462.47225361584
 20
-6044.751634811298
  0
SEQEND
  8
0
  6
CONTINUOUS
  0
POLYLINE
  8
0
 66
     1
  0
VERTEX
  8
0
 10
40776.56747935462
 20
-6364.863101354586
 42
0.394384607692
  0
VERTEX
  8
0
 10
40786.67607390926
 20
-6354.563790949532
  0
VERTEX
  8
0
 10
40786.62767349047
 20
-6264.597797501071
 42
0.414160056623
  0
VERTEX
  8
0
 10
40766.62770777429
 20
-6244.601417215102
  0
VERTEX
  8
0
 10
39954.0748884959
 20
-6244.600037652156
 42
0.414267720576
  0
VERTEX
  8
0
 10
39934.07485487529
 20
-6264.60370177845
  0
VERTEX
  8
0
 10
39934.09688159215
 20
-6354.832725297548
 42
0.415361826452
  0
VERTEX
  8
0
 10
39944.14707695885
 20
-6364.828320231071
  0
SEQEND
  8
0
  0
LINE
  8
0
 10
39833.37207217485
 20
-6364.863101354586
 11
40776.56747935462
 21
-6364.863101354586
  0
POLYLINE
  8
0
 66
     1
  0
VERTEX
  8
0
 10
39833.37207217485
 20
-6364.863101354583
 42
0.416683543713
  0
VERTEX
  8
0
 10
39823.29044232983
 20
-6374.866267276467
  0
VERTEX
  8
0
 10
39823.33125971313
 20
-6554.866260868574
 42
0.414221206096
  0
VERTEX
  8
0
 10
39833.33430703098
 20
-6564.863120605823
  0
VERTEX
  8
0
 10
40776.61457633533
 20
-6564.863120605823
 42
0.396214133887
  0
VERTEX
  8
0
 10
40786.69648260091
 20
-6554.563783564769
  0
VERTEX
  8
0
 10
40786.65570014607
 20
-6374.717820419172
 42
0.382270737085
  0
VERTEX
  8
0
 10
40776.56747935462
 20
-6364.863101354583
  0
SEQEND
  8
0
  0
POLYLINE
  8
0
 66
     1
  0
VERTEX
  8
0
 10
39983.5550618915
 20
-6564.82651730407
  0
VERTEX
  8
0
 10
39974.73516114769
 20
-6663.025524742111
 42
-0.38531358612
  0
VERTEX
  8
0
 10
39972.74508676727
 20
-6664.82651730407
  0
VERTEX
  8
0
 10
39936.36503701573
 20
-6664.82651730407
 42
-0.38531358612
  0
VERTEX
  8
0
 10
39934.37496263531
 20
-6663.025524742111
  0
VERTEX
  8
0
 10
39925.5550618915
 20
-6564.82651730407
  0
SEQEND
  8
0
  0
POLYLINE
  8
0
 66
     1
  0
VERTEX
  8
0
 10
40217.68102075523
 20
-6564.82651730407
  0
VERTEX
  8
0
 10
40226.50092149904
 20
-6663.025524742111
 42
0.38531358612
  0
VERTEX
  8
0
 10
40228.49099587946
 20
-6664.82651730407
  0
VERTEX
  8
0
 10
40264.87104563101
 20
-6664.82651730407
 42
0.38531358612
  0
VERTEX
  8
0
 10
40266.86112001142
 20
-6663.025524742111
  0
VERTEX
  8
0
 10
40275.68102075523
 20
-6564.82651730407
  0
SEQEND
  8
0
  0
POLYLINE
  8
0
 66
     1
  0
VERTEX
  8
0
 10
40637.7455561721
 20
-6564.82651730407
  0
VERTEX
  8
0
 10
40646.56545691591
 20
-6663.025524742111
 42
0.38531358612
  0
VERTEX
  8
0
 10
40648.55553129633
 20
-6664.82651730407
  0
VERTEX
  8
0
 10
40684.93558104787
 20
-6664.82651730407
 42
0.38531358612
  0
VERTEX
  8
0
 10
40686.92565542829
 20
-6663.025524742111
  0
VERTEX
  8
0
 10
40695.7455561721
 20
-6564.82651730407
  0
SEQEND
  8
0
  0
POLYLINE
  8
0
 66
     1
  0
VERTEX
  8
0
 10
39303.35816903364
 20
-5321.722191597944
 42
0.305177896648
  0
VERTEX
  8
0
 10
39305.81642419977
 20
-5210.078396550975
 42
0.125487801067
  0
VERTEX
  8
0
 10
38872.22184317969
 20
-4805.543273933622
 42
0.255911737532
  0
VERTEX
  8
0
 10
38295.7849935671
 20
-4805.543273933317
 42
0.125487801067
  0
VERTEX
  8
0
 10
37862.19041254646
 20
-5210.078396550975
 42
0.30499690933
  0
VERTEX
  8
0
 10
37864.61050509223
 20
-5321.668061481202
 42
0.51875677344
  0
VERTEX
  8
0
 10
39303.43446043803
 20
-5321.613903226284
  0
SEQEND
  8
0
  0
POLYLINE
  8
0
 66
     1
  0
VERTEX
  8
0
 10
38967.58321688701
 20
-6364.825320626373
 42
0.37164657483
  0
VERTEX
  8
0
 10
38976.20864450904
 20
-6355.007147567768
  0
VERTEX
  8
0
 10
38976.15050569694
 20
-6129.103063198815
 42
0.28446781377
  0
VERTEX
  8
0
 10
38964.27891008877
 20
-6111.854144288275
 42
0.096286105463
  0
VERTEX
  8
0
 10
38584.00341809999
 20
-6044.840818664526
 42
0.096286105463
  0
VERTEX
  8
0
 10
38203.72792611122
 20
-6111.854144288275
 42
0.28446781377
  0
VERTEX
  8
0
 10
38191.85633050305
 20
-6129.103063198815
  0
VERTEX
  8
0
 10
38191.79819169095
 20
-6355.007147567768
 42
0.37164657483
  0
VERTEX
  8
0
 10
38200.42361931298
 20
-6364.825320626373
  0
SEQEND
  8
0
  0
POLYLINE
  8
0
 66
     1
  0
VERTEX
  8
0
 10
38191.79860206234
 20
-6244.81838044236
  0
VERTEX
  8
0
 10
37864.74491065016
 20
-6244.818375758564
 42
0.415103422124
  0
VERTEX
  8
0
 10
37844.74491065138
 20
-6264.814983930161
  0
VERTEX
  8
0
 10
37844.74490864604
 20
-6354.845155893358
 42
0.388513362329
  0
VERTEX
  8
0
 10
37853.97174260179
 20
-6364.82469526424
  0
SEQEND
  8
0
  0
POLYLINE
  8
0
 66
     1
  0
VERTEX
  8
0
 10
38237.66534728984
 20
-6564.844144342758
  0
VERTEX
  8
0
 10
38249.6266180149
 20
-6660.534305352469
 42
0.392005958254
  0
VERTEX
  8
0
 10
38254.5880072553
 20
-6664.826517304067
  0
VERTEX
  8
0
 10
38280.76018507085
 20
-6664.826517304067
 42
0.391655359347
  0
VERTEX
  8
0
 10
38285.72157431125
 20
-6660.534305352557
  0
VERTEX
  8
0
 10
38297.68284503631
 20
-6564.844144342758
  0
SEQEND
  8
0
  0
POLYLINE
  8
0
 66
     1
  0
VERTEX
  8
0
 10
37884.45458910911
 20
-6564.822413838264
  0
VERTEX
  8
0
 10
37896.40711093727
 20
-6660.442583676965
 42
0.377618671656
  0
VERTEX
  8
0
 10
37901.36850017778
 20
-6664.826517304068
  0
VERTEX
  8
0
 10
37927.54067799279
 20
-6664.826517304068
 42
0.377621852083
  0
VERTEX
  8
0
 10
37932.50206723373
 20
-6660.442583677067
  0
VERTEX
  8
0
 10
37944.45458906195
 20
-6564.822413838264
  0
SEQEND
  8
0
  0
POLYLINE
  8
0
 66
     1
  0
VERTEX
  8
0
 10
39314.03509362322
 20
-6364.824695264231
 42
-0.388891090895
  0
VERTEX
  8
0
 10
39323.26192769206
 20
-6374.803484195566
  0
VERTEX
  8
0
 10
39323.2619276921
 20
-6554.844144342758
 42
-0.414213562373
  0
VERTEX
  8
0
 10
39313.2619276921
 20
-6564.844144342758
  0
VERTEX
  8
0
 10
38584.00341837323
 20
-6564.844144342758
  0
VERTEX
  8
0
 10
37854.74490850789
 20
-6564.844144342758
 42
-0.414213562373
  0
VERTEX
  8
0
 10
37844.74490850789
 20
-6554.844144342758
  0
VERTEX
  8
0
 10
37844.74490850793
 20
-6374.803484195566
 42
-0.388891090895
  0
VERTEX
  8
0
 10
37853.97174257677
 20
-6364.824695264231
  0
SEQEND
  8
0
  0
POLYLINE
  8
0
  6
CONTINUOUS
 10
0.0
 20
0.0
 30
0.0
 66
     1
 70
     8
  0
VERTEX
  8
0
  6
CONTINUOUS
 10
38584.00341782684
 20
-6364.952193546158
 30
0.0
 70
    32
  0
VERTEX
  8
0
  6
CONTINUOUS
 10
38584.00341832229
 20
-6364.952193546158
 30
0.0
 70
    32
  0
VERTEX
  8
0
  6
CONTINUOUS
 10
38584.00341881776
 20
-6364.952193546158
 30
0.0
 70
    32
  0
VERTEX
  8
0
  6
CONTINUOUS
 10
38584.00341931321
 20
-6364.952193546158
 30
0.0
 70
    32
  0
VERTEX
  8
0
  6
CONTINUOUS
 10
38584.00341980868
 20
-6364.952193546161
 30
0.0
 70
    32
  0
VERTEX
  8
0
  6
CONTINUOUS
 10
38584.00342030413
 20
-6364.952193546161
 30
0.0
 70
    32
  0
VERTEX
  8
0
  6
CONTINUOUS
 10
38584.00342079958
 20
-6364.952193546161
 30
0.0
 70
    32
  0
VERTEX
  8
0
  6
CONTINUOUS
 10
38584.00342129505
 20
-6364.952193546161
 30
0.0
 70
    32
  0
VERTEX
  8
0
  6
CONTINUOUS
 10
38584.0034217905
 20
-6364.952193546161
 30
0.0
 70
    32
  0
VERTEX
  8
0
  6
CONTINUOUS
 10
38584.00342228595
 20
-6364.952193546161
 30
0.0
 70
    32
  0
VERTEX
  8
0
  6
CONTINUOUS
 10
38584.00342278142
 20
-6364.952193546161
 30
0.0
 70
    32
  0
VERTEX
  8
0
  6
CONTINUOUS
 10
38584.00342327687
 20
-6364.952193546161
 30
0.0
 70
    32
  0
VERTEX
  8
0
  6
CONTINUOUS
 10
38584.00342377234
 20
-6364.952193546163
 30
0.0
 70
    32
  0
VERTEX
  8
0
  6
CONTINUOUS
 10
38584.00342426779
 20
-6364.952193546163
 30
0.0
 70
    32
  0
VERTEX
  8
0
  6
CONTINUOUS
 10
38584.00342476324
 20
-6364.952193546163
 30
0.0
 70
    32
  0
VERTEX
  8
0
  6
CONTINUOUS
 10
38584.00342525871
 20
-6364.952193546163
 30
0.0
 70
    32
  0
VERTEX
  8
0
  6
CONTINUOUS
 10
38584.00342575416
 20
-6364.952193546163
 30
0.0
 70
    32
  0
VERTEX
  8
0
  6
CONTINUOUS
 10
38584.0034262496
 20
-6364.952193546163
 30
0.0
 70
    32
  0
VERTEX
  8
0
  6
CONTINUOUS
 10
38584.00342674508
 20
-6364.952193546163
 30
0.0
 70
    32
  0
VERTEX
  8
0
  6
CONTINUOUS
 10
38584.00342724052
 20
-6364.952193546163
 30
0.0
 70
    32
  0
VERTEX
  8
0
  6
CONTINUOUS
 10
38584.003427736
 20
-6364.952193546166
 30
0.0
 70
    32
  0
VERTEX
  8
0
  6
CONTINUOUS
 10
38584.00342823144
 20
-6364.952193546166
 30
0.0
 70
    32
  0
VERTEX
  8
0
  6
CONTINUOUS
 10
38584.00342872689
 20
-6364.952193546166
 30
0.0
 70
    32
  0
VERTEX
  8
0
  6
CONTINUOUS
 10
38584.00342922236
 20
-6364.952193546166
 30
0.0
 70
    32
  0
VERTEX
  8
0
  6
CONTINUOUS
 10
38584.00342971781
 20
-6364.952193546166
 30
0.0
 70
    32
  0
SEQEND
  8
0
  6
CONTINUOUS
  0
LINE
  8
0
 10
39314.0350935982
 20
-6364.825320626666
 11
37853.97174260179
 21
-6364.825320626666
  0
POLYLINE
  8
0
 66
     1
  0
VERTEX
  8
0
 10
38976.20823413764
 20
-6244.81838044236
  0
VERTEX
  8
0
 10
39303.26192554983
 20
-6244.818375758564
 42
-0.415103422124
  0
VERTEX
  8
0
 10
39323.26192554861
 20
-6264.814983930161
  0
VERTEX
  8
0
 10
39323.26192755395
 20
-6354.845155893358
 42
-0.388513362329
  0
VERTEX
  8
0
 10
39314.0350935982
 20
-6364.82469526424
  0
SEQEND
  8
0
  0
POLYLINE
  8
0
 66
     1
  0
VERTEX
  8
0
 10
38613.98427986154
 20
-6564.844144342758
  0
VERTEX
  8
0
 10
38602.05096082177
 20
-6660.310691881968
 42
-0.357833567855
  0
VERTEX
  8
0
 10
38597.08957168464
 20
-6664.826517304073
  0
VERTEX
  8
0
 10
38584.00341793062
 20
-6664.82651730407
  0
VERTEX
  8
0
 10
38570.91726451535
 20
-6664.826517304073
 42
-0.357833567855
  0
VERTEX
  8
0
 10
38565.95587537822
 20
-6660.310691881968
  0
VERTEX
  8
0
 10
38554.02255633844
 20
-6564.844144342758
  0
SEQEND
  8
0
  0
POLYLINE
  8
0
 66
     1
  0
VERTEX
  8
0
 10
38930.34148891015
 20
-6564.844144342758
  0
VERTEX
  8
0
 10
38918.38021818509
 20
-6660.534305352469
 42
-0.392005958254
  0
VERTEX
  8
0
 10
38913.41882894469
 20
-6664.826517304067
  0
VERTEX
  8
0
 10
38887.24665112914
 20
-6664.826517304067
 42
-0.391655359347
  0
VERTEX
  8
0
 10
38882.28526188874
 20
-6660.534305352557
  0
VERTEX
  8
0
 10
38870.32399116368
 20
-6564.844144342758
  0
SEQEND
  8
0
  0
POLYLINE
  8
0
 66
     1
  0
VERTEX
  8
0
 10
39283.55224709088
 20
-6564.822413838264
  0
VERTEX
  8
0
 10
39271.59972526271
 20
-6660.442583676965
 42
-0.377618671656
  0
VERTEX
  8
0
 10
39266.6383360222
 20
-6664.826517304068
  0
VERTEX
  8
0
 10
39240.46615820719
 20
-6664.826517304068
 42
-0.377621852083
  0
VERTEX
  8
0
 10
39235.50476896625
 20
-6660.442583677067
  0
VERTEX
  8
0
 10
39223.55224713804
 20
-6564.822413838264
  0
SEQEND
  8
0
  0
DIMENSION
  8
1DIM
  2
*D429
 10
39323.26190446367
 20
-6814.82651730407
 11
38584.00340648579
 21
-6765.82651730407
 70
    32
  1
1480
 13
37844.74490850791
 23
-6664.82651730407
 33
0.0
 14
39323.26190446367
 24
-6664.82651730407
 34
0.0
  0
DIMENSION
  8
1DIM
  2
*D430
 10
40786.67607390926
 20
-6814.82651730407
 11
40304.96898918647
 21
-6765.82651730407
 70
    32
 13
39823.26190446367
 23
-6664.82651730407
 33
0.0
 14
40786.67607390926
 24
-6664.82651730407
 34
0.0
  0
DIMENSION
  8
1DIM
  2
*D431
 10
40936.67607390926
 20
-6664.82651730407
 11
40887.67607390926
 21
-6354.833667984298
 70
    32
 13
40786.67607390926
 23
-6044.840818664527
 33
0.0
 14
40786.67607390926
 24
-6664.82651730407
 34
0.0
 50
90.0
  0
DIMENSION
  8
1DIM
  2
*D432
 10
38976.15050569694
 20
-5894.840818664527
 11
38584.00341809999
 21
-5845.840818664527
 70
    32
  1
800
 13
38191.85633050305
 23
-6044.840818664527
 33
0.0
 14
38976.15050569694
 24
-6044.840818664527
 34
0.0
  0
DIMENSION
  8
1DIM
  2
*D433
 10
40462.47225361584
 20
-5894.840818664527
 11
40142.8559499054
 21
-5845.840818664527
 70
    32
  1
640
 13
39823.23964619497
 23
-6044.840818664527
 33
0.0
 14
40462.47225361584
 24
-6044.751634811298
 34
0.0
  0
DIMENSION
  8
1DIM
  2
*D434
 10
37694.74490850791
 20
-6664.82651730407
 11
37645.74490850791
 21
-6454.82243369726
 70
    32
 13
37844.74490850791
 23
-6244.81835009045
 33
0.0
 14
37844.74490850791
 24
-6664.82651730407
 34
0.0
 50
90.0
  0
ENDSEC
  0
EOF
