  0
SECTION
  2
HEADER
  9
$ACADVER
  1
AC1004
  9
$INSBASE
 10
0.0
 20
0.0
  9
$EXTMIN
 10
38539.26192592132
 20
-6834.82651730407
  9
$EXTMAX
 10
40696.02606814912
 20
-4854.027878241732
  9
$LIMMIN
 10
0.0
 20
0.0
  9
$LIMMAX
 10
12.0
 20
9.0
  9
$ORTHOMODE
 70
     0
  9
$REGENMODE
 70
     1
  9
$FILLMODE
 70
     1
  9
$QTEXTMODE
 70
     0
  9
$DRAGMODE
 70
     2
  9
$LTSCALE
 40
0.5
  9
$OSMODE
 70
  2175
  9
$ATTMODE
 70
     1
  9
$TEXTSIZE
 40
4.0
  9
$TRACEWID
 40
0.05
  9
$TEXTSTYLE
  7
STANDARD
  9
$CLAYER
  8
0
  9
$CELTYPE
  6
BYLAYER
  9
$CECOLOR
 62
   256
  9
$DIMSCALE
 40
20.0
  9
$DIMASZ
 40
2.0
  9
$DIMEXO
 40
0.0
  9
$DIMDLI
 40
7.0
  9
$DIMRND
 40
0.0
  9
$DIMDLE
 40
0.0
  9
$DIMEXE
 40
1.0
  9
$DIMTP
 40
0.0
  9
$DIMTM
 40
0.0
  9
$DIMTXT
 40
3.5
  9
$DIMCEN
 40
0.0
  9
$DIMTSZ
 40
0.0
  9
$DIMTOL
 70
     0
  9
$DIMLIM
 70
     0
  9
$DIMTIH
 70
     0
  9
$DIMTOH
 70
     0
  9
$DIMSE1
 70
     0
  9
$DIMSE2
 70
     0
  9
$DIMTAD
 70
     1
  9
$DIMZIN
 70
     8
  9
$DIMBLK
  1

  9
$DIMASO
 70
     1
  9
$DIMSHO
 70
     1
  9
$DIMPOST
  1
 
  9
$DIMAPOST
  1

  9
$DIMALT
 70
     0
  9
$DIMALTD
 70
     2
  9
$DIMALTF
 40
25.4
  9
$DIMLFAC
 40
1.0
  9
$DIMTOFL
 70
     1
  9
$DIMTVP
 40
0.0
  9
$DIMTIX
 70
     0
  9
$DIMSOXD
 70
     0
  9
$DIMSAH
 70
     1
  9
$DIMBLK1
  1
OPEN30
  9
$DIMBLK2
  1
OPEN30
  9
$LUNITS
 70
     2
  9
$LUPREC
 70
     4
  9
$SKETCHINC
 40
0.1
  9
$FILLETRAD
 40
5.8
  9
$AUNITS
 70
     0
  9
$AUPREC
 70
     2
  9
$MENU
  1
acad
  9
$ELEVATION
 40
0.0
  9
$THICKNESS
 40
0.0
  9
$LIMCHECK
 70
     0
  9
$CHAMFERA
 40
0.0
  9
$CHAMFERB
 40
0.0
  9
$SKPOLY
 70
     0
  9
$TDCREATE
 40
2448750.487089225
  9
$TDUPDATE
 40
2459428.670136076
  9
$TDINDWG
 40
2.3868553704
  9
$TDUSRTIMER
 40
2.3868553704
  9
$USRTIMER
 70
     1
  9
$ANGBASE
 50
0.0
  9
$ANGDIR
 70
     0
  9
$PDMODE
 70
     0
  9
$PDSIZE
 40
0.0
  9
$PLINEWID
 40
1.0
  9
$COORDS
 70
     2
  9
$SPLFRAME
 70
     0
  9
$SPLINETYPE
 70
     6
  9
$SPLINESEGS
 70
     8
  9
$ATTDIA
 70
     0
  9
$ATTREQ
 70
     1
  9
$SURFTAB1
 70
     6
  9
$SURFTAB2
 70
     6
  9
$SURFTYPE
 70
     6
  9
$SURFU
 70
     6
  9
$SURFV
 70
     6
  9
$UCSNAME
  2

  9
$UCSORG
 10
0.0
 20
0.0
 30
0.0
  9
$UCSXDIR
 10
1.0
 20
0.0
 30
0.0
  9
$UCSYDIR
 10
0.0
 20
1.0
 30
0.0
  9
$USERI1
 70
     0
  9
$USERI2
 70
     0
  9
$USERI3
 70
     0
  9
$USERI4
 70
     0
  9
$USERI5
 70
     0
  9
$USERR1
 40
0.0
  9
$USERR2
 40
0.0
  9
$USERR3
 40
0.0
  9
$USERR4
 40
0.0
  9
$USERR5
 40
0.0
  9
$WORLDVIEW
 70
     1
  0
ENDSEC
  0
SECTION
  2
TABLES
  0
TABLE
  2
LTYPE
 70
    12
  0
LTYPE
  2
CONTINUOUS
 70
     0
  3
Solid line
 72
    65
 73
     0
 40
0.0
  0
LTYPE
  2
HIDDEN
 70
     0
  3
Hidden __ __ __ __ __ __ __ __ __ __ __ __ __ _
 72
    65
 73
     2
 40
9.525
 49
6.35
 49
-3.175
  0
LTYPE
  2
PHANTOM2
 70
     0
  3
Phantom (0.5x) ___ _ _ ___ _ _ ___ _ _ ___ _ _
 72
    65
 73
     6
 40
31.75
 49
15.875
 49
-3.175
 49
3.175
 49
-3.175
 49
3.175
 49
-3.175
  0
LTYPE
  2
CENTER2
 70
     0
  3
Center (.5x) ___ _ ___ _ ___ _ ___ _ ___ _ ___
 72
    65
 73
     4
 40
28.575
 49
19.05
 49
-3.175
 49
3.175
 49
-3.175
  0
LTYPE
  2
HADAN
 70
     0
  3
Hadansen
 72
    65
 73
     4
 40
58.0
 49
50.0
 49
-2.0
 49
-4.0
 49
-2.0
  0
LTYPE
  2
BATTING
 70
     0
  3
Batting SSSSSSSSSSSSSSSSSSSSSSSSSSSSSSSSSSSSSSS
 72
    65
 73
     4
 40
10.16254
 49
0.00254
 49
-2.54
 49
-5.08
 49
-2.54
  0
LTYPE
  2
DASHED2
 70
     0
  3
Dashed (0.5x) _ _ _ _ _ _ _ _ _ _ _ _ _ _ _ _ _
 72
    65
 73
     2
 40
9.525
 49
6.35
 49
-3.175
  0
LTYPE
  2
FENCELINE1
 70
     0
  3
Fenceline circle -0-----0----0-----0----0-----0
 72
    65
 73
     4
 40
36.83
 49
3.81
 49
-2.54
 49
-2.54
 49
27.94
  0
LTYPE
  2
FENCELINE2
 70
     0
  3
Fenceline square -[]-----[]----[]-----[]----[]-
 72
    65
 73
     4
 40
36.83
 49
3.81
 49
-2.54
 49
-2.54
 49
27.94
  0
LTYPE
  2
TRACKS
 70
     0
  3
Tracks -|-|-|-|-|-|-|-|-|-|-|-|-|-|-|-|-|-|-|-|
 72
    65
 73
     2
 40
7.62
 49
3.81
 49
3.81
  0
LTYPE
  2
ZIGZAG
 70
     0
  3
Zig zag /\/\/\/\/\/\/\/\/\/\/\/\/\/\/\/\/\/\/\/
 72
    65
 73
     4
 40
20.32254
 49
0.00254
 49
-5.08
 49
-10.16
 49
-5.08
  0
LTYPE
  2
BORDER2
 70
     0
  3
Border (0.5x) __.__.__.__.__.__.__.__.__.__.__.
 72
    65
 73
     6
 40
22.225
 49
6.35
 49
-3.175
 49
6.35
 49
-3.175
 49
0.0
 49
-3.175
  0
ENDTAB
  0
TABLE
  2
LAYER
 70
    38
  0
LAYER
  2
0
 70
     0
 62
     7
  6
CONTINUOUS
  0
LAYER
  2
1DIM
 70
     0
 62
     8
  6
CONTINUOUS
  0
LAYER
  2
2VIEWPORT
 70
     0
 62
    -1
  6
CONTINUOUS
  0
LAYER
  2
01
 70
     0
 62
     1
  6
CONTINUOUS
  0
LAYER
  2
DEFPOINTS
 70
     0
 62
     7
  6
CONTINUOUS
  0
LAYER
  2
1HIDDEN
 70
     0
 62
     8
  6
HIDDEN
  0
LAYER
  2
1PHANTOM
 70
     0
 62
   254
  6
PHANTOM2
  0
LAYER
  2
03
 70
     0
 62
     3
  6
CONTINUOUS
  0
LAYER
  2
02
 70
     0
 62
     2
  6
CONTINUOUS
  0
LAYER
  2
1TEXT
 70
     0
 62
   201
  6
CONTINUOUS
  0
LAYER
  2
04
 70
     0
 62
     4
  6
CONTINUOUS
  0
LAYER
  2
POINT
 70
     0
 62
     7
  6
CONTINUOUS
  0
LAYER
  2
1HATCH
 70
     0
 62
     8
  6
CONTINUOUS
  0
LAYER
  2
05
 70
     0
 62
     5
  6
CONTINUOUS
  0
LAYER
  2
06
 70
     0
 62
     6
  6
CONTINUOUS
  0
LAYER
  2
07
 70
     0
 62
   143
  6
CONTINUOUS
  0
LAYER
  2
08
 70
     0
 62
    95
  6
CONTINUOUS
  0
LAYER
  2
09
 70
     0
 62
    15
  6
CONTINUOUS
  0
LAYER
  2
10
 70
     0
 62
   213
  6
CONTINUOUS
  0
LAYER
  2
11
 70
     0
 62
     7
  6
CONTINUOUS
  0
LAYER
  2
1CENTER
 70
     0
 62
   221
  6
CONTINUOUS
  0
LAYER
  2
1DIM1
 70
     0
 62
   221
  6
CONTINUOUS
  0
LAYER
  2
1DIM2
 70
     0
 62
   254
  6
CONTINUOUS
  0
LAYER
  2
1DIM3
 70
     0
 62
     8
  6
CONTINUOUS
  0
LAYER
  2
2BATTING
 70
     0
 62
     7
  6
BATTING
  0
LAYER
  2
2FENCELINE1
 70
     0
 62
     7
  6
FENCELINE1
  0
LAYER
  2
2FENCELINE2
 70
     0
 62
     7
  6
FENCELINE2
  0
LAYER
  2
2TRACKS
 70
     0
 62
     7
  6
TRACKS
  0
LAYER
  2
2ZIGZAG
 70
     0
 62
     7
  6
ZIGZAG
  0
LAYER
  2
2HADAN
 70
     0
 62
     7
  6
HADAN
  0
LAYER
  2
1TEXT2
 70
     0
 62
   221
  6
CONTINUOUS
  0
LAYER
  2
99WAKU
 70
     0
 62
   253
  6
CONTINUOUS
  0
LAYER
  2
MIDFINE
 70
     0
 62
     9
  6
CONTINUOUS
  0
LAYER
  2
THICK
 70
     0
 62
   252
  6
CONTINUOUS
  0
LAYER
  2
ZZ
 70
     0
 62
    -8
  6
CONTINUOUS
  0
LAYER
  2
ZZXX
 70
     0
 62
   243
  6
CONTINUOUS
  0
LAYER
  2
MAKE2D$VISIBLE$LINES
 70
     0
 62
     7
  6
CONTINUOUS
  0
LAYER
  2
MAKE2D$VISIBLE$TANGENTS
 70
     0
 62
     7
  6
CONTINUOUS
  0
ENDTAB
  0
TABLE
  2
STYLE
 70
     4
  0
STYLE
  2
STANDARD
 70
     0
 40
0.0
 41
1.0
 50
0.0
 71
     0
 42
4.0
  3
romans.shx
  4
extfont2.shx
  0
STYLE
  2
KAI
 70
     0
 40
0.0
 41
1.0
 50
0.0
 71
     0
 42
4.0
  3
HGSeikaishotaiPRO.ttf
  4

  0
STYLE
  2

 70
     1
 40
0.2
 41
1.0
 50
0.0
 71
     0
 42
4.0
  3
ltypeshp.shx
  4

  0
STYLE
  2
TATE2
 70
     4
 40
0.0
 41
1.0
 50
0.0
 71
     0
 42
4.0
  3
romans.shx
  4
@extfont2.shx
  0
ENDTAB
  0
TABLE
  2
VIEW
 70
     0
  0
ENDTAB
  0
ENDSEC
  0
SECTION
  2
BLOCKS
  0
BLOCK
  8
0
  2
_OPEN30
 70
     0
 10
0.0
 20
0.0
  0
LINE
  8
0
  6
BYBLOCK
 62
     0
 10
-1.0
 20
0.26794919
 11
0.0
 21
0.0
  0
LINE
  8
0
  6
BYBLOCK
 62
     0
 10
0.0
 20
0.0
 11
-1.0
 21
-0.26794919
  0
LINE
  8
0
  6
BYBLOCK
 62
     0
 10
0.0
 20
0.0
 11
-1.0
 21
0.0
  0
ENDBLK
  8
0
  0
BLOCK
  8
0
  2
NOCIRCLE
 70
     2
 10
0.0
 20
0.0
  0
CIRCLE
  8
0
  6
BYBLOCK
 62
     0
 10
0.0
 20
0.0
 40
4.2
  0
ATTDEF
  8
1TEXT
 10
-1.904761904762
 20
-2.0
 40
4.0
  1
0
 72
     4
 11
0.0
 21
0.0
  3
NO.
  2
NO
 70
     0
  0
ENDBLK
  8
0
  0
BLOCK
  8
0
  2
_OPEN
 70
     0
 10
0.0
 20
0.0
  0
LINE
  8
0
  6
BYBLOCK
 62
     0
 10
-1.0
 20
0.166667
 11
0.0
 21
0.0
  0
LINE
  8
0
  6
BYBLOCK
 62
     0
 10
-1.0
 20
-0.166667
 11
0.0
 21
0.0
  0
LINE
  8
0
  6
BYBLOCK
 62
     0
 10
0.0
 20
0.0
 11
-1.0
 21
0.0
  0
ENDBLK
  8
0
  0
BLOCK
  8
0
  2
YA__
 70
     0
 10
0.0
 20
0.0
  0
INSERT
  8
0
  2
YA_
 10
0.0
 20
0.0
 30
0.0
 50
180.0
  0
ENDBLK
  8
0
  0
BLOCK
  8
0
  2
YA_
 70
     0
 10
0.0
 20
0.0
  0
LINE
  8
0
 10
-5.598760219962
 20
0.622116757674
 11
-2.488360049962
 21
0.622116757674
  0
LINE
  8
0
 10
-5.598760219962
 20
-0.622043242326
 11
-2.488359989962
 21
-0.622043242326
  0
LINE
  8
0
 10
-5.598760219962
 20
0.622116757674
 11
-5.598760219962
 21
-0.622043242326
  0
LINE
  8
0
 10
-2.488360079962
 20
1.346879757674
 11
-2.488360049962
 21
0.622116757674
  0
LINE
  8
0
 10
0.155480482306
 20
-1.993947296099
 11
0.155480380551
 21
1.993947304034
  0
LINE
  8
0
 10
-0.000039515118
 20
-1.99999999961
 11
-0.000039719246
 21
1.999999999606
  0
LINE
  8
0
 10
-0.155559515297
 20
-1.993941131829
 11
-0.155559619962
 21
0.000036757674
  0
LINE
  8
0
 10
-0.155559619962
 20
0.000036757674
 11
-0.155559718965
 21
1.99394111594
  0
LINE
  8
0
 10
-2.488359989962
 20
-0.622043242326
 11
-2.488359959962
 21
-1.346806242326
  0
LINE
  8
0
 10
-0.155559619962
 20
0.000036757674
 11
-2.488360199962
 21
-1.346806242326
  0
LINE
  8
0
 10
-0.155559619962
 20
0.000036757674
 11
-2.488360079962
 21
1.346879757674
  0
POINT
  8
POINT
 10
0.0
 20
0.0
 30
0.0
  0
ENDBLK
  8
0
  0
BLOCK
  8
0
  2
金属脚
 70
     0
 10
0.0
 20
0.0
  0
LINE
  8
0
  6
BYBLOCK
 62
     0
 10
0.0
 20
0.0
 11
125.0
 21
0.0
  0
LINE
  8
0
  6
BYBLOCK
 62
     0
 10
7.011342610203
 20
-155.999982357025
 11
23.011342610203
 21
-155.999982357025
  0
LINE
  8
0
  6
BYBLOCK
 62
     0
 10
7.011342610203
 20
-155.999982357025
 11
7.011342610203
 21
-145.999982357025
  0
LINE
  8
0
  6
BYBLOCK
 62
     0
 10
23.011342610203
 20
-155.999982357025
 11
23.011342610218
 21
-145.999982357025
  0
LINE
  8
0
  6
BYBLOCK
 62
     0
 10
4.0
 20
-145.999982357025
 11
22.0
 21
-145.999982357025
  0
LINE
  8
0
  6
BYBLOCK
 62
     0
 10
4.0
 20
-5.999982357025
 11
4.0
 21
-145.999982357025
  0
LINE
  8
0
  6
BYBLOCK
 62
     0
 10
22.0
 20
-5.999982357025
 11
104.0
 21
-5.999982357025
  0
LINE
  8
0
  6
BYBLOCK
 62
     0
 10
22.0
 20
-145.999982357025
 11
26.0
 21
-145.999982357025
  0
ARC
  8
0
  6
BYBLOCK
 62
     0
 10
31.0
 20
-32.999982357025
 40
5.0
 50
90.0
 51
180.0
  0
LINE
  8
0
  6
BYBLOCK
 62
     0
 10
26.0
 20
-145.999982357025
 11
26.0
 21
-32.999982357025
  0
LINE
  8
0
  6
BYBLOCK
 62
     0
 10
31.0
 20
-27.999982357025
 11
104.0
 21
-27.999982357025
  0
LINE
  8
0
  6
BYBLOCK
 62
     0
 10
104.0
 20
-27.999982357025
 11
104.0
 21
-5.999982357025
  0
LINE
  8
0
  6
BYBLOCK
 62
     0
 10
125.0
 20
-5.999982357025
 11
119.999885559082
 21
-5.999982357025
  0
LINE
  8
0
  6
BYBLOCK
 62
     0
 10
125.0
 20
-5.999982357025
 11
125.0
 21
0.0
  0
LINE
  8
0
  6
BYBLOCK
 62
     0
 10
119.999885559082
 20
-5.999982357025
 11
0.0
 21
-5.999982357025
  0
LINE
  8
0
  6
BYBLOCK
 62
     0
 10
0.0
 20
-5.999982357025
 11
0.0
 21
0.0
  0
ENDBLK
  8
0
  0
BLOCK
  8
0
  2
A-A
 70
     0
 10
0.0
 20
0.0
  0
LINE
  8
0
 10
0.0
 20
0.0
 11
53.759996799999
 21
0.0
  0
LINE
  8
0
 10
8.0321632
 20
10.63999856
 11
11.2933376
 21
1.68
  0
LINE
  8
0
 10
3.36
 20
1.68000624
 11
6.6211696
 21
10.63998944
  0
LINE
  8
0
 10
9.8630848
 20
1.68
 11
11.2933392
 21
1.68
  0
LINE
  8
0
 10
8.905750399999
 20
4.31024896
 11
9.8630848
 21
1.67999952
  0
LINE
  8
0
 10
4.7902528
 20
1.68000016
 11
5.7475856
 21
4.31024864
  0
LINE
  8
0
 10
3.36
 20
1.68
 11
4.7902528
 21
1.68
  0
LINE
  8
0
 10
5.7475856
 20
4.31024928
 11
8.905750399999
 21
4.31024928
  0
LINE
  8
0
 10
6.171791999999
 20
5.47574928
 11
8.4815424
 21
5.47574928
  0
LINE
  8
0
 10
6.171791999999
 20
5.4757488
 11
7.3266672
 21
8.64873968
  0
LINE
  8
0
 10
7.326668799999
 20
8.64873888
 11
8.481544
 21
5.4757488
  0
LINE
  8
0
 10
12.678397759999
 20
5.57759664
 11
16.441594239999
 21
5.57759664
  0
LINE
  8
0
 10
12.678397759999
 20
6.65279616
 11
16.441594239999
 21
6.65279616
  0
ARC
  8
0
 10
12.678397759999
 20
5.93599664
 40
0.3583999840000001
 50
179.99994
 51
270.0
  0
ARC
  8
0
 10
12.678397759999
 20
6.29439616
 40
0.3583999840000001
 50
90.0
 51
179.99994
  0
LINE
  8
0
 10
12.319997759999
 20
6.29439616
 11
12.319997759999
 21
5.93599664
  0
ARC
  8
0
 10
16.441594239999
 20
6.29439616
 40
0.3583999840000001
 50
0.0
 51
90.0
  0
ARC
  8
0
 10
16.441594239999
 20
5.93599664
 40
0.3583999840000001
 50
270.0
 51
0.0
  0
LINE
  8
0
 10
16.79999424
 20
6.29439616
 11
16.79999424
 21
5.93599664
  0
LINE
  8
0
 10
6.621172799999
 20
10.63999856
 11
8.0321632
 21
10.63999856
  0
LINE
  8
0
 10
25.952162927999
 20
10.63999936
 11
29.21333792
 21
1.68000064
  0
LINE
  8
0
 10
21.279999519999
 20
1.68000528
 11
24.541168639999
 21
10.639988
  0
LINE
  8
0
 10
23.667586079999
 20
4.31024928
 11
26.8257509616
 21
4.31024928
  0
LINE
  8
0
 10
22.7102536
 20
1.67999904
 11
23.667586559999
 21
4.31024784
  0
LINE
  8
0
 10
21.28000064
 20
1.68
 11
22.71025168
 21
1.68
  0
LINE
  8
0
 10
24.09179248
 20
5.47574928
 11
26.401542576
 21
5.47574928
  0
LINE
  8
0
 10
24.091794239999
 20
5.475748
 11
25.24666896
 21
8.64873888
  0
LINE
  8
0
 10
25.2466664
 20
8.64873968
 11
26.401541424
 21
5.475748
  0
LINE
  8
0
 10
26.8257489648
 20
4.31024816
 11
27.783081824
 21
1.67999952
  0
LINE
  8
0
 10
27.783083439999
 20
1.68
 11
29.21333888
 21
1.68
  0
POINT
  8
0
 10
26.8799984
 20
0.0
 30
0.0
  0
POINT
  8
0
 10
26.8799984
 20
0.0
 30
0.0
  0
LINE
  8
0
 10
24.541171999999
 20
10.63999856
 11
25.952163024
 21
10.63999856
  0
TEXT
  8
0
 10
35.978853279999
 20
1.99199984
 40
8.0
  1
断面
 41
0.8643459
  0
ENDBLK
  8
0
  0
BLOCK
  8
0
  2
AA
 70
     0
 10
0.0
 20
0.0
  0
LINE
  8
0
 10
0.000001680067
 20
0.00000565232
 11
2.9117599
 21
7.9999905
  0
LINE
  8
0
 10
3.5416694
 20
6.2220893
 11
4.5728078
 21
3.3890617
  0
LINE
  8
0
 10
2.5105312
 20
3.3890617
 11
3.5416694
 21
6.2220888
  0
LINE
  8
0
 10
4.171576
 20
7.999999
 11
7.0833392
 21
0.000000048888
  0
LINE
  8
0
 10
2.1317739
 20
2.3484368
 11
4.9515643
 21
2.3484368
  0
LINE
  8
0
 10
2.5105309
 20
3.3890619
 11
4.5728073
 21
3.3890619
  0
LINE
  8
0
 10
0.000001907349
 20
0.0
 11
1.2770123
 21
0.0
  0
POINT
  8
0
 10
0.0
 20
0.0
 30
0.0
  0
LINE
  8
0
 10
1.2770127
 20
-0.000000009364
 11
2.1317742
 21
2.3484364
  0
LINE
  8
0
 10
5.8063259
 20
0.0
 11
7.0833392
 21
0.0
  0
LINE
  8
0
 10
4.9515648
 20
2.3484368
 11
5.8063259
 21
0.000000268506
  0
LINE
  8
0
 10
2.9117632
 20
7.999999
 11
4.171576
 21
7.999999
  0
ENDBLK
  8
0
  0
BLOCK
  8
0
  2
訂正1
 70
     0
 10
0.0
 20
0.0
  0
LINE
  8
1HATCH
 10
0.000000135843
 20
2.025
 11
2.33826804
 21
-2.0250009
  0
LINE
  8
1HATCH
 10
-2.33826867
 20
-2.025
 11
2.33826849
 21
-2.025
  0
TEXT
  8
1TEXT
 10
-0.434499620191
 20
-1.510450886077
 40
1.8
  1
1
 41
0.66666667
 72
     1
 11
0.051214667951
 21
-1.510450886077
  0
LINE
  8
1HATCH
 10
0.000000476316
 20
2.02500018
 11
-2.33826849
 21
-2.02499937
  0
ENDBLK
  8
0
  0
BLOCK
  8
0
  2
*D397
 70
     1
 10
0.0
 20
0.0
  0
LINE
  8
1DIM
 10
38773.26192592132
 20
-6764.82651730407
 11
38773.26192592132
 21
-6834.82651730407
  0
LINE
  8
1DIM
 10
39323.26190446367
 20
-6764.82651730407
 11
39323.26190446367
 21
-6834.82651730407
  0
LINE
  8
1DIM
 10
38813.26192592132
 20
-6814.82651730407
 11
39283.26190446367
 21
-6814.82651730407
  0
INSERT
  8
1DIM
  2
_OPEN30
 10
38773.26192592132
 20
-6814.82651730407
 30
0.0
 41
40.0
 42
40.0
 43
40.0
 50
180.0
  0
INSERT
  8
1DIM
  2
_OPEN30
 10
39323.26190446367
 20
-6814.82651730407
 30
0.0
 41
40.0
 42
40.0
 43
40.0
  0
TEXT
  8
1DIM
  6
CONTINUOUS
 62
   201
 10
38948.2619151925
 20
-6800.82651730407
 40
70.0
  1
550
  0
POINT
  8
DEFPOINTS
 62
     0
 10
38773.26192592132
 20
-6664.82651730407
 30
0.0
  0
POINT
  8
DEFPOINTS
 62
     0
 10
39323.26190446367
 20
-6664.82651730407
 30
0.0
  0
POINT
  8
DEFPOINTS
 62
     0
 10
39323.26190446367
 20
-6814.82651730407
 30
0.0
  0
ENDBLK
  8
0
  0
BLOCK
  8
0
  2
*D398
 70
     1
 10
0.0
 20
0.0
  0
LINE
  8
1DIM
 10
38673.26193784225
 20
-6228.106305605461
 11
38603.26192592132
 21
-6228.106305605461
  0
LINE
  8
1DIM
 10
38673.26192592132
 20
-6664.82651730407
 11
38603.26192592132
 21
-6664.82651730407
  0
LINE
  8
1DIM
 10
38623.26192592132
 20
-6268.106305605461
 11
38623.26192592132
 21
-6624.82651730407
  0
INSERT
  8
1DIM
  2
_OPEN30
 10
38623.26192592132
 20
-6228.106305605461
 30
0.0
 41
40.0
 42
40.0
 43
40.0
 50
90.0
  0
INSERT
  8
1DIM
  2
_OPEN30
 10
38623.26192592132
 20
-6664.82651730407
 30
0.0
 41
40.0
 42
40.0
 43
40.0
 50
270.0
  0
TEXT
  8
1DIM
  6
CONTINUOUS
 62
   201
 10
38609.26192592132
 20
-6546.466411454763
 40
70.0
  1
440
 50
90.0
  0
POINT
  8
DEFPOINTS
 62
     0
 10
38773.26193784225
 20
-6228.106305605461
 30
0.0
  0
POINT
  8
DEFPOINTS
 62
     0
 10
38773.26192592132
 20
-6664.82651730407
 30
0.0
  0
POINT
  8
DEFPOINTS
 62
     0
 10
38623.26192592132
 20
-6664.82651730407
 30
0.0
  0
ENDBLK
  8
0
  0
BLOCK
  8
0
  2
*D399
 70
     1
 10
0.0
 20
0.0
  0
LINE
  8
1DIM
 10
38773.26193784225
 20
-5808.09396524045
 11
38773.26193784225
 21
-5738.09396524045
  0
LINE
  8
1DIM
 10
39323.26189254274
 20
-5808.09396524045
 11
39323.26189254274
 21
-5738.09396524045
  0
LINE
  8
1DIM
 10
38813.26193784225
 20
-5758.09396524045
 11
39283.26189254274
 21
-5758.09396524045
  0
INSERT
  8
1DIM
  2
_OPEN30
 10
38773.26193784225
 20
-5758.09396524045
 30
0.0
 41
40.0
 42
40.0
 43
40.0
 50
180.0
  0
INSERT
  8
1DIM
  2
_OPEN30
 10
39323.26189254274
 20
-5758.09396524045
 30
0.0
 41
40.0
 42
40.0
 43
40.0
  0
TEXT
  8
1DIM
  6
CONTINUOUS
 62
   201
 10
38948.2619151925
 20
-5744.09396524045
 40
70.0
  1
550
  0
POINT
  8
DEFPOINTS
 62
     0
 10
38773.26193784225
 20
-5908.09396524045
 30
0.0
  0
POINT
  8
DEFPOINTS
 62
     0
 10
39323.26189254274
 20
-5908.09396524045
 30
0.0
  0
POINT
  8
DEFPOINTS
 62
     0
 10
39323.26189254274
 20
-5758.09396524045
 30
0.0
  0
ENDBLK
  8
0
  0
BLOCK
  8
0
  2
*D401
 70
     1
 10
0.0
 20
0.0
  0
LINE
  8
1DIM
 10
39823.25513090715
 20
-6764.82651730407
 11
39823.25513090715
 21
-6834.82651730407
  0
LINE
  8
1DIM
 10
40526.02606814912
 20
-6764.82651730407
 11
40526.02606814912
 21
-6834.82651730407
  0
LINE
  8
1DIM
 10
39863.25513090715
 20
-6814.82651730407
 11
40486.02606814912
 21
-6814.82651730407
  0
INSERT
  8
1DIM
  2
_OPEN30
 10
39823.25513090715
 20
-6814.82651730407
 30
0.0
 41
40.0
 42
40.0
 43
40.0
 50
180.0
  0
INSERT
  8
1DIM
  2
_OPEN30
 10
40526.02606814912
 20
-6814.82651730407
 30
0.0
 41
40.0
 42
40.0
 43
40.0
  0
TEXT
  8
1DIM
  6
CONTINUOUS
 62
   201
 10
40074.64059952814
 20
-6800.82651730407
 40
70.0
  1
705
  0
POINT
  8
DEFPOINTS
 62
     0
 10
39823.25513090715
 20
-6664.82651730407
 30
0.0
  0
POINT
  8
DEFPOINTS
 62
     0
 10
40526.02606814912
 20
-6664.82651730407
 30
0.0
  0
POINT
  8
DEFPOINTS
 62
     0
 10
40526.02606814912
 20
-6814.82651730407
 30
0.0
  0
ENDBLK
  8
0
  0
BLOCK
  8
0
  2
*D402
 70
     1
 10
0.0
 20
0.0
  0
LINE
  8
1DIM
 10
39823.25513090715
 20
-5808.09396524045
 11
39823.25513090715
 21
-5738.09396524045
  0
LINE
  8
1DIM
 10
40298.5110035476
 20
-5808.09396524045
 11
40298.5110035476
 21
-5738.09396524045
  0
LINE
  8
1DIM
 10
39863.25513090715
 20
-5758.09396524045
 11
40258.5110035476
 21
-5758.09396524045
  0
INSERT
  8
1DIM
  2
_OPEN30
 10
39823.25513090715
 20
-5758.09396524045
 30
0.0
 41
40.0
 42
40.0
 43
40.0
 50
180.0
  0
INSERT
  8
1DIM
  2
_OPEN30
 10
40298.5110035476
 20
-5758.09396524045
 30
0.0
 41
40.0
 42
40.0
 43
40.0
  0
TEXT
  8
1DIM
  6
CONTINUOUS
 62
   201
 10
39960.88306722738
 20
-5744.09396524045
 40
70.0
  1
475
  0
POINT
  8
DEFPOINTS
 62
     0
 10
39823.25513090715
 20
-5908.09396524045
 30
0.0
  0
POINT
  8
DEFPOINTS
 62
     0
 10
40298.5110035476
 20
-5908.09396524045
 30
0.0
  0
POINT
  8
DEFPOINTS
 62
     0
 10
40298.5110035476
 20
-5758.09396524045
 30
0.0
  0
ENDBLK
  8
0
  0
BLOCK
  8
0
  2
*D403
 70
     1
 10
0.0
 20
0.0
  0
LINE
  8
1DIM
 10
40626.02606814912
 20
-5908.09396524045
 11
40696.02606814912
 21
-5908.09396524045
  0
LINE
  8
1DIM
 10
40626.02606814912
 20
-6664.82651730407
 11
40696.02606814912
 21
-6664.82651730407
  0
LINE
  8
1DIM
 10
40676.02606814912
 20
-5948.09396524045
 11
40676.02606814912
 21
-6624.82651730407
  0
INSERT
  8
1DIM
  2
_OPEN30
 10
40676.02606814912
 20
-5908.09396524045
 30
0.0
 41
40.0
 42
40.0
 43
40.0
 50
90.0
  0
INSERT
  8
1DIM
  2
_OPEN30
 10
40676.02606814912
 20
-6664.82651730407
 30
0.0
 41
40.0
 42
40.0
 43
40.0
 50
270.0
  0
TEXT
  8
1DIM
  6
CONTINUOUS
 62
   201
 10
40662.02606814912
 20
-6386.46024127226
 40
70.0
  1
757
 50
90.0
  0
POINT
  8
DEFPOINTS
 62
     0
 10
40526.02606814912
 20
-5908.09396524045
 30
0.0
  0
POINT
  8
DEFPOINTS
 62
     0
 10
40526.02606814912
 20
-6664.82651730407
 30
0.0
  0
POINT
  8
DEFPOINTS
 62
     0
 10
40676.02606814912
 20
-6664.82651730407
 30
0.0
  0
ENDBLK
  8
0
  0
ENDSEC
  0
SECTION
  2
ENTITIES
  0
POLYLINE
  8
0
  6
CONTINUOUS
 66
     1
  0
VERTEX
  8
0
  6
CONTINUOUS
 10
38773.26192592132
 20
-6235.142812735131
  0
VERTEX
  8
0
  6
CONTINUOUS
 10
38773.27596296825
 20
-6235.019899016136
  0
VERTEX
  8
0
  6
CONTINUOUS
 10
38773.29259884627
 20
-6234.896465186372
  0
VERTEX
  8
0
  6
CONTINUOUS
 10
38773.31187440987
 20
-6234.772586292282
  0
VERTEX
  8
0
  6
CONTINUOUS
 10
38773.33382791819
 20
-6234.648339995644
  0
VERTEX
  8
0
  6
CONTINUOUS
 10
38773.35849486037
 20
-6234.523806477841
  0
VERTEX
  8
0
  6
CONTINUOUS
 10
38773.3859077837
 20
-6234.399068331528
  0
VERTEX
  8
0
  6
CONTINUOUS
 10
38773.41609612599
 20
-6234.274210439653
  0
VERTEX
  8
0
  6
CONTINUOUS
 10
38773.44908605264
 20
-6234.149319841892
  0
VERTEX
  8
0
  6
CONTINUOUS
 10
38773.48490029986
 20
-6234.02448558863
  0
VERTEX
  8
0
  6
CONTINUOUS
 10
38773.52355802499
 20
-6233.899798582734
  0
VERTEX
  8
0
  6
CONTINUOUS
 10
38773.56507466458
 20
-6233.775351409419
  0
VERTEX
  8
0
  6
CONTINUOUS
 10
38773.60946180197
 20
-6233.651238154676
  0
VERTEX
  8
0
  6
CONTINUOUS
 10
38773.6567270446
 20
-6233.527554212715
  0
VERTEX
  8
0
  6
CONTINUOUS
 10
38773.70687391258
 20
-6233.40439608309
  0
VERTEX
  8
0
  6
CONTINUOUS
 10
38773.75990173923
 20
-6233.281861158188
  0
VERTEX
  8
0
  6
CONTINUOUS
 10
38773.81580558453
 20
-6233.160047501869
  0
VERTEX
  8
0
  6
CONTINUOUS
 10
38773.87457616226
 20
-6233.039053620198
  0
VERTEX
  8
0
  6
CONTINUOUS
 10
38773.93619978163
 20
-6232.91897822516
  0
VERTEX
  8
0
  6
CONTINUOUS
 10
38774.00065830417
 20
-6232.799919992499
  0
VERTEX
  8
0
  6
CONTINUOUS
 10
38774.06792911632
 20
-6232.681977314735
  0
VERTEX
  8
0
  6
CONTINUOUS
 10
38774.13798511832
 20
-6232.565248050588
  0
VERTEX
  8
0
  6
CONTINUOUS
 10
38774.21079472979
 20
-6232.449829272032
  0
VERTEX
  8
0
  6
CONTINUOUS
 10
38774.28632191235
 20
-6232.335817010289
  0
VERTEX
  8
0
  6
CONTINUOUS
 10
38774.36452620928
 20
-6232.223306002055
  0
VERTEX
  8
0
  6
CONTINUOUS
 10
38774.44536280262
 20
-6232.112389437344
  0
VERTEX
  8
0
  6
CONTINUOUS
 10
38774.52878258719
 20
-6232.003158710272
  0
VERTEX
  8
0
  6
CONTINUOUS
 10
38774.61473226182
 20
-6231.895703174193
  0
VERTEX
  8
0
  6
CONTINUOUS
 10
38774.70315443716
 20
-6231.790109902461
  0
VERTEX
  8
0
  6
CONTINUOUS
 10
38774.7939877599
 20
-6231.686463456215
  0
VERTEX
  8
0
  6
CONTINUOUS
 10
38774.88716705247
 20
-6231.584845660431
  0
VERTEX
  8
0
  6
CONTINUOUS
 10
38774.98262346812
 20
-6231.485335389474
  0
VERTEX
  8
0
  6
CONTINUOUS
 10
38775.08028466007
 20
-6231.388008363358
  0
VERTEX
  8
0
  6
CONTINUOUS
 10
38775.18007496426
 20
-6231.292936955783
  0
VERTEX
  8
0
  6
CONTINUOUS
 10
38775.28191559444
 20
-6231.200190014989
  0
VERTEX
  8
0
  6
CONTINUOUS
 10
38775.38572484875
 20
-6231.10983269835
  0
VERTEX
  8
0
  6
CONTINUOUS
 10
38775.49141832659
 20
-6231.021926321539
  0
VERTEX
  8
0
  6
CONTINUOUS
 10
38775.59890915445
 20
-6230.936528222993
  0
VERTEX
  8
0
  6
CONTINUOUS
 10
38775.70810821981
 20
-6230.853691644275
  0
VERTEX
  8
0
  6
CONTINUOUS
 10
38775.81892441123
 20
-6230.773465626847
  0
VERTEX
  8
0
  6
CONTINUOUS
 10
38775.93126486393
 20
-6230.695894925597
  0
VERTEX
  8
0
  6
CONTINUOUS
 10
38776.04503520909
 20
-6230.621019939408
  0
VERTEX
  8
0
  6
CONTINUOUS
 10
38776.16013982557
 20
-6230.548876658859
  0
VERTEX
  8
0
  6
CONTINUOUS
 10
38776.27648209292
 20
-6230.479496631106
  0
VERTEX
  8
0
  6
CONTINUOUS
 10
38776.39396464404
 20
-6230.412906941777
  0
VERTEX
  8
0
  6
CONTINUOUS
 10
38776.51248961643
 20
-6230.349130213729
  0
VERTEX
  8
0
  6
CONTINUOUS
 10
38776.63195890065
 20
-6230.288184622243
  0
VERTEX
  8
0
  6
CONTINUOUS
 10
38776.75227438474
 20
-6230.230083926273
  0
VERTEX
  8
0
  6
CONTINUOUS
 10
38776.87333819357
 20
-6230.174837515204
  0
VERTEX
  8
0
  6
CONTINUOUS
 10
38776.99505292188
 20
-6230.122450470453
  0
VERTEX
  8
0
  6
CONTINUOUS
 10
38777.11732186016
 20
-6230.07292364124
  0
VERTEX
  8
0
  6
CONTINUOUS
 10
38777.24004921219
 20
-6230.026253733706
  0
VERTEX
  8
0
  6
CONTINUOUS
 10
38777.36314030377
 20
-6229.982433412571
  0
VERTEX
  8
0
  6
CONTINUOUS
 10
38777.48650178146
 20
-6229.941451414398
  0
VERTEX
  8
0
  6
CONTINUOUS
 10
38777.61004180097
 20
-6229.903292671508
  0
VERTEX
  8
0
  6
CONTINUOUS
 10
38777.73367020443
 20
-6229.867938445611
  0
VERTEX
  8
0
  6
CONTINUOUS
 10
38777.85729868631
 20
-6229.835366470102
  0
VERTEX
  8
0
  6
CONTINUOUS
 10
38777.98084094731
 20
-6229.805551100025
  0
VERTEX
  8
0
  6
CONTINUOUS
 10
38778.10421283609
 20
-6229.778463468674
  0
VERTEX
  8
0
  6
CONTINUOUS
 10
38778.22733247877
 20
-6229.754071649818
  0
VERTEX
  8
0
  6
CONTINUOUS
 10
38778.35012039577
 20
-6229.732340824523
  0
VERTEX
  8
0
  6
CONTINUOUS
 10
38778.47249960624
 20
-6229.71323345159
  0
VERTEX
  8
0
  6
CONTINUOUS
 10
38783.91285899092
 20
-6229.254045700245
  0
VERTEX
  8
0
  6
CONTINUOUS
 10
38790.50617798172
 20
-6228.830105168088
  0
VERTEX
  8
0
  6
CONTINUOUS
 10
38797.10722061226
 20
-6228.549169363119
  0
VERTEX
  8
0
  6
CONTINUOUS
 10
38804.06056715728
 20
-6228.415007695372
  0
VERTEX
  8
0
  6
CONTINUOUS
 10
38815.45918978893
 20
-6228.396512851415
  0
VERTEX
  8
0
  6
CONTINUOUS
 10
38826.37242975751
 20
-6228.378065648605
  0
VERTEX
  8
0
  6
CONTINUOUS
 10
38836.8735985814
 20
-6228.359710664081
  0
VERTEX
  8
0
  6
CONTINUOUS
 10
38847.03600777896
 20
-6228.341492474978
  0
VERTEX
  8
0
  6
CONTINUOUS
 10
38856.93296886857
 20
-6228.323455658433
  0
VERTEX
  8
0
  6
CONTINUOUS
 10
38866.63779336859
 20
-6228.305644791581
  0
VERTEX
  8
0
  6
CONTINUOUS
 10
38876.22379279738
 20
-6228.288104451561
  0
VERTEX
  8
0
  6
CONTINUOUS
 10
38885.76427867333
 20
-6228.270879215506
  0
VERTEX
  8
0
  6
CONTINUOUS
 10
38895.33256251479
 20
-6228.254013660554
  0
VERTEX
  8
0
  6
CONTINUOUS
 10
38905.00195584014
 20
-6228.23755236384
  0
VERTEX
  8
0
  6
CONTINUOUS
 10
38914.84577016774
 20
-6228.221539902501
  0
VERTEX
  8
0
  6
CONTINUOUS
 10
38924.93483115008
 20
-6228.206023407145
  0
VERTEX
  8
0
  6
CONTINUOUS
 10
38935.29105775978
 20
-6228.191100245153
  0
VERTEX
  8
0
  6
CONTINUOUS
 10
38945.89165741454
 20
-6228.176913711457
  0
VERTEX
  8
0
  6
CONTINUOUS
 10
38956.71219280715
 20
-6228.163608790444
  0
VERTEX
  8
0
  6
CONTINUOUS
 10
38967.7282266304
 20
-6228.151330466502
  0
VERTEX
  8
0
  6
CONTINUOUS
 10
38978.91532157709
 20
-6228.140223724018
  0
VERTEX
  8
0
  6
CONTINUOUS
 10
38990.24904034
 20
-6228.130433547381
  0
VERTEX
  8
0
  6
CONTINUOUS
 10
39001.70494561193
 20
-6228.12210492098
  0
VERTEX
  8
0
  6
CONTINUOUS
 10
39013.25860008568
 20
-6228.115382829199
  0
VERTEX
  8
0
  6
CONTINUOUS
 10
39024.88556645402
 20
-6228.11041225643
  0
VERTEX
  8
0
  6
CONTINUOUS
 10
39036.56140740978
 20
-6228.107338187058
  0
VERTEX
  8
0
  6
CONTINUOUS
 10
39048.2616856457
 20
-6228.106305605474
  0
SEQEND
  8
0
  6
CONTINUOUS
  0
LINE
  8
0
 10
40370.8791141266
 20
-6515.813195777099
 11
39896.11907526265
 21
-6465.91390481253
  0
LINE
  8
0
 10
39902.17684331986
 20
-6426.33027453567
 11
40363.3199509689
 21
-6474.7983664251
  0
POLYLINE
  8
0
  6
CONTINUOUS
 62
     4
 66
     1
  0
VERTEX
  8
0
  6
CONTINUOUS
 62
     4
 10
40383.65097841682
 20
-6292.031041199069
  0
VERTEX
  8
0
  6
CONTINUOUS
 62
     4
 10
40383.66080320135
 20
-6292.002505440282
  0
VERTEX
  8
0
  6
CONTINUOUS
 62
     4
 10
40383.67041583861
 20
-6291.974585938529
  0
VERTEX
  8
0
  6
CONTINUOUS
 62
     4
 10
40383.67964347245
 20
-6291.947784815755
  0
VERTEX
  8
0
  6
CONTINUOUS
 62
     4
 10
40383.68846399386
 20
-6291.922166295482
  0
VERTEX
  8
0
  6
CONTINUOUS
 62
     4
 10
40383.69689144118
 20
-6291.897689598316
  0
VERTEX
  8
0
  6
CONTINUOUS
 62
     4
 10
40383.7049398528
 20
-6291.874313944859
  0
VERTEX
  8
0
  6
CONTINUOUS
 62
     4
 10
40383.71262326705
 20
-6291.851998555714
  0
VERTEX
  8
0
  6
CONTINUOUS
 62
     4
 10
40383.71995572231
 20
-6291.830702651486
  0
VERTEX
  8
0
  6
CONTINUOUS
 62
     4
 10
40383.72695125692
 20
-6291.810385452776
  0
VERTEX
  8
0
  6
CONTINUOUS
 62
     4
 10
40383.73362390925
 20
-6291.791006180189
  0
VERTEX
  8
0
  6
CONTINUOUS
 62
     4
 10
40383.73998771768
 20
-6291.772524054329
  0
VERTEX
  8
0
  6
CONTINUOUS
 62
     4
 10
40383.74605672053
 20
-6291.754898295797
  0
VERTEX
  8
0
  6
CONTINUOUS
 62
     4
 10
40383.7518449562
 20
-6291.738088125198
  0
VERTEX
  8
0
  6
CONTINUOUS
 62
     4
 10
40383.75736646303
 20
-6291.722052763136
  0
VERTEX
  8
0
  6
CONTINUOUS
 62
     4
 10
40383.76263527937
 20
-6291.706751430213
  0
VERTEX
  8
0
  6
CONTINUOUS
 62
     4
 10
40383.76766544359
 20
-6291.692143347033
  0
VERTEX
  8
0
  6
CONTINUOUS
 62
     4
 10
40383.77247099405
 20
-6291.678187734199
  0
VERTEX
  8
0
  6
CONTINUOUS
 62
     4
 10
40383.77706596912
 20
-6291.664843812315
  0
VERTEX
  8
0
  6
CONTINUOUS
 62
     4
 10
40383.78146440715
 20
-6291.652070801983
  0
VERTEX
  8
0
  6
CONTINUOUS
 62
     4
 10
40383.7856803465
 20
-6291.639827923807
  0
VERTEX
  8
0
  6
CONTINUOUS
 62
     4
 10
40383.78972782553
 20
-6291.628074398393
  0
VERTEX
  8
0
  6
CONTINUOUS
 62
     4
 10
40383.79362088261
 20
-6291.616769446339
  0
VERTEX
  8
0
  6
CONTINUOUS
 62
     4
 10
40383.79737355607
 20
-6291.605872288254
  0
VERTEX
  8
0
  6
CONTINUOUS
 62
     4
 10
40383.8009998843
 20
-6291.595342144738
  0
VERTEX
  8
0
  6
CONTINUOUS
 62
     4
 10
40383.80451390566
 20
-6291.585138236394
  0
VERTEX
  8
0
  6
CONTINUOUS
 62
     4
 10
40383.80792965849
 20
-6291.575219783827
  0
VERTEX
  8
0
  6
CONTINUOUS
 62
     4
 10
40383.81126118117
 20
-6291.56554600764
  0
VERTEX
  8
0
  6
CONTINUOUS
 62
     4
 10
40383.81452251204
 20
-6291.556076128436
  0
VERTEX
  8
0
  6
CONTINUOUS
 62
     4
 10
40383.81772768947
 20
-6291.546769366819
  0
VERTEX
  8
0
  6
CONTINUOUS
 62
     4
 10
40383.82089075183
 20
-6291.537584943391
  0
VERTEX
  8
0
  6
CONTINUOUS
 62
     4
 10
40383.82402573746
 20
-6291.528482078758
  0
VERTEX
  8
0
  6
CONTINUOUS
 62
     4
 10
40383.82714668473
 20
-6291.51941999352
  0
SEQEND
  8
0
  6
CONTINUOUS
 62
     4
  0
LINE
  8
0
  6
CONTINUOUS
 10
39048.26191519249
 20
-4864.71800368784
 11
38803.26190446365
 21
-4864.71800368784
  0
POLYLINE
  8
0
  6
CONTINUOUS
 66
     1
  0
VERTEX
  8
0
  6
CONTINUOUS
 10
38803.26190446365
 20
-4879.912269140439
  0
VERTEX
  8
0
  6
CONTINUOUS
 10
38803.26190446365
 20
-4856.027914700489
 42
0.417429979052
  0
VERTEX
  8
0
  6
CONTINUOUS
 10
38801.26190041054
 20
-4854.027910647379
  0
VERTEX
  8
0
  6
CONTINUOUS
 10
38775.26190732468
 20
-4854.027910647379
 42
0.416549880933
  0
VERTEX
  8
0
  6
CONTINUOUS
 10
38773.26192711341
 20
-4856.02100757663
  0
VERTEX
  8
0
  6
CONTINUOUS
 10
38773.26192711342
 20
-5528.18531344053
 42
0.413931751342
  0
VERTEX
  8
0
  6
CONTINUOUS
 10
38803.18904708032
 20
-5558.09396524045
  0
VERTEX
  8
0
  6
CONTINUOUS
 10
39048.26191519249
 20
-5558.09396524045
  0
SEQEND
  8
0
  6
CONTINUOUS
  0
POLYLINE
  8
0
 66
     1
  0
VERTEX
  8
0
 10
39048.26193903435
 20
-4879.912269140439
  0
VERTEX
  8
0
 10
38798.26977653328
 20
-4879.912269140439
 42
0.409923942773
  0
VERTEX
  8
0
 10
38773.26192711341
 20
-4907.317708955091
  0
SEQEND
  8
0
  0
POLYLINE
  8
0
 66
     1
  0
VERTEX
  8
0
 10
38773.26192711342
 20
-4952.67705195065
 42
0.380733167307
  0
VERTEX
  8
0
 10
38813.07590782334
 20
-4998.176142789456
 42
0.04117623948
  0
VERTEX
  8
0
 10
39048.26193903435
 20
-5020.56922770118
  0
SEQEND
  8
0
  0
POLYLINE
  8
0
 66
     1
  0
VERTEX
  8
0
 10
38773.26192711341
 20
-5036.210583288971
 42
0.401694990331
  0
VERTEX
  8
0
 10
38809.62122989402
 20
-5072.814881041324
 42
0.021814873476
  0
VERTEX
  8
0
 10
39044.66373274326
 20
-5083.545123386921
 42
0.373392447689
  0
VERTEX
  8
0
 10
39048.26191519249
 20
-5079.713080727865
  0
SEQEND
  8
0
  0
POLYLINE
  8
0
  6
CONTINUOUS
 66
     1
  0
VERTEX
  8
0
  6
CONTINUOUS
 10
38773.26192711342
 20
-5528.18531344051
  0
VERTEX
  8
0
  6
CONTINUOUS
 10
38773.26192711344
 20
-5554.493015505041
  0
VERTEX
  8
0
  6
CONTINUOUS
 10
38773.26192711344
 20
-5554.495459295469
 42
0.414424386707
  0
VERTEX
  8
0
  6
CONTINUOUS
 10
38775.26193903437
 20
-5556.4954337585
  0
VERTEX
  8
0
  6
CONTINUOUS
 10
38783.74193116656
 20
-5556.488102174959
 42
0.437027272251
  0
VERTEX
  8
0
  6
CONTINUOUS
 10
38785.89259885119
 20
-5554.4954337585
  0
VERTEX
  8
0
  6
CONTINUOUS
 10
38785.89259659301
 20
-5552.59021381023
  0
SEQEND
  8
0
  6
CONTINUOUS
  0
POLYLINE
  8
0
  6
CONTINUOUS
 66
     1
 70
     1
  0
VERTEX
  8
0
  6
CONTINUOUS
 10
38776.26194690215
 20
-6664.82651730407
  0
VERTEX
  8
0
  6
CONTINUOUS
 10
38800.2619359349
 20
-6664.82651730407
 42
0.417906481242
  0
VERTEX
  8
0
  6
CONTINUOUS
 10
38803.26192711341
 20
-6661.826517277989
  0
VERTEX
  8
0
  6
CONTINUOUS
 10
38803.26192711341
 20
-6661.756760751489
  0
VERTEX
  8
0
  6
CONTINUOUS
 10
38803.26192711341
 20
-6322.09016442924
 42
0.415975756301
  0
VERTEX
  8
0
  6
CONTINUOUS
 10
38801.2619230603
 20
-6320.090190178443
  0
VERTEX
  8
0
  6
CONTINUOUS
 10
38775.26192997443
 20
-6320.090190178441
 42
0.418952842046
  0
VERTEX
  8
0
  6
CONTINUOUS
 10
38773.26192592132
 20
-6322.09016442924
  0
VERTEX
  8
0
  6
CONTINUOUS
 10
38773.26192592132
 20
-6661.756760751489
  0
VERTEX
  8
0
  6
CONTINUOUS
 10
38773.26192592132
 20
-6661.826517277989
 42
0.413414595255
  0
SEQEND
  8
0
  6
CONTINUOUS
  0
LINE
  8
0
 10
38773.26193784225
 20
-6322.056730062811
 11
38773.26193784225
 21
-5908.09396524045
  0
ARC
  8
0
 10
39042.89284058467
 20
-2682.892709782808
 40
2245.863876348702
 50
263.104627461147
 51
270.136974897377
  0
LINE
  8
0
  6
CONTINUOUS
 10
38803.16827400641
 20
-6321.485296494061
 11
39293.35555637858
 21
-6321.485296494061
  0
POLYLINE
  8
0
  6
CONTINUOUS
 66
     1
  0
VERTEX
  8
0
  6
CONTINUOUS
 10
39323.26190446367
 20
-6235.142812735131
  0
VERTEX
  8
0
  6
CONTINUOUS
 10
39323.24786741674
 20
-6235.019899016136
  0
VERTEX
  8
0
  6
CONTINUOUS
 10
39323.23123153873
 20
-6234.896465186372
  0
VERTEX
  8
0
  6
CONTINUOUS
 10
39323.21195597513
 20
-6234.772586292282
  0
VERTEX
  8
0
  6
CONTINUOUS
 10
39323.1900024668
 20
-6234.648339995644
  0
VERTEX
  8
0
  6
CONTINUOUS
 10
39323.16533552462
 20
-6234.523806477841
  0
VERTEX
  8
0
  6
CONTINUOUS
 10
39323.13792260129
 20
-6234.399068331528
  0
VERTEX
  8
0
  6
CONTINUOUS
 10
39323.107734259
 20
-6234.274210439653
  0
VERTEX
  8
0
  6
CONTINUOUS
 10
39323.07474433236
 20
-6234.149319841892
  0
VERTEX
  8
0
  6
CONTINUOUS
 10
39323.03893008512
 20
-6234.02448558863
  0
VERTEX
  8
0
  6
CONTINUOUS
 10
39323.00027236001
 20
-6233.899798582734
  0
VERTEX
  8
0
  6
CONTINUOUS
 10
39322.95875572041
 20
-6233.775351409419
  0
VERTEX
  8
0
  6
CONTINUOUS
 10
39322.91436858302
 20
-6233.651238154676
  0
VERTEX
  8
0
  6
CONTINUOUS
 10
39322.8671033404
 20
-6233.527554212715
  0
VERTEX
  8
0
  6
CONTINUOUS
 10
39322.81695647242
 20
-6233.40439608309
  0
VERTEX
  8
0
  6
CONTINUOUS
 10
39322.76392864577
 20
-6233.281861158188
  0
VERTEX
  8
0
  6
CONTINUOUS
 10
39322.70802480046
 20
-6233.160047501869
  0
VERTEX
  8
0
  6
CONTINUOUS
 10
39322.64925422274
 20
-6233.039053620198
  0
VERTEX
  8
0
  6
CONTINUOUS
 10
39322.58763060337
 20
-6232.91897822516
  0
VERTEX
  8
0
  6
CONTINUOUS
 10
39322.52317208083
 20
-6232.799919992499
  0
VERTEX
  8
0
  6
CONTINUOUS
 10
39322.45590126867
 20
-6232.681977314735
  0
VERTEX
  8
0
  6
CONTINUOUS
 10
39322.38584526668
 20
-6232.565248050588
  0
VERTEX
  8
0
  6
CONTINUOUS
 10
39322.31303565521
 20
-6232.449829272032
  0
VERTEX
  8
0
  6
CONTINUOUS
 10
39322.23750847265
 20
-6232.335817010289
  0
VERTEX
  8
0
  6
CONTINUOUS
 10
39322.1593041757
 20
-6232.223306002055
  0
VERTEX
  8
0
  6
CONTINUOUS
 10
39322.07846758237
 20
-6232.112389437344
  0
VERTEX
  8
0
  6
CONTINUOUS
 10
39321.9950477978
 20
-6232.003158710272
  0
VERTEX
  8
0
  6
CONTINUOUS
 10
39321.90909812319
 20
-6231.895703174193
  0
VERTEX
  8
0
  6
CONTINUOUS
 10
39321.82067594782
 20
-6231.790109902461
  0
VERTEX
  8
0
  6
CONTINUOUS
 10
39321.72984262509
 20
-6231.686463456215
  0
VERTEX
  8
0
  6
CONTINUOUS
 10
39321.63666333252
 20
-6231.584845660431
  0
VERTEX
  8
0
  6
CONTINUOUS
 10
39321.54120691687
 20
-6231.485335389474
  0
VERTEX
  8
0
  6
CONTINUOUS
 10
39321.44354572492
 20
-6231.388008363358
  0
VERTEX
  8
0
  6
CONTINUOUS
 10
39321.34375542073
 20
-6231.292936955783
  0
VERTEX
  8
0
  6
CONTINUOUS
 10
39321.24191479055
 20
-6231.200190014989
  0
VERTEX
  8
0
  6
CONTINUOUS
 10
39321.13810553624
 20
-6231.10983269835
  0
VERTEX
  8
0
  6
CONTINUOUS
 10
39321.03241205842
 20
-6231.021926321539
  0
VERTEX
  8
0
  6
CONTINUOUS
 10
39320.92492123054
 20
-6230.936528222993
  0
VERTEX
  8
0
  6
CONTINUOUS
 10
39320.81572216519
 20
-6230.853691644275
  0
VERTEX
  8
0
  6
CONTINUOUS
 10
39320.70490597378
 20
-6230.773465626847
  0
VERTEX
  8
0
  6
CONTINUOUS
 10
39320.59256552106
 20
-6230.695894925597
  0
VERTEX
  8
0
  6
CONTINUOUS
 10
39320.4787951759
 20
-6230.621019939408
  0
VERTEX
  8
0
  6
CONTINUOUS
 10
39320.36369055941
 20
-6230.548876658859
  0
VERTEX
  8
0
  6
CONTINUOUS
 10
39320.24734829208
 20
-6230.479496631106
  0
VERTEX
  8
0
  6
CONTINUOUS
 10
39320.12986574095
 20
-6230.412906941777
  0
VERTEX
  8
0
  6
CONTINUOUS
 10
39320.01134076856
 20
-6230.349130213729
  0
VERTEX
  8
0
  6
CONTINUOUS
 10
39319.89187148435
 20
-6230.288184622243
  0
VERTEX
  8
0
  6
CONTINUOUS
 10
39319.77155600025
 20
-6230.230083926273
  0
VERTEX
  8
0
  6
CONTINUOUS
 10
39319.65049219142
 20
-6230.174837515204
  0
VERTEX
  8
0
  6
CONTINUOUS
 10
39319.52877746311
 20
-6230.122450470453
  0
VERTEX
  8
0
  6
CONTINUOUS
 10
39319.40650852484
 20
-6230.07292364124
  0
VERTEX
  8
0
  6
CONTINUOUS
 10
39319.28378117281
 20
-6230.026253733706
  0
VERTEX
  8
0
  6
CONTINUOUS
 10
39319.16069008123
 20
-6229.982433412571
  0
VERTEX
  8
0
  6
CONTINUOUS
 10
39319.03732860353
 20
-6229.941451414398
  0
VERTEX
  8
0
  6
CONTINUOUS
 10
39318.91378858402
 20
-6229.903292671508
  0
VERTEX
  8
0
  6
CONTINUOUS
 10
39318.79016018056
 20
-6229.867938445611
  0
VERTEX
  8
0
  6
CONTINUOUS
 10
39318.66653169868
 20
-6229.835366470102
  0
VERTEX
  8
0
  6
CONTINUOUS
 10
39318.54298943767
 20
-6229.805551100025
  0
VERTEX
  8
0
  6
CONTINUOUS
 10
39318.41961754889
 20
-6229.778463468674
  0
VERTEX
  8
0
  6
CONTINUOUS
 10
39318.29649790621
 20
-6229.754071649818
  0
VERTEX
  8
0
  6
CONTINUOUS
 10
39318.17370998922
 20
-6229.732340824523
  0
VERTEX
  8
0
  6
CONTINUOUS
 10
39318.05133077876
 20
-6229.71323345159
  0
VERTEX
  8
0
  6
CONTINUOUS
 10
39312.61097139408
 20
-6229.254045700245
  0
VERTEX
  8
0
  6
CONTINUOUS
 10
39306.01765240327
 20
-6228.830105168088
  0
VERTEX
  8
0
  6
CONTINUOUS
 10
39299.41660977273
 20
-6228.549169363119
  0
VERTEX
  8
0
  6
CONTINUOUS
 10
39292.46326322771
 20
-6228.415007695372
  0
VERTEX
  8
0
  6
CONTINUOUS
 10
39281.06464059607
 20
-6228.396512851415
  0
VERTEX
  8
0
  6
CONTINUOUS
 10
39270.15140062748
 20
-6228.378065648605
  0
VERTEX
  8
0
  6
CONTINUOUS
 10
39259.65023180359
 20
-6228.359710664081
  0
VERTEX
  8
0
  6
CONTINUOUS
 10
39249.48782260603
 20
-6228.341492474978
  0
VERTEX
  8
0
  6
CONTINUOUS
 10
39239.59086151642
 20
-6228.323455658433
  0
VERTEX
  8
0
  6
CONTINUOUS
 10
39229.8860370164
 20
-6228.305644791581
  0
VERTEX
  8
0
  6
CONTINUOUS
 10
39220.30003758761
 20
-6228.288104451561
  0
VERTEX
  8
0
  6
CONTINUOUS
 10
39210.75955171166
 20
-6228.270879215506
  0
VERTEX
  8
0
  6
CONTINUOUS
 10
39201.1912678702
 20
-6228.254013660554
  0
VERTEX
  8
0
  6
CONTINUOUS
 10
39191.52187454485
 20
-6228.23755236384
  0
VERTEX
  8
0
  6
CONTINUOUS
 10
39181.67806021725
 20
-6228.221539902501
  0
VERTEX
  8
0
  6
CONTINUOUS
 10
39171.58899921433
 20
-6228.206023407145
  0
VERTEX
  8
0
  6
CONTINUOUS
 10
39161.23277213818
 20
-6228.191100245153
  0
VERTEX
  8
0
  6
CONTINUOUS
 10
39150.63217077572
 20
-6228.176913711457
  0
VERTEX
  8
0
  6
CONTINUOUS
 10
39139.81163162523
 20
-6228.163608790444
  0
VERTEX
  8
0
  6
CONTINUOUS
 10
39128.79559118494
 20
-6228.151330466501
  0
VERTEX
  8
0
  6
CONTINUOUS
 10
39117.60848595313
 20
-6228.140223724017
  0
VERTEX
  8
0
  6
CONTINUOUS
 10
39106.27475242805
 20
-6228.13043354738
  0
VERTEX
  8
0
  6
CONTINUOUS
 10
39094.81882710793
 20
-6228.122104920976
  0
VERTEX
  8
0
  6
CONTINUOUS
 10
39083.26514649104
 20
-6228.115382829194
  0
VERTEX
  8
0
  6
CONTINUOUS
 10
39071.63814707562
 20
-6228.110412256423
  0
VERTEX
  8
0
  6
CONTINUOUS
 10
39059.96226535994
 20
-6228.107338187049
  0
VERTEX
  8
0
  6
CONTINUOUS
 10
39048.26193784225
 20
-6228.106305605461
  0
SEQEND
  8
0
  6
CONTINUOUS
  0
POLYLINE
  8
0
  6
CONTINUOUS
 66
     1
 70
     1
  0
VERTEX
  8
0
  6
CONTINUOUS
 10
39320.26188348284
 20
-6664.82651730407
  0
VERTEX
  8
0
  6
CONTINUOUS
 10
39296.26189445009
 20
-6664.82651730407
 42
-0.417906481242
  0
VERTEX
  8
0
  6
CONTINUOUS
 10
39293.26190327158
 20
-6661.826517277989
  0
VERTEX
  8
0
  6
CONTINUOUS
 10
39293.26190327158
 20
-6661.756760751489
  0
VERTEX
  8
0
  6
CONTINUOUS
 10
39293.26190327158
 20
-6322.09016442924
 42
-0.415975756301
  0
VERTEX
  8
0
  6
CONTINUOUS
 10
39295.26190732469
 20
-6320.090190178443
  0
VERTEX
  8
0
  6
CONTINUOUS
 10
39321.26190041057
 20
-6320.090190178441
 42
-0.418952842046
  0
VERTEX
  8
0
  6
CONTINUOUS
 10
39323.26190446367
 20
-6322.09016442924
  0
VERTEX
  8
0
  6
CONTINUOUS
 10
39323.26190446367
 20
-6661.756760751489
  0
VERTEX
  8
0
  6
CONTINUOUS
 10
39323.26190446367
 20
-6661.826517277989
 42
-0.413414595255
  0
SEQEND
  8
0
  6
CONTINUOUS
  0
LINE
  8
0
 10
39323.26189254274
 20
-6322.056730062811
 11
39323.26189254274
 21
-5908.09396524045
  0
POLYLINE
  8
0
 66
     1
  0
VERTEX
  8
0
 10
39323.26189254274
 20
-5908.09396524045
  0
VERTEX
  8
0
 10
39314.67645853283
 20
-5908.640530685437
  0
VERTEX
  8
0
 10
39306.09095948013
 20
-5909.185402380323
  0
VERTEX
  8
0
 10
39297.50533034178
 20
-5909.726886575009
  0
VERTEX
  8
0
 10
39288.919506075
 20
-5910.263289519395
  0
VERTEX
  8
0
 10
39280.33342163696
 20
-5910.792917463378
  0
VERTEX
  8
0
 10
39271.74701198485
 20
-5911.314076656861
  0
VERTEX
  8
0
 10
39263.16021207585
 20
-5911.825073349743
  0
VERTEX
  8
0
 10
39254.57295686714
 20
-5912.324213791923
  0
VERTEX
  8
0
 10
39245.98518131593
 20
-5912.8098042333
  0
VERTEX
  8
0
 10
39237.39682037938
 20
-5913.280150923776
  0
VERTEX
  8
0
 10
39228.8078090147
 20
-5913.733560113248
  0
VERTEX
  8
0
 10
39220.21808217904
 20
-5914.168338051619
  0
VERTEX
  8
0
 10
39211.62757482962
 20
-5914.582790988785
  0
VERTEX
  8
0
 10
39203.03622192361
 20
-5914.975225174649
  0
VERTEX
  8
0
 10
39194.4439584182
 20
-5915.343946859109
  0
VERTEX
  8
0
 10
39185.85071927058
 20
-5915.687262292065
  0
VERTEX
  8
0
 10
39177.2564610011
 20
-5916.004039240231
  0
VERTEX
  8
0
 10
39168.66122686348
 20
-5916.295404053647
  0
VERTEX
  8
0
 10
39160.06508191559
 20
-5916.563050874629
  0
VERTEX
  8
0
 10
39151.46809121531
 20
-5916.808673845494
  0
VERTEX
  8
0
 10
39142.87031982053
 20
-5917.033967108557
  0
VERTEX
  8
0
 10
39134.2718327891
 20
-5917.240624806135
  0
VERTEX
  8
0
 10
39125.6726951789
 20
-5917.430341080547
  0
VERTEX
  8
0
 10
39117.07297204783
 20
-5917.604810074107
  0
VERTEX
  8
0
 10
39108.47272845374
 20
-5917.765725929132
  0
VERTEX
  8
0
 10
39099.87202945453
 20
-5917.914782787941
  0
VERTEX
  8
0
 10
39091.27094010806
 20
-5918.05367479285
  0
VERTEX
  8
0
 10
39082.6695254722
 20
-5918.184096086174
  0
VERTEX
  8
0
 10
39074.06785060484
 20
-5918.307740810231
  0
VERTEX
  8
0
 10
39065.46598056385
 20
-5918.426303107339
  0
VERTEX
  8
0
 10
39056.86398040711
 20
-5918.541477119811
  0
VERTEX
  8
0
 10
39048.2619151925
 20
-5918.654956989968
  0
VERTEX
  8
0
 10
39039.65984997788
 20
-5918.541477119811
  0
VERTEX
  8
0
 10
39031.05784982114
 20
-5918.426303107339
  0
VERTEX
  8
0
 10
39022.45597978015
 20
-5918.307740810231
  0
VERTEX
  8
0
 10
39013.85430491279
 20
-5918.184096086174
  0
VERTEX
  8
0
 10
39005.25289027694
 20
-5918.05367479285
  0
VERTEX
  8
0
 10
38996.65180093046
 20
-5917.914782787941
  0
VERTEX
  8
0
 10
38988.05110193125
 20
-5917.765725929133
  0
VERTEX
  8
0
 10
38979.45085833716
 20
-5917.604810074107
  0
VERTEX
  8
0
 10
38970.85113520609
 20
-5917.430341080547
  0
VERTEX
  8
0
 10
38962.2519975959
 20
-5917.240624806136
  0
VERTEX
  8
0
 10
38953.65351056447
 20
-5917.033967108558
  0
VERTEX
  8
0
 10
38945.05573916968
 20
-5916.808673845494
  0
VERTEX
  8
0
 10
38936.45874846941
 20
-5916.56305087463
  0
VERTEX
  8
0
 10
38927.86260352151
 20
-5916.295404053648
  0
VERTEX
  8
0
 10
38919.2673693839
 20
-5916.004039240232
  0
VERTEX
  8
0
 10
38910.67311111441
 20
-5915.687262292066
  0
VERTEX
  8
0
 10
38902.07987196679
 20
-5915.34394685911
  0
VERTEX
  8
0
 10
38893.48760846139
 20
-5914.975225174649
  0
VERTEX
  8
0
 10
38884.89625555538
 20
-5914.582790988786
  0
VERTEX
  8
0
 10
38876.30574820595
 20
-5914.168338051619
  0
VERTEX
  8
0
 10
38867.71602137031
 20
-5913.733560113249
  0
VERTEX
  8
0
 10
38859.12701000561
 20
-5913.280150923776
  0
VERTEX
  8
0
 10
38850.53864906907
 20
-5912.809804233301
  0
VERTEX
  8
0
 10
38841.95087351785
 20
-5912.324213791923
  0
VERTEX
  8
0
 10
38833.36361830915
 20
-5911.825073349743
  0
VERTEX
  8
0
 10
38824.77681840015
 20
-5911.314076656862
  0
VERTEX
  8
0
 10
38816.19040874804
 20
-5910.792917463378
  0
VERTEX
  8
0
 10
38807.60432431
 20
-5910.263289519395
  0
VERTEX
  8
0
 10
38799.01850004321
 20
-5909.726886575009
  0
VERTEX
  8
0
 10
38790.43287090487
 20
-5909.185402380323
  0
VERTEX
  8
0
 10
38781.84737185216
 20
-5908.640530685437
  0
VERTEX
  8
0
 10
38773.26193784225
 20
-5908.09396524045
  0
SEQEND
  8
0
  0
LINE
  8
0
 10
39048.26191519249
 20
-5926.646450335961
 11
39048.2616856457
 21
-6228.106305605473
  0
POLYLINE
  8
0
 66
     1
  0
VERTEX
  8
0
 10
39298.47635601511
 20
-6079.15878792632
 42
0.013323319944
  0
VERTEX
  8
0
 10
39048.26191519249
 20
-6071.727483020822
 42
0.013323319944
  0
VERTEX
  8
0
 10
38798.04747436988
 20
-6079.15878792632
  0
SEQEND
  8
0
  0
POLYLINE
  8
0
  6
CONTINUOUS
 66
     1
  0
VERTEX
  8
0
  6
CONTINUOUS
 10
38803.26192711341
 20
-6401.21838510661
  0
VERTEX
  8
0
  6
CONTINUOUS
 10
39048.26191519249
 20
-6401.21838510661
  0
VERTEX
  8
0
  6
CONTINUOUS
 10
39293.26190327158
 20
-6401.21838510661
  0
SEQEND
  8
0
  6
CONTINUOUS
  0
POLYLINE
  8
0
  6
CONTINUOUS
 66
     1
  0
VERTEX
  8
0
  6
CONTINUOUS
 10
38803.26192711341
 20
-6382.46499062209
  0
VERTEX
  8
0
  6
CONTINUOUS
 10
39048.26191519249
 20
-6382.46499062209
  0
VERTEX
  8
0
  6
CONTINUOUS
 10
39293.26190327158
 20
-6382.46499062209
  0
SEQEND
  8
0
  6
CONTINUOUS
  0
LINE
  8
0
 10
39048.26189135062
 20
-4879.912269140439
 11
39048.26189135062
 21
-5079.713687249994
  0
LINE
  8
0
  6
CONTINUOUS
 10
39048.26191519247
 20
-4864.71800368784
 11
39293.26192592131
 21
-4864.71800368784
  0
POLYLINE
  8
0
  6
CONTINUOUS
 66
     1
  0
VERTEX
  8
0
  6
CONTINUOUS
 10
39293.26192592131
 20
-4879.912269140439
  0
VERTEX
  8
0
  6
CONTINUOUS
 10
39293.26192592131
 20
-4856.027914700489
 42
-0.417429979052
  0
VERTEX
  8
0
  6
CONTINUOUS
 10
39295.26192997443
 20
-4854.027910647379
  0
VERTEX
  8
0
  6
CONTINUOUS
 10
39321.26192306029
 20
-4854.027910647379
 42
-0.416549880933
  0
VERTEX
  8
0
  6
CONTINUOUS
 10
39323.26190327155
 20
-4856.02100757663
  0
VERTEX
  8
0
  6
CONTINUOUS
 10
39323.26190327154
 20
-5528.18531344053
 42
-0.413931751342
  0
VERTEX
  8
0
  6
CONTINUOUS
 10
39293.33478330464
 20
-5558.09396524045
  0
VERTEX
  8
0
  6
CONTINUOUS
 10
39048.26191519247
 20
-5558.09396524045
  0
SEQEND
  8
0
  6
CONTINUOUS
  0
POLYLINE
  8
0
 66
     1
  0
VERTEX
  8
0
 10
39048.26189135062
 20
-4879.912269140439
  0
VERTEX
  8
0
 10
39298.25405385168
 20
-4879.912269140439
 42
-0.409923942773
  0
VERTEX
  8
0
 10
39323.26190327155
 20
-4907.317708955091
  0
SEQEND
  8
0
  0
POLYLINE
  8
0
 66
     1
  0
VERTEX
  8
0
 10
39323.26190327154
 20
-4952.67705195065
 42
-0.380733167307
  0
VERTEX
  8
0
 10
39283.44792256162
 20
-4998.176142789456
 42
-0.04117623948
  0
VERTEX
  8
0
 10
39048.26189135062
 20
-5020.56922770118
  0
SEQEND
  8
0
  0
POLYLINE
  8
0
 66
     1
  0
VERTEX
  8
0
 10
39323.26190327155
 20
-5036.210583288971
 42
-0.401694990331
  0
VERTEX
  8
0
 10
39286.90260049095
 20
-5072.814881041324
 42
-0.021814873476
  0
VERTEX
  8
0
 10
39051.8600976417
 20
-5083.545123386921
 42
-0.373392447689
  0
VERTEX
  8
0
 10
39048.26191519247
 20
-5079.713080727865
  0
SEQEND
  8
0
  0
POLYLINE
  8
0
  6
CONTINUOUS
 66
     1
  0
VERTEX
  8
0
  6
CONTINUOUS
 10
39323.26190327154
 20
-5528.18531344051
  0
VERTEX
  8
0
  6
CONTINUOUS
 10
39323.26190327152
 20
-5554.493015505041
  0
VERTEX
  8
0
  6
CONTINUOUS
 10
39323.26190327152
 20
-5554.495459295469
 42
-0.414424386707
  0
VERTEX
  8
0
  6
CONTINUOUS
 10
39321.26189135059
 20
-5556.4954337585
  0
VERTEX
  8
0
  6
CONTINUOUS
 10
39312.7818992184
 20
-5556.488102174959
 42
-0.437027272251
  0
VERTEX
  8
0
  6
CONTINUOUS
 10
39310.63123153377
 20
-5554.4954337585
  0
VERTEX
  8
0
  6
CONTINUOUS
 10
39310.63123379195
 20
-5552.59021381023
  0
SEQEND
  8
0
  6
CONTINUOUS
  0
ARC
  8
0
 10
39053.63098980029
 20
-2682.892709782808
 40
2245.863876348701
 50
269.863025102623
 51
276.895372538853
  0
POLYLINE
  8
0
 66
     1
  0
VERTEX
  8
0
 10
39874.44763209006
 20
-6322.864986837513
 42
0.41436330431
  0
VERTEX
  8
0
 10
39872.24931285286
 20
-6324.644950711971
  0
VERTEX
  8
0
 10
39836.4599668934
 20
-6664.82651730407
  0
VERTEX
  8
0
 10
39865.61816531183
 20
-6664.83054094063
  0
VERTEX
  8
0
 10
39917.3214309714
 20
-6327.371203397591
  0
SEQEND
  8
0
  0
POLYLINE
  8
0
 66
     1
  0
VERTEX
  8
0
 10
40383.82714546197
 20
-6291.519408629135
 42
0.455755160831
  0
VERTEX
  8
0
 10
40380.06976625224
 20
-6284.995233471242
  0
VERTEX
  8
0
 10
40365.9793649054
 20
-6282.238678525841
  0
SEQEND
  8
0
  0
POLYLINE
  8
0
 66
     1
  0
VERTEX
  8
0
 10
40334.23274794112
 20
-6279.14169077214
  0
VERTEX
  8
0
 10
40334.60782355408
 20
-6279.23129137864
  0
VERTEX
  8
0
 10
40334.98290437114
 20
-6279.320847673002
  0
VERTEX
  8
0
 10
40335.35799559636
 20
-6279.410315343086
  0
VERTEX
  8
0
 10
40335.73310243383
 20
-6279.499650076754
  0
VERTEX
  8
0
 10
40336.10823008763
 20
-6279.588807561865
  0
VERTEX
  8
0
 10
40336.48338376185
 20
-6279.677743486283
  0
VERTEX
  8
0
 10
40336.85856866057
 20
-6279.766413537867
  0
VERTEX
  8
0
 10
40337.23378998788
 20
-6279.85477340448
  0
VERTEX
  8
0
 10
40337.60905294785
 20
-6279.942778773981
  0
VERTEX
  8
0
 10
40337.98436274457
 20
-6280.030385334233
  0
VERTEX
  8
0
 10
40338.35972458212
 20
-6280.117548773094
  0
VERTEX
  8
0
 10
40338.73514366458
 20
-6280.20422477843
  0
VERTEX
  8
0
 10
40339.11062519605
 20
-6280.290369038099
  0
VERTEX
  8
0
 10
40339.4861743806
 20
-6280.375937239963
  0
VERTEX
  8
0
 10
40339.86179642232
 20
-6280.460885071882
  0
VERTEX
  8
0
 10
40340.23749652528
 20
-6280.545168221718
  0
VERTEX
  8
0
 10
40340.61327989358
 20
-6280.628742377333
  0
VERTEX
  8
0
 10
40340.98915173129
 20
-6280.711563226586
  0
VERTEX
  8
0
 10
40341.36511724251
 20
-6280.793586457341
  0
VERTEX
  8
0
 10
40341.7411816313
 20
-6280.874767757456
  0
VERTEX
  8
0
 10
40342.11735010177
 20
-6280.955062814795
  0
VERTEX
  8
0
 10
40342.49362785798
 20
-6281.034427317217
  0
VERTEX
  8
0
 10
40342.87002010402
 20
-6281.112816952585
  0
VERTEX
  8
0
 10
40343.24653204399
 20
-6281.190187408757
  0
VERTEX
  8
0
 10
40343.62316888195
 20
-6281.266494373597
  0
VERTEX
  8
0
 10
40343.99993582199
 20
-6281.341693534966
  0
VERTEX
  8
0
 10
40344.3768380682
 20
-6281.415740580724
  0
VERTEX
  8
0
 10
40344.75388082466
 20
-6281.488591198732
  0
VERTEX
  8
0
 10
40345.13106929545
 20
-6281.560201076853
  0
VERTEX
  8
0
 10
40345.50840868465
 20
-6281.630525902946
  0
VERTEX
  8
0
 10
40345.88590419636
 20
-6281.699521364872
  0
VERTEX
  8
0
 10
40346.26356103464
 20
-6281.767143150495
  0
VERTEX
  8
0
 10
40346.64138440359
 20
-6281.833346947674
  0
VERTEX
  8
0
 10
40347.0193795073
 20
-6281.89808844427
  0
VERTEX
  8
0
 10
40347.39755154983
 20
-6281.961323328143
  0
VERTEX
  8
0
 10
40347.77590573527
 20
-6282.023007287157
  0
VERTEX
  8
0
 10
40348.15444726773
 20
-6282.083096009173
  0
VERTEX
  8
0
 10
40348.53318135125
 20
-6282.141545182049
  0
VERTEX
  8
0
 10
40348.91211318995
 20
-6282.198310493649
  0
VERTEX
  8
0
 10
40349.29124798789
 20
-6282.253347631833
  0
VERTEX
  8
0
 10
40349.67059094917
 20
-6282.306612284462
  0
VERTEX
  8
0
 10
40350.05014727786
 20
-6282.358060139398
  0
VERTEX
  8
0
 10
40350.42992217805
 20
-6282.407646884501
  0
VERTEX
  8
0
 10
40350.80992085383
 20
-6282.455328207633
  0
VERTEX
  8
0
 10
40351.19014850926
 20
-6282.501059796654
  0
VERTEX
  8
0
 10
40351.57061034845
 20
-6282.544797339427
  0
VERTEX
  8
0
 10
40351.95131157546
 20
-6282.586496523812
  0
VERTEX
  8
0
 10
40352.3322573944
 20
-6282.626113037671
  0
VERTEX
  8
0
 10
40352.71345300932
 20
-6282.663602568862
  0
VERTEX
  8
0
 10
40353.09490362434
 20
-6282.69892080525
  0
VERTEX
  8
0
 10
40353.47661444351
 20
-6282.732023434694
  0
VERTEX
  8
0
 10
40353.85859067094
 20
-6282.762866145056
  0
VERTEX
  8
0
 10
40361.38428584325
 20
-6282.871941268883
  0
VERTEX
  8
0
 10
40376.27303290201
 20
-6278.695970769362
  0
VERTEX
  8
0
 10
40388.66260841508
 20
-6268.955353102062
  0
VERTEX
  8
0
 10
40396.05083976971
 20
-6256.019222655148
  0
SEQEND
  8
0
  0
POLYLINE
  8
0
  6
CONTINUOUS
 62
     4
 66
     1
  0
VERTEX
  8
0
  6
CONTINUOUS
 62
     4
 10
40476.12625834608
 20
-6141.671089167422
 42
-0.000000000012
  0
VERTEX
  8
0
  6
CONTINUOUS
 62
     4
 10
40476.12625828651
 20
-6141.671089164563
  0
SEQEND
  8
0
  6
CONTINUOUS
 62
     4
  0
POLYLINE
  8
0
 66
     1
  0
VERTEX
  8
0
 10
40359.50474649934
 20
-6362.156778441366
  0
VERTEX
  8
0
 10
40492.19936532959
 20
-5976.783622321504
 42
-0.414011700569
  0
VERTEX
  8
0
 10
40504.89066298492
 20
-5970.57740923957
  0
VERTEX
  8
0
 10
40519.28448853442
 20
-5975.533578159807
 42
-0.407762180568
  0
VERTEX
  8
0
 10
40525.5480005135
 20
-5988.049126360484
  0
VERTEX
  8
0
 10
40408.40634165182
 20
-6352.1708830377
 42
0.10592863243
  0
VERTEX
  8
0
 10
40400.04736868175
 20
-6437.81567598737
  0
VERTEX
  8
0
 10
40428.16665354773
 20
-6664.82651730407
  0
VERTEX
  8
0
 10
40398.34275566156
 20
-6664.82651730407
  0
VERTEX
  8
0
 10
40353.87098876984
 20
-6423.529830909726
  0
VERTEX
  8
0
 10
39909.74064049082
 20
-6376.849867868704
  0
SEQEND
  8
0
  0
POLYLINE
  8
0
 66
     1
  0
VERTEX
  8
0
 10
40391.26629284578
 20
-6090.33995691463
  0
VERTEX
  8
0
 10
40347.30541550715
 20
-6075.202262492284
 42
0.416524064188
  0
VERTEX
  8
0
 10
40340.92275052477
 20
-6078.27649837889
  0
VERTEX
  8
0
 10
40331.70862141788
 20
-6106.005792078305
 42
0.046471948007
  0
VERTEX
  8
0
 10
40301.38910868183
 20
-6271.479730029619
  0
SEQEND
  8
0
  0
POLYLINE
  8
0
 66
     1
  0
VERTEX
  8
0
 10
40347.30541550716
 20
-6075.202262492282
  0
VERTEX
  8
0
 10
40344.3172180239
 20
-6068.750529808564
  0
VERTEX
  8
0
 10
40344.93155602579
 20
-6067.266206566745
  0
VERTEX
  8
0
 10
40345.54595184298
 20
-6065.781867468797
  0
VERTEX
  8
0
 10
40346.16046193917
 20
-6064.297497029272
  0
VERTEX
  8
0
 10
40346.77514277805
 20
-6062.813079762722
  0
VERTEX
  8
0
 10
40347.39005082333
 20
-6061.3286001837
  0
VERTEX
  8
0
 10
40348.00524253873
 20
-6059.844042806758
  0
VERTEX
  8
0
 10
40348.62077438791
 20
-6058.359392146448
  0
VERTEX
  8
0
 10
40349.23670283461
 20
-6056.874632717323
  0
VERTEX
  8
0
 10
40349.8530843425
 20
-6055.389749033935
  0
VERTEX
  8
0
 10
40350.46997537531
 20
-6053.904725610835
  0
VERTEX
  8
0
 10
40351.08743239672
 20
-6052.419546962577
  0
VERTEX
  8
0
 10
40351.70551187044
 20
-6050.934197603713
  0
VERTEX
  8
0
 10
40352.32427026018
 20
-6049.448662048793
  0
VERTEX
  8
0
 10
40352.94376402962
 20
-6047.962924812372
  0
VERTEX
  8
0
 10
40353.56404964247
 20
-6046.476970409001
  0
VERTEX
  8
0
 10
40354.18518356245
 20
-6044.990783353232
  0
VERTEX
  8
0
 10
40354.80722225324
 20
-6043.504348159619
  0
VERTEX
  8
0
 10
40355.43022217855
 20
-6042.017649342713
  0
VERTEX
  8
0
 10
40356.05423980208
 20
-6040.530671417065
  0
VERTEX
  8
0
 10
40356.67933158753
 20
-6039.043398897229
  0
VERTEX
  8
0
 10
40357.3055539986
 20
-6037.555816297756
  0
VERTEX
  8
0
 10
40357.932963499
 20
-6036.0679081332
  0
VERTEX
  8
0
 10
40358.56161655242
 20
-6034.579658918112
  0
VERTEX
  8
0
 10
40359.19156962256
 20
-6033.091053167044
  0
VERTEX
  8
0
 10
40359.82287917313
 20
-6031.60207539455
  0
VERTEX
  8
0
 10
40360.45560166784
 20
-6030.11271011518
  0
VERTEX
  8
0
 10
40361.08979357037
 20
-6028.622941843486
  0
VERTEX
  8
0
 10
40361.72551134443
 20
-6027.132755094022
  0
VERTEX
  8
0
 10
40362.36281145374
 20
-6025.642134381342
  0
VERTEX
  8
0
 10
40363.00175036197
 20
-6024.151064219994
  0
VERTEX
  8
0
 10
40363.64238453284
 20
-6022.659529124532
  0
VERTEX
  8
0
 10
40364.28477043005
 20
-6021.16751360951
  0
VERTEX
  8
0
 10
40364.9289645173
 20
-6019.675002189477
  0
VERTEX
  8
0
 10
40365.57502325828
 20
-6018.181979378988
  0
VERTEX
  8
0
 10
40366.22300311671
 20
-6016.688429692594
  0
VERTEX
  8
0
 10
40366.87296055628
 20
-6015.194337644847
  0
VERTEX
  8
0
 10
40367.5249520407
 20
-6013.6996877503
  0
VERTEX
  8
0
 10
40368.17903403367
 20
-6012.204464523506
  0
VERTEX
  8
0
 10
40368.83526299888
 20
-6010.708652479015
  0
VERTEX
  8
0
 10
40369.49369540003
 20
-6009.21223613138
  0
VERTEX
  8
0
 10
40370.15438770084
 20
-6007.715199995155
  0
VERTEX
  8
0
 10
40370.817396365
 20
-6006.21752858489
  0
VERTEX
  8
0
 10
40371.48277785622
 20
-6004.719206415139
  0
VERTEX
  8
0
 10
40372.15058863819
 20
-6003.220218000452
  0
VERTEX
  8
0
 10
40372.82090361076
 20
-6001.720575170299
  0
VERTEX
  8
0
 10
40373.49394966533
 20
-6000.220514944223
  0
VERTEX
  8
0
 10
40374.17002850171
 20
-5998.720385177571
  0
VERTEX
  8
0
 10
40374.849442342
 20
-5997.220534499575
  0
VERTEX
  8
0
 10
40375.53249340835
 20
-5995.721311539472
  0
VERTEX
  8
0
 10
40376.21948392288
 20
-5994.2230649265
  0
VERTEX
  8
0
 10
40376.91071610773
 20
-5992.726143289893
  0
VERTEX
  8
0
 10
40377.606492185
 20
-5991.230895258887
  0
VERTEX
  8
0
 10
40378.30711437685
 20
-5989.73766946272
  0
VERTEX
  8
0
 10
40379.01288490539
 20
-5988.246814530627
  0
VERTEX
  8
0
 10
40379.72410599276
 20
-5986.758679091841
  0
VERTEX
  8
0
 10
40380.44107986108
 20
-5985.273611775603
  0
VERTEX
  8
0
 10
40381.16410873247
 20
-5983.791961211145
  0
VERTEX
  8
0
 10
40381.89349482908
 20
-5982.314076027707
  0
VERTEX
  8
0
 10
40382.62954037302
 20
-5980.840304854521
  0
VERTEX
  8
0
 10
40383.37254758642
 20
-5979.370996320826
  0
VERTEX
  8
0
 10
40384.12281869142
 20
-5977.906499055855
  0
VERTEX
  8
0
 10
40384.88065591014
 20
-5976.447161688848
  0
VERTEX
  8
0
 10
40385.64636146471
 20
-5974.993332849038
  0
VERTEX
  8
0
 10
40386.42023757726
 20
-5973.54536116566
  0
VERTEX
  8
0
 10
40387.20258646992
 20
-5972.103595267955
  0
VERTEX
  8
0
 10
40387.9937103648
 20
-5970.668383785153
  0
VERTEX
  8
0
 10
40388.79391148406
 20
-5969.240075346494
  0
VERTEX
  8
0
 10
40389.60349204979
 20
-5967.819018581214
  0
VERTEX
  8
0
 10
40390.42275428415
 20
-5966.405562118546
  0
VERTEX
  8
0
 10
40391.25200040927
 20
-5965.00005458773
  0
VERTEX
  8
0
 10
40392.09153264725
 20
-5963.602844617998
  0
VERTEX
  8
0
 10
40392.94165322024
 20
-5962.214280838589
  0
VERTEX
  8
0
 10
40393.80266435036
 20
-5960.834711878738
  0
VERTEX
  8
0
 10
40394.67486825975
 20
-5959.464486367681
  0
VERTEX
  8
0
 10
40395.55856717052
 20
-5958.103952934654
  0
VERTEX
  8
0
 10
40396.45406330481
 20
-5956.753460208892
  0
VERTEX
  8
0
 10
40397.36165888474
 20
-5955.413356819634
  0
VERTEX
  8
0
 10
40398.28165613245
 20
-5954.083991396112
  0
VERTEX
  8
0
 10
40399.21435727007
 20
-5952.765712567566
  0
VERTEX
  8
0
 10
40400.1600645197
 20
-5951.458868963229
  0
VERTEX
  8
0
 10
40401.1190801035
 20
-5950.163809212338
  0
VERTEX
  8
0
 10
40402.09170624359
 20
-5948.88088194413
  0
VERTEX
  8
0
 10
40403.07824516209
 20
-5947.61043578784
  0
VERTEX
  8
0
 10
40404.07899908115
 20
-5946.352819372703
  0
VERTEX
  8
0
 10
40405.09427022286
 20
-5945.108381327957
  0
VERTEX
  8
0
 10
40406.12436080939
 20
-5943.877470282839
  0
VERTEX
  8
0
 10
40407.16957306283
 20
-5942.660434866581
  0
VERTEX
  8
0
 10
40408.23020920534
 20
-5941.457623708421
  0
VERTEX
  8
0
 10
40409.30657145903
 20
-5940.269385437597
  0
VERTEX
  8
0
 10
40410.39896204603
 20
-5939.096068683342
  0
VERTEX
  8
0
 10
40411.50768318847
 20
-5937.938022074894
  0
VERTEX
  8
0
 10
40412.6330371085
 20
-5936.795594241487
  0
VERTEX
  8
0
 10
40413.77532602822
 20
-5935.66913381236
  0
VERTEX
  8
0
 10
40414.93485055161
 20
-5934.558987806422
  0
VERTEX
  8
0
 10
40416.11153592791
 20
-5933.465129700001
  0
VERTEX
  8
0
 10
40417.30445348797
 20
-5932.386683173851
  0
VERTEX
  8
0
 10
40418.51255642842
 20
-5931.322654344779
  0
VERTEX
  8
0
 10
40419.73479794584
 20
-5930.27204932959
  0
VERTEX
  8
0
 10
40420.97013123684
 20
-5929.233874245091
  0
VERTEX
  8
0
 10
40422.21750949801
 20
-5928.207135208089
  0
VERTEX
  8
0
 10
40423.47588592597
 20
-5927.190838335391
  0
VERTEX
  8
0
 10
40424.74421371728
 20
-5926.183989743801
  0
VERTEX
  8
0
 10
40426.02144606857
 20
-5925.185595550129
  0
VERTEX
  8
0
 10
40427.30653617641
 20
-5924.194661871179
  0
VERTEX
  8
0
 10
40428.59843723743
 20
-5923.210194823758
  0
VERTEX
  8
0
 10
40429.89610244822
 20
-5922.231200524673
  0
VERTEX
  8
0
 10
40431.19848500535
 20
-5921.256685090731
  0
VERTEX
  8
0
 10
40432.50453810546
 20
-5920.285654638736
  0
VERTEX
  8
0
 10
40433.81321494513
 20
-5919.317115285497
  0
VERTEX
  8
0
 10
40435.12346872094
 20
-5918.350073147822
  0
VERTEX
  8
0
 10
40477.67132936094
 20
-5908.898475860473
  0
SEQEND
  8
0
  0
POLYLINE
  8
0
 66
     1
  0
VERTEX
  8
0
 10
40492.19936532959
 20
-5976.783622321504
  0
VERTEX
  8
0
 10
40496.61517571779
 20
-5961.472540673561
 42
0.370477324366
  0
VERTEX
  8
0
 10
40477.67132936096
 20
-5908.898475860477
  0
SEQEND
  8
0
  0
DIMENSION
  8
1DIM
  2
*D397
 10
39323.26190446367
 20
-6814.82651730407
 11
39048.2619151925
 21
-6765.82651730407
 70
    32
 13
38773.26192592132
 23
-6664.82651730407
 33
0.0
 14
39323.26190446367
 24
-6664.82651730407
 34
0.0
  0
DIMENSION
  8
1DIM
  2
*D398
 10
38623.26192592132
 20
-6664.82651730407
 11
38574.26192592132
 21
-6446.466411454765
 70
    32
  1
440
 13
38773.26193784225
 23
-6228.106305605461
 33
0.0
 14
38773.26192592132
 24
-6664.82651730407
 34
0.0
 50
90.0
  0
DIMENSION
  8
1DIM
  2
*D401
 10
40526.02606814912
 20
-6814.82651730407
 11
40174.64059952814
 21
-6765.82651730407
 70
    32
  1
705
 13
39823.25513090715
 23
-6664.82651730407
 33
0.0
 14
40526.02606814912
 24
-6664.82651730407
 34
0.0
  0
DIMENSION
  8
1DIM
  2
*D402
 10
40298.5110035476
 20
-5758.09396524045
 11
40060.88306722738
 21
-5709.09396524045
 70
    32
 13
39823.25513090715
 23
-5908.09396524045
 33
0.0
 14
40298.5110035476
 24
-5908.09396524045
 34
0.0
  0
DIMENSION
  8
1DIM
  2
*D403
 10
40676.02606814912
 20
-6664.82651730407
 11
40627.02606814912
 21
-6286.46024127226
 70
    32
 13
40526.02606814912
 23
-5908.09396524045
 33
0.0
 14
40526.02606814912
 24
-6664.82651730407
 34
0.0
 50
90.0
  0
POLYLINE
  8
0
 66
     1
  0
VERTEX
  8
0
 10
40462.30060861373
 20
-5908.170034678923
 42
0.022656483898
  0
VERTEX
  8
0
 10
40388.3533420636
 20
-6099.05673554222
 42
0.021476189103
  0
VERTEX
  8
0
 10
40334.23274794112
 20
-6279.14169077214
  0
SEQEND
  8
0
  0
POLYLINE
  8
0
 66
     1
  0
VERTEX
  8
0
 10
40359.50474649934
 20
-6362.156778441366
  0
VERTEX
  8
0
 10
40359.34113739517
 20
-6362.607180516269
  0
VERTEX
  8
0
 10
40359.16136558681
 20
-6363.056669332381
  0
VERTEX
  8
0
 10
40358.96525177481
 20
-6363.504440397277
  0
VERTEX
  8
0
 10
40358.75266655012
 20
-6363.949663332733
  0
VERTEX
  8
0
 10
40358.5235335716
 20
-6364.39148548753
  0
VERTEX
  8
0
 10
40358.27783245395
 20
-6364.829035953148
  0
VERTEX
  8
0
 10
40358.01560131127
 20
-6365.261429958266
  0
VERTEX
  8
0
 10
40357.73693890277
 20
-6365.687773609841
  0
VERTEX
  8
0
 10
40357.44200633134
 20
-6366.107168940547
  0
VERTEX
  8
0
 10
40357.13102824886
 20
-6366.518719214542
  0
VERTEX
  8
0
 10
40356.80429352905
 20
-6366.921534436377
  0
VERTEX
  8
0
 10
40356.46215537477
 20
-6367.314737001316
  0
VERTEX
  8
0
 10
40356.10503083534
 20
-6367.697467419896
  0
VERTEX
  8
0
 10
40355.73339971826
 20
-6368.068890045261
  0
VERTEX
  8
0
 10
40355.3478028897
 20
-6368.42819872888
  0
VERTEX
  8
0
 10
40354.94883996869
 20
-6368.77462232897
  0
VERTEX
  8
0
 10
40354.53716643011
 20
-6369.107429996153
  0
VERTEX
  8
0
 10
40354.11349014315
 20
-6369.425936162946
  0
VERTEX
  8
0
 10
40353.67856738124
 20
-6369.729505167277
  0
VERTEX
  8
0
 10
40353.23319835014
 20
-6370.017555445635
  0
VERTEX
  8
0
 10
40352.77822228905
 20
-6370.289563238192
  0
VERTEX
  8
0
 10
40352.31451220762
 20
-6370.545065756522
  0
VERTEX
  8
0
 10
40351.84296932821
 20
-6370.783663773755
  0
VERTEX
  8
0
 10
40351.36451730701
 20
-6371.005023607242
  0
VERTEX
  8
0
 10
40350.88009631124
 20
-6371.208878474545
  0
VERTEX
  8
0
 10
40350.39065703084
 20
-6371.395029214574
  0
VERTEX
  8
0
 10
40349.89715470246
 20
-6371.563344376746
  0
VERTEX
  8
0
 10
40349.40054322174
 20
-6371.713759691666
  0
VERTEX
  8
0
 10
40348.90176941625
 20
-6371.846276946948
  0
VERTEX
  8
0
 10
40348.4017675458
 20
-6371.960962300896
  0
VERTEX
  8
0
 10
40347.90145409127
 20
-6372.057944075059
  0
VERTEX
  8
0
 10
40347.40172288525
 20
-6372.137410073376
  0
VERTEX
  8
0
 10
40346.90344062975
 20
-6372.199604481351
  0
VERTEX
  8
0
 10
40346.40744283772
 20
-6372.244824402672
  0
VERTEX
  8
0
 10
40345.91453022615
 20
-6372.273416093454
  0
VERTEX
  8
0
 10
40345.42546557984
 20
-6372.285770955548
  0
VERTEX
  8
0
 10
40344.94097109608
 20
-6372.282321350262
  0
VERTEX
  8
0
 10
40344.46172621211
 20
-6372.263536292565
  0
VERTEX
  8
0
 10
40328.30295907446
 20
-6370.567110143117
  0
VERTEX
  8
0
 10
40310.71785708456
 20
-6368.718840966048
  0
VERTEX
  8
0
 10
40293.13275509468
 20
-6366.870571788977
  0
VERTEX
  8
0
 10
40275.54765310478
 20
-6365.022302611908
  0
VERTEX
  8
0
 10
40257.96255111488
 20
-6363.174033434837
  0
VERTEX
  8
0
 10
40240.37744912501
 20
-6361.325764257768
  0
VERTEX
  8
0
 10
40222.79234713511
 20
-6359.477495080697
  0
VERTEX
  8
0
 10
40205.20724514521
 20
-6357.629225903627
  0
VERTEX
  8
0
 10
40187.62214315533
 20
-6355.780956726557
  0
VERTEX
  8
0
 10
40170.03704116544
 20
-6353.932687549487
  0
VERTEX
  8
0
 10
40152.45193917554
 20
-6352.084418372417
  0
VERTEX
  8
0
 10
40134.86683718566
 20
-6350.236149195347
  0
VERTEX
  8
0
 10
40117.28173519576
 20
-6348.387880018277
  0
VERTEX
  8
0
 10
40099.69663320587
 20
-6346.539610841206
  0
VERTEX
  8
0
 10
40082.11153121599
 20
-6344.691341664136
  0
VERTEX
  8
0
 10
40064.52642922609
 20
-6342.843072487066
  0
VERTEX
  8
0
 10
40046.94132723619
 20
-6340.994803309995
  0
VERTEX
  8
0
 10
40029.35622524632
 20
-6339.146534132926
  0
VERTEX
  8
0
 10
40011.77112325642
 20
-6337.298264955855
  0
VERTEX
  8
0
 10
39994.18602126652
 20
-6335.449995778786
  0
VERTEX
  8
0
 10
39976.60091927664
 20
-6333.601726601715
  0
VERTEX
  8
0
 10
39959.01581728675
 20
-6331.753457424646
  0
VERTEX
  8
0
 10
39941.43071529685
 20
-6329.905188247575
  0
VERTEX
  8
0
 10
39923.84561330695
 20
-6328.056919070506
  0
VERTEX
  8
0
 10
39906.26051131707
 20
-6326.208649893435
  0
VERTEX
  8
0
 10
39888.67540932717
 20
-6324.360380716365
  0
VERTEX
  8
0
 10
39871.09030733728
 20
-6322.512111539294
  0
VERTEX
  8
0
 10
39853.5052053474
 20
-6320.663842362225
  0
VERTEX
  8
0
 10
39835.9201033575
 20
-6318.815573185154
  0
VERTEX
  8
0
 10
39827.61733185041
 20
-6317.942308653132
  0
VERTEX
  8
0
 10
39827.45235038971
 20
-6317.91954641168
  0
VERTEX
  8
0
 10
39827.28727007403
 20
-6317.891111192777
  0
VERTEX
  8
0
 10
39827.12237808095
 20
-6317.856958101349
  0
VERTEX
  8
0
 10
39826.95796700612
 20
-6317.817061388288
  0
VERTEX
  8
0
 10
39826.7943332787
 20
-6317.771415082351
  0
VERTEX
  8
0
 10
39826.63177549776
 20
-6317.720033465017
  0
VERTEX
  8
0
 10
39826.47059270791
 20
-6317.662951377481
  0
VERTEX
  8
0
 10
39826.31108263398
 20
-6317.600224351459
  0
VERTEX
  8
0
 10
39826.15353989573
 20
-6317.531928558071
  0
VERTEX
  8
0
 10
39825.99825422461
 20
-6317.458160572018
  0
VERTEX
  8
0
 10
39825.84550870474
 20
-6317.379036951318
  0
VERTEX
  8
0
 10
39825.69557806044
 20
-6317.294693635846
  0
VERTEX
  8
0
 10
39825.54872701183
 20
-6317.205285171053
  0
VERTEX
  8
0
 10
39825.40520871922
 20
-6317.110983766143
  0
VERTEX
  8
0
 10
39825.2652633354
 20
-6317.01197819869
  0
VERTEX
  8
0
 10
39825.12911668317
 20
-6316.90847258026
  0
VERTEX
  8
0
 10
39824.99697907304
 20
-6316.80068499963
  0
VERTEX
  8
0
 10
39824.86904427386
 20
-6316.688846062092
  0
VERTEX
  8
0
 10
39824.74548864603
 20
-6316.573197344583
  0
VERTEX
  8
0
 10
39824.62647044432
 20
-6316.453989787393
  0
VERTEX
  8
0
 10
39824.51212929431
 20
-6316.331482043571
  0
VERTEX
  8
0
 10
39824.40258584356
 20
-6316.2059388072
  0
VERTEX
  8
0
 10
39824.2978353748
 20
-6316.077494402315
  0
VERTEX
  8
0
 10
39824.19701561557
 20
-6315.9451081644
  0
VERTEX
  8
0
 10
39824.10011276737
 20
-6315.808626400101
  0
VERTEX
  8
0
 10
39824.00736250653
 20
-6315.668218481328
  0
VERTEX
  8
0
 10
39823.91899098502
 20
-6315.524071209391
  0
VERTEX
  8
0
 10
39823.83521325851
 20
-6315.376388161288
  0
VERTEX
  8
0
 10
39823.75623176715
 20
-6315.225388868702
  0
VERTEX
  8
0
 10
39823.68223488955
 20
-6315.071307834598
  0
VERTEX
  8
0
 10
39823.61339559007
 20
-6314.914393395132
  0
VERTEX
  8
0
 10
39823.54987017848
 20
-6314.754906437453
  0
VERTEX
  8
0
 10
39823.49179719943
 20
-6314.593118986554
  0
VERTEX
  8
0
 10
39823.43929646792
 20
-6314.429312676849
  0
VERTEX
  8
0
 10
39823.3924682642
 20
-6314.263777126236
  0
VERTEX
  8
0
 10
39823.35139269925
 20
-6314.096808232271
  0
VERTEX
  8
0
 10
39823.31612925936
 20
-6313.928706411429
  0
VERTEX
  8
0
 10
39823.28671653506
 20
-6313.759774803428
  0
VERTEX
  8
0
 10
39823.2631721369
 20
-6313.590317463069
  0
VERTEX
  8
0
 10
39823.2454927972
 20
-6313.420637562039
  0
VERTEX
  8
0
 10
39823.23365465411
 20
-6313.251035622695
  0
VERTEX
  8
0
 10
39823.22761371107
 20
-6313.081807804915
  0
VERTEX
  8
0
 10
39823.22730646255
 20
-6312.913244265763
  0
VERTEX
  8
0
 10
39823.23265067393
 20
-6312.745627609999
  0
VERTEX
  8
0
 10
39823.24354630181
 20
-6312.579231447474
  0
VERTEX
  8
0
 10
39823.32915555761
 20
-6311.752593691574
  0
VERTEX
  8
0
 10
39823.6148579902
 20
-6309.034318445028
  0
VERTEX
  8
0
 10
39823.90056042278
 20
-6306.316043198479
  0
VERTEX
  8
0
 10
39824.18626285535
 20
-6303.597767951933
  0
VERTEX
  8
0
 10
39824.47196528794
 20
-6300.879492705387
  0
VERTEX
  8
0
 10
39824.7576677205
 20
-6298.161217458841
  0
VERTEX
  8
0
 10
39825.04337015309
 20
-6295.442942212292
  0
VERTEX
  8
0
 10
39825.32907258566
 20
-6292.724666965746
  0
VERTEX
  8
0
 10
39825.61477501824
 20
-6290.0063917192
  0
VERTEX
  8
0
 10
39825.90047745081
 20
-6287.288116472654
  0
VERTEX
  8
0
 10
39826.18617988339
 20
-6284.569841226105
  0
VERTEX
  8
0
 10
39826.47188231596
 20
-6281.851565979559
  0
VERTEX
  8
0
 10
39826.75758474854
 20
-6279.133290733013
  0
VERTEX
  8
0
 10
39827.04328718111
 20
-6276.415015486467
  0
VERTEX
  8
0
 10
39827.32898961369
 20
-6273.696740239919
  0
VERTEX
  8
0
 10
39827.61469204626
 20
-6270.978464993373
  0
VERTEX
  8
0
 10
39827.90039447884
 20
-6268.260189746827
  0
VERTEX
  8
0
 10
39828.18609691141
 20
-6265.541914500281
  0
VERTEX
  8
0
 10
39828.47179934399
 20
-6262.823639253732
  0
VERTEX
  8
0
 10
39828.75750177656
 20
-6260.105364007186
  0
VERTEX
  8
0
 10
39829.04320420914
 20
-6257.38708876064
  0
VERTEX
  8
0
 10
39829.32890664171
 20
-6254.668813514094
  0
VERTEX
  8
0
 10
39829.6146090743
 20
-6251.950538267545
  0
VERTEX
  8
0
 10
39829.90031150686
 20
-6249.232263020999
  0
VERTEX
  8
0
 10
39830.18601393945
 20
-6246.513987774453
  0
VERTEX
  8
0
 10
39830.47171637201
 20
-6243.795712527904
  0
VERTEX
  8
0
 10
39830.7574188046
 20
-6241.077437281358
  0
VERTEX
  8
0
 10
39831.04312123716
 20
-6238.359162034812
  0
VERTEX
  8
0
 10
39831.32882366975
 20
-6235.640886788266
  0
VERTEX
  8
0
 10
39831.61452610231
 20
-6232.922611541718
  0
VERTEX
  8
0
 10
39831.66627415216
 20
-6232.448486391338
  0
VERTEX
  8
0
 10
39831.68946811512
 20
-6232.292943167827
  0
VERTEX
  8
0
 10
39831.71788806318
 20
-6232.136433171431
  0
VERTEX
  8
0
 10
39831.75166333398
 20
-6231.979194391009
  0
VERTEX
  8
0
 10
39831.79091032824
 20
-6231.82147804151
  0
VERTEX
  8
0
 10
39831.8357311109
 20
-6231.663547813988
  0
VERTEX
  8
0
 10
39831.88621204886
 20
-6231.505678965573
  0
VERTEX
  8
0
 10
39831.94242250555
 20
-6231.348157249009
  0
VERTEX
  8
0
 10
39832.0044136129
 20
-6231.191277683962
  0
VERTEX
  8
0
 10
39832.07221714152
 20
-6231.035343175184
  0
VERTEX
  8
0
 10
39832.14584448991
 20
-6230.880662985706
  0
VERTEX
  8
0
 10
39832.22528581294
 20
-6230.727551076204
  0
VERTEX
  8
0
 10
39832.31050930854
 20
-6230.57632432483
  0
VERTEX
  8
0
 10
39832.40146068036
 20
-6230.427300644747
  0
VERTEX
  8
0
 10
39832.49806279138
 20
-6230.280797019324
  0
VERTEX
  8
0
 10
39832.60021552166
 20
-6230.137127477533
  0
VERTEX
  8
0
 10
39832.70779583972
 20
-6229.996601034093
  0
VERTEX
  8
0
 10
39832.8206580942
 20
-6229.859519620649
  0
VERTEX
  8
0
 10
39832.9386345282
 20
-6229.726176035335
  0
VERTEX
  8
0
 10
39833.06153601543
 20
-6229.596851938655
  0
VERTEX
  8
0
 10
39833.18915301267
 20
-6229.471815923519
  0
VERTEX
  8
0
 10
39833.3212567197
 20
-6229.351321686526
  0
VERTEX
  8
0
 10
39833.45760043342
 20
-6229.235606326276
  0
VERTEX
  8
0
 10
39833.59792107969
 20
-6229.124888792453
  0
VERTEX
  8
0
 10
39833.7419409029
 20
-6229.019368506938
  0
VERTEX
  8
0
 10
39833.88936929048
 20
-6228.919224175117
  0
VERTEX
  8
0
 10
39834.03990470747
 20
-6228.824612802186
  0
VERTEX
  8
0
 10
39834.19323671425
 20
-6228.735668925397
  0
VERTEX
  8
0
 10
39834.34904803956
 20
-6228.652504069298
  0
VERTEX
  8
0
 10
39834.50701668065
 20
-6228.575206426976
  0
VERTEX
  8
0
 10
39834.66681800217
 20
-6228.503840766244
  0
VERTEX
  8
0
 10
39834.82812680694
 20
-6228.438448555904
  0
VERTEX
  8
0
 10
39834.99061935227
 20
-6228.379048303555
  0
VERTEX
  8
0
 10
39835.15397528819
 20
-6228.3256360931
  0
VERTEX
  8
0
 10
39835.31787949586
 20
-6228.278186307276
  0
VERTEX
  8
0
 10
39835.48202380705
 20
-6228.236652518016
  0
VERTEX
  8
0
 10
39835.64610858922
 20
-6228.200968525643
  0
VERTEX
  8
0
 10
39835.80984418272
 20
-6228.171049526352
  0
VERTEX
  8
0
 10
39835.97295218096
 20
-6228.146793386705
  0
VERTEX
  8
0
 10
39836.13516654688
 20
-6228.128082003371
  0
VERTEX
  8
0
 10
39836.29623456221
 20
-6228.114782726502
  0
VERTEX
  8
0
 10
39836.45591760924
 20
-6228.1067498257
  0
VERTEX
  8
0
 10
39836.61399178697
 20
-6228.103825978335
  0
VERTEX
  8
0
 10
39836.77024836657
 20
-6228.10584376139
  0
VERTEX
  8
0
 10
40137.74553821485
 20
-6244.883675535646
  0
VERTEX
  8
0
 10
40187.27486042553
 20
-6250.934451078827
  0
VERTEX
  8
0
 10
40236.58951511537
 20
-6258.670588376421
  0
VERTEX
  8
0
 10
40285.60370797024
 20
-6268.079222895817
  0
VERTEX
  8
0
 10
40334.23274794112
 20
-6279.14169077214
  0
SEQEND
  8
0
  0
ENDSEC
  0
EOF
