  0
SECTION
  2
HEADER
  9
$ACADVER
  1
AC1004
  9
$INSBASE
 10
0.0
 20
0.0
  9
$EXTMIN
 10
38485.2618806218
 20
-6834.82651730407
  9
$EXTMAX
 10
40696.03284170564
 20
-4854.027878241732
  9
$LIMMIN
 10
0.0
 20
0.0
  9
$LIMMAX
 10
12.0
 20
9.0
  9
$ORTHOMODE
 70
     0
  9
$REGENMODE
 70
     1
  9
$FILLMODE
 70
     1
  9
$QTEXTMODE
 70
     0
  9
$DRAGMODE
 70
     2
  9
$LTSCALE
 40
0.5
  9
$OSMODE
 70
  2175
  9
$ATTMODE
 70
     1
  9
$TEXTSIZE
 40
4.0
  9
$TRACEWID
 40
0.05
  9
$TEXTSTYLE
  7
STANDARD
  9
$CLAYER
  8
0
  9
$CELTYPE
  6
BYLAYER
  9
$CECOLOR
 62
   256
  9
$DIMSCALE
 40
20.0
  9
$DIMASZ
 40
2.0
  9
$DIMEXO
 40
0.0
  9
$DIMDLI
 40
7.0
  9
$DIMRND
 40
0.0
  9
$DIMDLE
 40
0.0
  9
$DIMEXE
 40
1.0
  9
$DIMTP
 40
0.0
  9
$DIMTM
 40
0.0
  9
$DIMTXT
 40
3.5
  9
$DIMCEN
 40
0.0
  9
$DIMTSZ
 40
0.0
  9
$DIMTOL
 70
     0
  9
$DIMLIM
 70
     0
  9
$DIMTIH
 70
     0
  9
$DIMTOH
 70
     0
  9
$DIMSE1
 70
     0
  9
$DIMSE2
 70
     0
  9
$DIMTAD
 70
     1
  9
$DIMZIN
 70
     8
  9
$DIMBLK
  1

  9
$DIMASO
 70
     1
  9
$DIMSHO
 70
     1
  9
$DIMPOST
  1
 
  9
$DIMAPOST
  1

  9
$DIMALT
 70
     0
  9
$DIMALTD
 70
     2
  9
$DIMALTF
 40
25.4
  9
$DIMLFAC
 40
1.0
  9
$DIMTOFL
 70
     1
  9
$DIMTVP
 40
0.0
  9
$DIMTIX
 70
     0
  9
$DIMSOXD
 70
     0
  9
$DIMSAH
 70
     1
  9
$DIMBLK1
  1
OPEN30
  9
$DIMBLK2
  1
OPEN30
  9
$LUNITS
 70
     2
  9
$LUPREC
 70
     4
  9
$SKETCHINC
 40
0.1
  9
$FILLETRAD
 40
5.8
  9
$AUNITS
 70
     0
  9
$AUPREC
 70
     2
  9
$MENU
  1
acad
  9
$ELEVATION
 40
0.0
  9
$THICKNESS
 40
0.0
  9
$LIMCHECK
 70
     0
  9
$CHAMFERA
 40
0.0
  9
$CHAMFERB
 40
0.0
  9
$SKPOLY
 70
     0
  9
$TDCREATE
 40
2448750.487089225
  9
$TDUPDATE
 40
2459428.664055729
  9
$TDINDWG
 40
2.4254497569
  9
$TDUSRTIMER
 40
2.4254497569
  9
$USRTIMER
 70
     1
  9
$ANGBASE
 50
0.0
  9
$ANGDIR
 70
     0
  9
$PDMODE
 70
     0
  9
$PDSIZE
 40
0.0
  9
$PLINEWID
 40
1.0
  9
$COORDS
 70
     2
  9
$SPLFRAME
 70
     0
  9
$SPLINETYPE
 70
     6
  9
$SPLINESEGS
 70
     8
  9
$ATTDIA
 70
     0
  9
$ATTREQ
 70
     1
  9
$SURFTAB1
 70
     6
  9
$SURFTAB2
 70
     6
  9
$SURFTYPE
 70
     6
  9
$SURFU
 70
     6
  9
$SURFV
 70
     6
  9
$UCSNAME
  2

  9
$UCSORG
 10
0.0
 20
0.0
 30
0.0
  9
$UCSXDIR
 10
1.0
 20
0.0
 30
0.0
  9
$UCSYDIR
 10
0.0
 20
1.0
 30
0.0
  9
$USERI1
 70
     0
  9
$USERI2
 70
     0
  9
$USERI3
 70
     0
  9
$USERI4
 70
     0
  9
$USERI5
 70
     0
  9
$USERR1
 40
0.0
  9
$USERR2
 40
0.0
  9
$USERR3
 40
0.0
  9
$USERR4
 40
0.0
  9
$USERR5
 40
0.0
  9
$WORLDVIEW
 70
     1
  0
ENDSEC
  0
SECTION
  2
TABLES
  0
TABLE
  2
LTYPE
 70
    12
  0
LTYPE
  2
CONTINUOUS
 70
     0
  3
Solid line
 72
    65
 73
     0
 40
0.0
  0
LTYPE
  2
HIDDEN
 70
     0
  3
Hidden __ __ __ __ __ __ __ __ __ __ __ __ __ _
 72
    65
 73
     2
 40
9.525
 49
6.35
 49
-3.175
  0
LTYPE
  2
PHANTOM2
 70
     0
  3
Phantom (0.5x) ___ _ _ ___ _ _ ___ _ _ ___ _ _
 72
    65
 73
     6
 40
31.75
 49
15.875
 49
-3.175
 49
3.175
 49
-3.175
 49
3.175
 49
-3.175
  0
LTYPE
  2
CENTER2
 70
     0
  3
Center (.5x) ___ _ ___ _ ___ _ ___ _ ___ _ ___
 72
    65
 73
     4
 40
28.575
 49
19.05
 49
-3.175
 49
3.175
 49
-3.175
  0
LTYPE
  2
HADAN
 70
     0
  3
Hadansen
 72
    65
 73
     4
 40
58.0
 49
50.0
 49
-2.0
 49
-4.0
 49
-2.0
  0
LTYPE
  2
BATTING
 70
     0
  3
Batting SSSSSSSSSSSSSSSSSSSSSSSSSSSSSSSSSSSSSSS
 72
    65
 73
     4
 40
10.16254
 49
0.00254
 49
-2.54
 49
-5.08
 49
-2.54
  0
LTYPE
  2
DASHED2
 70
     0
  3
Dashed (0.5x) _ _ _ _ _ _ _ _ _ _ _ _ _ _ _ _ _
 72
    65
 73
     2
 40
9.525
 49
6.35
 49
-3.175
  0
LTYPE
  2
FENCELINE1
 70
     0
  3
Fenceline circle -0-----0----0-----0----0-----0
 72
    65
 73
     4
 40
36.83
 49
3.81
 49
-2.54
 49
-2.54
 49
27.94
  0
LTYPE
  2
FENCELINE2
 70
     0
  3
Fenceline square -[]-----[]----[]-----[]----[]-
 72
    65
 73
     4
 40
36.83
 49
3.81
 49
-2.54
 49
-2.54
 49
27.94
  0
LTYPE
  2
TRACKS
 70
     0
  3
Tracks -|-|-|-|-|-|-|-|-|-|-|-|-|-|-|-|-|-|-|-|
 72
    65
 73
     2
 40
7.62
 49
3.81
 49
3.81
  0
LTYPE
  2
ZIGZAG
 70
     0
  3
Zig zag /\/\/\/\/\/\/\/\/\/\/\/\/\/\/\/\/\/\/\/
 72
    65
 73
     4
 40
20.32254
 49
0.00254
 49
-5.08
 49
-10.16
 49
-5.08
  0
LTYPE
  2
BORDER2
 70
     0
  3
Border (0.5x) __.__.__.__.__.__.__.__.__.__.__.
 72
    65
 73
     6
 40
22.225
 49
6.35
 49
-3.175
 49
6.35
 49
-3.175
 49
0.0
 49
-3.175
  0
ENDTAB
  0
TABLE
  2
LAYER
 70
    38
  0
LAYER
  2
0
 70
     0
 62
     7
  6
CONTINUOUS
  0
LAYER
  2
1DIM
 70
     0
 62
     8
  6
CONTINUOUS
  0
LAYER
  2
2VIEWPORT
 70
     0
 62
    -1
  6
CONTINUOUS
  0
LAYER
  2
01
 70
     0
 62
     1
  6
CONTINUOUS
  0
LAYER
  2
DEFPOINTS
 70
     0
 62
     7
  6
CONTINUOUS
  0
LAYER
  2
1HIDDEN
 70
     0
 62
     8
  6
HIDDEN
  0
LAYER
  2
1PHANTOM
 70
     0
 62
   254
  6
PHANTOM2
  0
LAYER
  2
03
 70
     0
 62
     3
  6
CONTINUOUS
  0
LAYER
  2
02
 70
     0
 62
     2
  6
CONTINUOUS
  0
LAYER
  2
1TEXT
 70
     0
 62
   201
  6
CONTINUOUS
  0
LAYER
  2
04
 70
     0
 62
     4
  6
CONTINUOUS
  0
LAYER
  2
POINT
 70
     0
 62
     7
  6
CONTINUOUS
  0
LAYER
  2
1HATCH
 70
     0
 62
     8
  6
CONTINUOUS
  0
LAYER
  2
05
 70
     0
 62
     5
  6
CONTINUOUS
  0
LAYER
  2
06
 70
     0
 62
     6
  6
CONTINUOUS
  0
LAYER
  2
07
 70
     0
 62
   143
  6
CONTINUOUS
  0
LAYER
  2
08
 70
     0
 62
    95
  6
CONTINUOUS
  0
LAYER
  2
09
 70
     0
 62
    15
  6
CONTINUOUS
  0
LAYER
  2
10
 70
     0
 62
   213
  6
CONTINUOUS
  0
LAYER
  2
11
 70
     0
 62
     7
  6
CONTINUOUS
  0
LAYER
  2
1CENTER
 70
     0
 62
   221
  6
CONTINUOUS
  0
LAYER
  2
1DIM1
 70
     0
 62
   221
  6
CONTINUOUS
  0
LAYER
  2
1DIM2
 70
     0
 62
   254
  6
CONTINUOUS
  0
LAYER
  2
1DIM3
 70
     0
 62
     8
  6
CONTINUOUS
  0
LAYER
  2
2BATTING
 70
     0
 62
     7
  6
BATTING
  0
LAYER
  2
2FENCELINE1
 70
     0
 62
     7
  6
FENCELINE1
  0
LAYER
  2
2FENCELINE2
 70
     0
 62
     7
  6
FENCELINE2
  0
LAYER
  2
2TRACKS
 70
     0
 62
     7
  6
TRACKS
  0
LAYER
  2
2ZIGZAG
 70
     0
 62
     7
  6
ZIGZAG
  0
LAYER
  2
2HADAN
 70
     0
 62
     7
  6
HADAN
  0
LAYER
  2
1TEXT2
 70
     0
 62
   221
  6
CONTINUOUS
  0
LAYER
  2
99WAKU
 70
     0
 62
   253
  6
CONTINUOUS
  0
LAYER
  2
MIDFINE
 70
     0
 62
     9
  6
CONTINUOUS
  0
LAYER
  2
THICK
 70
     0
 62
   252
  6
CONTINUOUS
  0
LAYER
  2
ZZ
 70
     0
 62
    -8
  6
CONTINUOUS
  0
LAYER
  2
ZZXX
 70
     0
 62
   243
  6
CONTINUOUS
  0
LAYER
  2
MAKE2D$VISIBLE$LINES
 70
     0
 62
     7
  6
CONTINUOUS
  0
LAYER
  2
MAKE2D$VISIBLE$TANGENTS
 70
     0
 62
     7
  6
CONTINUOUS
  0
ENDTAB
  0
TABLE
  2
STYLE
 70
     4
  0
STYLE
  2
STANDARD
 70
     0
 40
0.0
 41
1.0
 50
0.0
 71
     0
 42
4.0
  3
romans.shx
  4
extfont2.shx
  0
STYLE
  2
KAI
 70
     0
 40
0.0
 41
1.0
 50
0.0
 71
     0
 42
4.0
  3
HGSeikaishotaiPRO.ttf
  4

  0
STYLE
  2

 70
     1
 40
0.2
 41
1.0
 50
0.0
 71
     0
 42
4.0
  3
ltypeshp.shx
  4

  0
STYLE
  2
TATE2
 70
     4
 40
0.0
 41
1.0
 50
0.0
 71
     0
 42
4.0
  3
romans.shx
  4
@extfont2.shx
  0
ENDTAB
  0
TABLE
  2
VIEW
 70
     0
  0
ENDTAB
  0
ENDSEC
  0
SECTION
  2
BLOCKS
  0
BLOCK
  8
0
  2
_OPEN30
 70
     0
 10
0.0
 20
0.0
  0
LINE
  8
0
  6
BYBLOCK
 62
     0
 10
-1.0
 20
0.26794919
 11
0.0
 21
0.0
  0
LINE
  8
0
  6
BYBLOCK
 62
     0
 10
0.0
 20
0.0
 11
-1.0
 21
-0.26794919
  0
LINE
  8
0
  6
BYBLOCK
 62
     0
 10
0.0
 20
0.0
 11
-1.0
 21
0.0
  0
ENDBLK
  8
0
  0
BLOCK
  8
0
  2
NOCIRCLE
 70
     2
 10
0.0
 20
0.0
  0
CIRCLE
  8
0
  6
BYBLOCK
 62
     0
 10
0.0
 20
0.0
 40
4.2
  0
ATTDEF
  8
1TEXT
 10
-1.904761904762
 20
-2.0
 40
4.0
  1
0
 72
     4
 11
0.0
 21
0.0
  3
NO.
  2
NO
 70
     0
  0
ENDBLK
  8
0
  0
BLOCK
  8
0
  2
_OPEN
 70
     0
 10
0.0
 20
0.0
  0
LINE
  8
0
  6
BYBLOCK
 62
     0
 10
-1.0
 20
0.166667
 11
0.0
 21
0.0
  0
LINE
  8
0
  6
BYBLOCK
 62
     0
 10
-1.0
 20
-0.166667
 11
0.0
 21
0.0
  0
LINE
  8
0
  6
BYBLOCK
 62
     0
 10
0.0
 20
0.0
 11
-1.0
 21
0.0
  0
ENDBLK
  8
0
  0
BLOCK
  8
0
  2
YA__
 70
     0
 10
0.0
 20
0.0
  0
INSERT
  8
0
  2
YA_
 10
0.0
 20
0.0
 30
0.0
 50
180.0
  0
ENDBLK
  8
0
  0
BLOCK
  8
0
  2
YA_
 70
     0
 10
0.0
 20
0.0
  0
LINE
  8
0
 10
-5.598760219962
 20
0.622116757674
 11
-2.488360049962
 21
0.622116757674
  0
LINE
  8
0
 10
-5.598760219962
 20
-0.622043242326
 11
-2.488359989962
 21
-0.622043242326
  0
LINE
  8
0
 10
-5.598760219962
 20
0.622116757674
 11
-5.598760219962
 21
-0.622043242326
  0
LINE
  8
0
 10
-2.488360079962
 20
1.346879757674
 11
-2.488360049962
 21
0.622116757674
  0
LINE
  8
0
 10
0.155480482306
 20
-1.993947296099
 11
0.155480380551
 21
1.993947304034
  0
LINE
  8
0
 10
-0.000039515118
 20
-1.99999999961
 11
-0.000039719246
 21
1.999999999606
  0
LINE
  8
0
 10
-0.155559515297
 20
-1.993941131829
 11
-0.155559619962
 21
0.000036757674
  0
LINE
  8
0
 10
-0.155559619962
 20
0.000036757674
 11
-0.155559718965
 21
1.99394111594
  0
LINE
  8
0
 10
-2.488359989962
 20
-0.622043242326
 11
-2.488359959962
 21
-1.346806242326
  0
LINE
  8
0
 10
-0.155559619962
 20
0.000036757674
 11
-2.488360199962
 21
-1.346806242326
  0
LINE
  8
0
 10
-0.155559619962
 20
0.000036757674
 11
-2.488360079962
 21
1.346879757674
  0
POINT
  8
POINT
 10
0.0
 20
0.0
 30
0.0
  0
ENDBLK
  8
0
  0
BLOCK
  8
0
  2
金属脚
 70
     0
 10
0.0
 20
0.0
  0
LINE
  8
0
  6
BYBLOCK
 62
     0
 10
0.0
 20
0.0
 11
125.0
 21
0.0
  0
LINE
  8
0
  6
BYBLOCK
 62
     0
 10
7.011342610203
 20
-155.999982357025
 11
23.011342610203
 21
-155.999982357025
  0
LINE
  8
0
  6
BYBLOCK
 62
     0
 10
7.011342610203
 20
-155.999982357025
 11
7.011342610203
 21
-145.999982357025
  0
LINE
  8
0
  6
BYBLOCK
 62
     0
 10
23.011342610203
 20
-155.999982357025
 11
23.011342610218
 21
-145.999982357025
  0
LINE
  8
0
  6
BYBLOCK
 62
     0
 10
4.0
 20
-145.999982357025
 11
22.0
 21
-145.999982357025
  0
LINE
  8
0
  6
BYBLOCK
 62
     0
 10
4.0
 20
-5.999982357025
 11
4.0
 21
-145.999982357025
  0
LINE
  8
0
  6
BYBLOCK
 62
     0
 10
22.0
 20
-5.999982357025
 11
104.0
 21
-5.999982357025
  0
LINE
  8
0
  6
BYBLOCK
 62
     0
 10
22.0
 20
-145.999982357025
 11
26.0
 21
-145.999982357025
  0
ARC
  8
0
  6
BYBLOCK
 62
     0
 10
31.0
 20
-32.999982357025
 40
5.0
 50
90.0
 51
180.0
  0
LINE
  8
0
  6
BYBLOCK
 62
     0
 10
26.0
 20
-145.999982357025
 11
26.0
 21
-32.999982357025
  0
LINE
  8
0
  6
BYBLOCK
 62
     0
 10
31.0
 20
-27.999982357025
 11
104.0
 21
-27.999982357025
  0
LINE
  8
0
  6
BYBLOCK
 62
     0
 10
104.0
 20
-27.999982357025
 11
104.0
 21
-5.999982357025
  0
LINE
  8
0
  6
BYBLOCK
 62
     0
 10
125.0
 20
-5.999982357025
 11
119.999885559082
 21
-5.999982357025
  0
LINE
  8
0
  6
BYBLOCK
 62
     0
 10
125.0
 20
-5.999982357025
 11
125.0
 21
0.0
  0
LINE
  8
0
  6
BYBLOCK
 62
     0
 10
119.999885559082
 20
-5.999982357025
 11
0.0
 21
-5.999982357025
  0
LINE
  8
0
  6
BYBLOCK
 62
     0
 10
0.0
 20
-5.999982357025
 11
0.0
 21
0.0
  0
ENDBLK
  8
0
  0
BLOCK
  8
0
  2
A-A
 70
     0
 10
0.0
 20
0.0
  0
LINE
  8
0
 10
0.0
 20
0.0
 11
53.759996799999
 21
0.0
  0
LINE
  8
0
 10
8.0321632
 20
10.63999856
 11
11.2933376
 21
1.68
  0
LINE
  8
0
 10
3.36
 20
1.68000624
 11
6.6211696
 21
10.63998944
  0
LINE
  8
0
 10
9.8630848
 20
1.68
 11
11.2933392
 21
1.68
  0
LINE
  8
0
 10
8.905750399999
 20
4.31024896
 11
9.8630848
 21
1.67999952
  0
LINE
  8
0
 10
4.7902528
 20
1.68000016
 11
5.7475856
 21
4.31024864
  0
LINE
  8
0
 10
3.36
 20
1.68
 11
4.7902528
 21
1.68
  0
LINE
  8
0
 10
5.7475856
 20
4.31024928
 11
8.905750399999
 21
4.31024928
  0
LINE
  8
0
 10
6.171791999999
 20
5.47574928
 11
8.4815424
 21
5.47574928
  0
LINE
  8
0
 10
6.171791999999
 20
5.4757488
 11
7.3266672
 21
8.64873968
  0
LINE
  8
0
 10
7.326668799999
 20
8.64873888
 11
8.481544
 21
5.4757488
  0
LINE
  8
0
 10
12.678397759999
 20
5.57759664
 11
16.441594239999
 21
5.57759664
  0
LINE
  8
0
 10
12.678397759999
 20
6.65279616
 11
16.441594239999
 21
6.65279616
  0
ARC
  8
0
 10
12.678397759999
 20
5.93599664
 40
0.3583999840000001
 50
179.99994
 51
270.0
  0
ARC
  8
0
 10
12.678397759999
 20
6.29439616
 40
0.3583999840000001
 50
90.0
 51
179.99994
  0
LINE
  8
0
 10
12.319997759999
 20
6.29439616
 11
12.319997759999
 21
5.93599664
  0
ARC
  8
0
 10
16.441594239999
 20
6.29439616
 40
0.3583999840000001
 50
0.0
 51
90.0
  0
ARC
  8
0
 10
16.441594239999
 20
5.93599664
 40
0.3583999840000001
 50
270.0
 51
0.0
  0
LINE
  8
0
 10
16.79999424
 20
6.29439616
 11
16.79999424
 21
5.93599664
  0
LINE
  8
0
 10
6.621172799999
 20
10.63999856
 11
8.0321632
 21
10.63999856
  0
LINE
  8
0
 10
25.952162927999
 20
10.63999936
 11
29.21333792
 21
1.68000064
  0
LINE
  8
0
 10
21.279999519999
 20
1.68000528
 11
24.541168639999
 21
10.639988
  0
LINE
  8
0
 10
23.667586079999
 20
4.31024928
 11
26.8257509616
 21
4.31024928
  0
LINE
  8
0
 10
22.7102536
 20
1.67999904
 11
23.667586559999
 21
4.31024784
  0
LINE
  8
0
 10
21.28000064
 20
1.68
 11
22.71025168
 21
1.68
  0
LINE
  8
0
 10
24.09179248
 20
5.47574928
 11
26.401542576
 21
5.47574928
  0
LINE
  8
0
 10
24.091794239999
 20
5.475748
 11
25.24666896
 21
8.64873888
  0
LINE
  8
0
 10
25.2466664
 20
8.64873968
 11
26.401541424
 21
5.475748
  0
LINE
  8
0
 10
26.8257489648
 20
4.31024816
 11
27.783081824
 21
1.67999952
  0
LINE
  8
0
 10
27.783083439999
 20
1.68
 11
29.21333888
 21
1.68
  0
POINT
  8
0
 10
26.8799984
 20
0.0
 30
0.0
  0
POINT
  8
0
 10
26.8799984
 20
0.0
 30
0.0
  0
LINE
  8
0
 10
24.541171999999
 20
10.63999856
 11
25.952163024
 21
10.63999856
  0
TEXT
  8
0
 10
35.978853279999
 20
1.99199984
 40
8.0
  1
断面
 41
0.8643459
  0
ENDBLK
  8
0
  0
BLOCK
  8
0
  2
AA
 70
     0
 10
0.0
 20
0.0
  0
LINE
  8
0
 10
0.000001680067
 20
0.00000565232
 11
2.9117599
 21
7.9999905
  0
LINE
  8
0
 10
3.5416694
 20
6.2220893
 11
4.5728078
 21
3.3890617
  0
LINE
  8
0
 10
2.5105312
 20
3.3890617
 11
3.5416694
 21
6.2220888
  0
LINE
  8
0
 10
4.171576
 20
7.999999
 11
7.0833392
 21
0.000000048888
  0
LINE
  8
0
 10
2.1317739
 20
2.3484368
 11
4.9515643
 21
2.3484368
  0
LINE
  8
0
 10
2.5105309
 20
3.3890619
 11
4.5728073
 21
3.3890619
  0
LINE
  8
0
 10
0.000001907349
 20
0.0
 11
1.2770123
 21
0.0
  0
POINT
  8
0
 10
0.0
 20
0.0
 30
0.0
  0
LINE
  8
0
 10
1.2770127
 20
-0.000000009364
 11
2.1317742
 21
2.3484364
  0
LINE
  8
0
 10
5.8063259
 20
0.0
 11
7.0833392
 21
0.0
  0
LINE
  8
0
 10
4.9515648
 20
2.3484368
 11
5.8063259
 21
0.000000268506
  0
LINE
  8
0
 10
2.9117632
 20
7.999999
 11
4.171576
 21
7.999999
  0
ENDBLK
  8
0
  0
BLOCK
  8
0
  2
訂正1
 70
     0
 10
0.0
 20
0.0
  0
LINE
  8
1HATCH
 10
0.000000135843
 20
2.025
 11
2.33826804
 21
-2.0250009
  0
LINE
  8
1HATCH
 10
-2.33826867
 20
-2.025
 11
2.33826849
 21
-2.025
  0
TEXT
  8
1TEXT
 10
-0.434499620191
 20
-1.510450886077
 40
1.8
  1
1
 41
0.66666667
 72
     1
 11
0.051214667951
 21
-1.510450886077
  0
LINE
  8
1HATCH
 10
0.000000476316
 20
2.02500018
 11
-2.33826849
 21
-2.02499937
  0
ENDBLK
  8
0
  0
BLOCK
  8
0
  2
*D414
 70
     1
 10
0.0
 20
0.0
  0
LINE
  8
1DIM
 10
38719.26188062181
 20
-6764.82651730407
 11
38719.26188062181
 21
-6834.82651730407
  0
LINE
  8
1DIM
 10
39323.26190446367
 20
-6764.82651730407
 11
39323.26190446367
 21
-6834.82651730407
  0
LINE
  8
1DIM
 10
38759.26188062181
 20
-6814.82651730407
 11
39283.26190446367
 21
-6814.82651730407
  0
INSERT
  8
1DIM
  2
_OPEN30
 10
38719.26188062181
 20
-6814.82651730407
 30
0.0
 41
40.0
 42
40.0
 43
40.0
 50
180.0
  0
INSERT
  8
1DIM
  2
_OPEN30
 10
39323.26190446367
 20
-6814.82651730407
 30
0.0
 41
40.0
 42
40.0
 43
40.0
  0
TEXT
  8
1DIM
  6
CONTINUOUS
 62
   201
 10
38917.9285592094
 20
-6800.82651730407
 40
70.0
  1
604
  0
POINT
  8
DEFPOINTS
 62
     0
 10
38719.26188062181
 20
-6664.82651730407
 30
0.0
  0
POINT
  8
DEFPOINTS
 62
     0
 10
39323.26190446367
 20
-6664.82651730407
 30
0.0
  0
POINT
  8
DEFPOINTS
 62
     0
 10
39323.26190446367
 20
-6814.82651730407
 30
0.0
  0
ENDBLK
  8
0
  0
BLOCK
  8
0
  2
*D415
 70
     1
 10
0.0
 20
0.0
  0
LINE
  8
1DIM
 10
38619.26187823762
 20
-6225.981797082487
 11
38549.26188062181
 21
-6225.981797082487
  0
LINE
  8
1DIM
 10
38619.26188062181
 20
-6664.82651730407
 11
38549.26188062181
 21
-6664.82651730407
  0
LINE
  8
1DIM
 10
38569.26188062181
 20
-6265.981797082487
 11
38569.26188062181
 21
-6624.82651730407
  0
INSERT
  8
1DIM
  2
_OPEN30
 10
38569.26188062181
 20
-6225.981797082487
 30
0.0
 41
40.0
 42
40.0
 43
40.0
 50
90.0
  0
INSERT
  8
1DIM
  2
_OPEN30
 10
38569.26188062181
 20
-6664.82651730407
 30
0.0
 41
40.0
 42
40.0
 43
40.0
 50
270.0
  0
TEXT
  8
1DIM
  6
CONTINUOUS
 62
   201
 10
38555.26188062181
 20
-6545.404157193276
 40
70.0
  1
440
 50
90.0
  0
POINT
  8
DEFPOINTS
 62
     0
 10
38719.26187823762
 20
-6225.981797082487
 30
0.0
  0
POINT
  8
DEFPOINTS
 62
     0
 10
38719.26188062181
 20
-6664.82651730407
 30
0.0
  0
POINT
  8
DEFPOINTS
 62
     0
 10
38569.26188062181
 20
-6664.82651730407
 30
0.0
  0
ENDBLK
  8
0
  0
BLOCK
  8
0
  2
*D416
 70
     1
 10
0.0
 20
0.0
  0
LINE
  8
1DIM
 10
38746.26189135064
 20
-5808.09396524045
 11
38746.26189135064
 21
-5738.09396524045
  0
LINE
  8
1DIM
 10
39296.26184605113
 20
-5808.09396524045
 11
39296.26184605113
 21
-5738.09396524045
  0
LINE
  8
1DIM
 10
38786.26189135064
 20
-5758.09396524045
 11
39256.26184605113
 21
-5758.09396524045
  0
INSERT
  8
1DIM
  2
_OPEN30
 10
38746.26189135064
 20
-5758.09396524045
 30
0.0
 41
40.0
 42
40.0
 43
40.0
 50
180.0
  0
INSERT
  8
1DIM
  2
_OPEN30
 10
39296.26184605113
 20
-5758.09396524045
 30
0.0
 41
40.0
 42
40.0
 43
40.0
  0
TEXT
  8
1DIM
  6
CONTINUOUS
 62
   201
 10
38921.26186870089
 20
-5744.09396524045
 40
70.0
  1
550
  0
POINT
  8
DEFPOINTS
 62
     0
 10
38746.26189135064
 20
-5908.09396524045
 30
0.0
  0
POINT
  8
DEFPOINTS
 62
     0
 10
39296.26184605113
 20
-5908.09396524045
 30
0.0
  0
POINT
  8
DEFPOINTS
 62
     0
 10
39296.26184605113
 20
-5758.09396524045
 30
0.0
  0
ENDBLK
  8
0
  0
BLOCK
  8
0
  2
*D417
 70
     1
 10
0.0
 20
0.0
  0
LINE
  8
1DIM
 10
39723.26190446367
 20
-6056.111983393644
 11
39653.26190446367
 21
-6056.111983393644
  0
LINE
  8
1DIM
 10
39723.26190446367
 20
-6664.82651730407
 11
39653.26190446367
 21
-6664.82651730407
  0
LINE
  8
1DIM
 10
39673.26190446367
 20
-6096.111983393644
 11
39673.26190446367
 21
-6624.82651730407
  0
INSERT
  8
1DIM
  2
_OPEN30
 10
39673.26190446367
 20
-6056.111983393644
 30
0.0
 41
40.0
 42
40.0
 43
40.0
 50
90.0
  0
INSERT
  8
1DIM
  2
_OPEN30
 10
39673.26190446367
 20
-6664.82651730407
 30
0.0
 41
40.0
 42
40.0
 43
40.0
 50
270.0
  0
TEXT
  8
1DIM
  6
CONTINUOUS
 62
   201
 10
39659.26190446367
 20
-6460.469250348855
 40
70.0
  1
609
 50
90.0
  0
POINT
  8
DEFPOINTS
 62
     0
 10
39823.26190446367
 20
-6056.111983393644
 30
0.0
  0
POINT
  8
DEFPOINTS
 62
     0
 10
39823.26190446367
 20
-6664.82651730407
 30
0.0
  0
POINT
  8
DEFPOINTS
 62
     0
 10
39673.26190446367
 20
-6664.82651730407
 30
0.0
  0
ENDBLK
  8
0
  0
BLOCK
  8
0
  2
*D418
 70
     1
 10
0.0
 20
0.0
  0
LINE
  8
1DIM
 10
39823.26190446367
 20
-6764.82651730407
 11
39823.26190446367
 21
-6834.82651730407
  0
LINE
  8
1DIM
 10
40526.03284170564
 20
-6764.82651730407
 11
40526.03284170564
 21
-6834.82651730407
  0
LINE
  8
1DIM
 10
39863.26190446367
 20
-6814.82651730407
 11
40486.03284170564
 21
-6814.82651730407
  0
INSERT
  8
1DIM
  2
_OPEN30
 10
39823.26190446367
 20
-6814.82651730407
 30
0.0
 41
40.0
 42
40.0
 43
40.0
 50
180.0
  0
INSERT
  8
1DIM
  2
_OPEN30
 10
40526.03284170564
 20
-6814.82651730407
 30
0.0
 41
40.0
 42
40.0
 43
40.0
  0
TEXT
  8
1DIM
  6
CONTINUOUS
 62
   201
 10
40074.64737308465
 20
-6800.82651730407
 40
70.0
  1
705
  0
POINT
  8
DEFPOINTS
 62
     0
 10
39823.26190446367
 20
-6664.82651730407
 30
0.0
  0
POINT
  8
DEFPOINTS
 62
     0
 10
40526.03284170564
 20
-6664.82651730407
 30
0.0
  0
POINT
  8
DEFPOINTS
 62
     0
 10
40526.03284170564
 20
-6814.82651730407
 30
0.0
  0
ENDBLK
  8
0
  0
BLOCK
  8
0
  2
*D420
 70
     1
 10
0.0
 20
0.0
  0
LINE
  8
1DIM
 10
39823.26190446367
 20
-5808.09396524045
 11
39823.26190446367
 21
-5738.09396524045
  0
LINE
  8
1DIM
 10
40298.51777710412
 20
-5808.09396524045
 11
40298.51777710412
 21
-5738.09396524045
  0
LINE
  8
1DIM
 10
39863.26190446367
 20
-5758.09396524045
 11
40258.51777710412
 21
-5758.09396524045
  0
INSERT
  8
1DIM
  2
_OPEN30
 10
39823.26190446367
 20
-5758.09396524045
 30
0.0
 41
40.0
 42
40.0
 43
40.0
 50
180.0
  0
INSERT
  8
1DIM
  2
_OPEN30
 10
40298.51777710412
 20
-5758.09396524045
 30
0.0
 41
40.0
 42
40.0
 43
40.0
  0
TEXT
  8
1DIM
  6
CONTINUOUS
 62
   201
 10
39960.88984078389
 20
-5744.09396524045
 40
70.0
  1
475
  0
POINT
  8
DEFPOINTS
 62
     0
 10
39823.26190446367
 20
-5908.09396524045
 30
0.0
  0
POINT
  8
DEFPOINTS
 62
     0
 10
40298.51777710412
 20
-5908.09396524045
 30
0.0
  0
POINT
  8
DEFPOINTS
 62
     0
 10
40298.51777710412
 20
-5758.09396524045
 30
0.0
  0
ENDBLK
  8
0
  0
BLOCK
  8
0
  2
*D421
 70
     1
 10
0.0
 20
0.0
  0
LINE
  8
1DIM
 10
40626.03284170564
 20
-5908.09396524045
 11
40696.03284170564
 21
-5908.09396524045
  0
LINE
  8
1DIM
 10
40626.03284170564
 20
-6664.82651730407
 11
40696.03284170564
 21
-6664.82651730407
  0
LINE
  8
1DIM
 10
40676.03284170564
 20
-5948.09396524045
 11
40676.03284170564
 21
-6624.82651730407
  0
INSERT
  8
1DIM
  2
_OPEN30
 10
40676.03284170564
 20
-5908.09396524045
 30
0.0
 41
40.0
 42
40.0
 43
40.0
 50
90.0
  0
INSERT
  8
1DIM
  2
_OPEN30
 10
40676.03284170564
 20
-6664.82651730407
 30
0.0
 41
40.0
 42
40.0
 43
40.0
 50
270.0
  0
TEXT
  8
1DIM
  6
CONTINUOUS
 62
   201
 10
40662.03284170564
 20
-6386.46024127226
 40
70.0
  1
757
 50
90.0
  0
POINT
  8
DEFPOINTS
 62
     0
 10
40526.03284170564
 20
-5908.09396524045
 30
0.0
  0
POINT
  8
DEFPOINTS
 62
     0
 10
40526.03284170564
 20
-6664.82651730407
 30
0.0
  0
POINT
  8
DEFPOINTS
 62
     0
 10
40676.03284170564
 20
-6664.82651730407
 30
0.0
  0
ENDBLK
  8
0
  0
ENDSEC
  0
SECTION
  2
ENTITIES
  0
POLYLINE
  8
0
  6
CONTINUOUS
 66
     1
  0
VERTEX
  8
0
  6
CONTINUOUS
 10
38746.26187942972
 20
-6235.142812735131
  0
VERTEX
  8
0
  6
CONTINUOUS
 10
38746.27591647664
 20
-6235.019899016136
  0
VERTEX
  8
0
  6
CONTINUOUS
 10
38746.29255235466
 20
-6234.896465186372
  0
VERTEX
  8
0
  6
CONTINUOUS
 10
38746.31182791825
 20
-6234.772586292282
  0
VERTEX
  8
0
  6
CONTINUOUS
 10
38746.33378142658
 20
-6234.648339995644
  0
VERTEX
  8
0
  6
CONTINUOUS
 10
38746.35844836875
 20
-6234.523806477841
  0
VERTEX
  8
0
  6
CONTINUOUS
 10
38746.3858612921
 20
-6234.399068331528
  0
VERTEX
  8
0
  6
CONTINUOUS
 10
38746.41604963438
 20
-6234.274210439653
  0
VERTEX
  8
0
  6
CONTINUOUS
 10
38746.44903956103
 20
-6234.149319841892
  0
VERTEX
  8
0
  6
CONTINUOUS
 10
38746.48485380826
 20
-6234.02448558863
  0
VERTEX
  8
0
  6
CONTINUOUS
 10
38746.52351153337
 20
-6233.899798582734
  0
VERTEX
  8
0
  6
CONTINUOUS
 10
38746.56502817296
 20
-6233.775351409419
  0
VERTEX
  8
0
  6
CONTINUOUS
 10
38746.60941531035
 20
-6233.651238154676
  0
VERTEX
  8
0
  6
CONTINUOUS
 10
38746.65668055298
 20
-6233.527554212715
  0
VERTEX
  8
0
  6
CONTINUOUS
 10
38746.70682742096
 20
-6233.40439608309
  0
VERTEX
  8
0
  6
CONTINUOUS
 10
38746.75985524763
 20
-6233.281861158188
  0
VERTEX
  8
0
  6
CONTINUOUS
 10
38746.81575909292
 20
-6233.160047501869
  0
VERTEX
  8
0
  6
CONTINUOUS
 10
38746.87452967064
 20
-6233.039053620198
  0
VERTEX
  8
0
  6
CONTINUOUS
 10
38746.93615329001
 20
-6232.91897822516
  0
VERTEX
  8
0
  6
CONTINUOUS
 10
38747.00061181256
 20
-6232.799919992499
  0
VERTEX
  8
0
  6
CONTINUOUS
 10
38747.06788262471
 20
-6232.681977314735
  0
VERTEX
  8
0
  6
CONTINUOUS
 10
38747.13793862671
 20
-6232.565248050588
  0
VERTEX
  8
0
  6
CONTINUOUS
 10
38747.21074823818
 20
-6232.449829272032
  0
VERTEX
  8
0
  6
CONTINUOUS
 10
38747.28627542074
 20
-6232.335817010289
  0
VERTEX
  8
0
  6
CONTINUOUS
 10
38747.36447971768
 20
-6232.223306002055
  0
VERTEX
  8
0
  6
CONTINUOUS
 10
38747.44531631102
 20
-6232.112389437344
  0
VERTEX
  8
0
  6
CONTINUOUS
 10
38747.52873609558
 20
-6232.003158710272
  0
VERTEX
  8
0
  6
CONTINUOUS
 10
38747.6146857702
 20
-6231.895703174193
  0
VERTEX
  8
0
  6
CONTINUOUS
 10
38747.70310794556
 20
-6231.790109902461
  0
VERTEX
  8
0
  6
CONTINUOUS
 10
38747.79394126828
 20
-6231.686463456215
  0
VERTEX
  8
0
  6
CONTINUOUS
 10
38747.88712056086
 20
-6231.584845660431
  0
VERTEX
  8
0
  6
CONTINUOUS
 10
38747.98257697652
 20
-6231.485335389474
  0
VERTEX
  8
0
  6
CONTINUOUS
 10
38748.08023816847
 20
-6231.388008363358
  0
VERTEX
  8
0
  6
CONTINUOUS
 10
38748.18002847266
 20
-6231.292936955783
  0
VERTEX
  8
0
  6
CONTINUOUS
 10
38748.28186910283
 20
-6231.200190014989
  0
VERTEX
  8
0
  6
CONTINUOUS
 10
38748.38567835715
 20
-6231.10983269835
  0
VERTEX
  8
0
  6
CONTINUOUS
 10
38748.49137183497
 20
-6231.021926321539
  0
VERTEX
  8
0
  6
CONTINUOUS
 10
38748.59886266285
 20
-6230.936528222993
  0
VERTEX
  8
0
  6
CONTINUOUS
 10
38748.7080617282
 20
-6230.853691644275
  0
VERTEX
  8
0
  6
CONTINUOUS
 10
38748.81887791962
 20
-6230.773465626847
  0
VERTEX
  8
0
  6
CONTINUOUS
 10
38748.93121837233
 20
-6230.695894925597
  0
VERTEX
  8
0
  6
CONTINUOUS
 10
38749.04498871748
 20
-6230.621019939408
  0
VERTEX
  8
0
  6
CONTINUOUS
 10
38749.16009333397
 20
-6230.548876658859
  0
VERTEX
  8
0
  6
CONTINUOUS
 10
38749.27643560131
 20
-6230.479496631106
  0
VERTEX
  8
0
  6
CONTINUOUS
 10
38749.39391815243
 20
-6230.412906941777
  0
VERTEX
  8
0
  6
CONTINUOUS
 10
38749.51244312483
 20
-6230.349130213729
  0
VERTEX
  8
0
  6
CONTINUOUS
 10
38749.63191240904
 20
-6230.288184622243
  0
VERTEX
  8
0
  6
CONTINUOUS
 10
38749.75222789314
 20
-6230.230083926273
  0
VERTEX
  8
0
  6
CONTINUOUS
 10
38749.87329170196
 20
-6230.174837515204
  0
VERTEX
  8
0
  6
CONTINUOUS
 10
38749.99500643028
 20
-6230.122450470453
  0
VERTEX
  8
0
  6
CONTINUOUS
 10
38750.11727536855
 20
-6230.07292364124
  0
VERTEX
  8
0
  6
CONTINUOUS
 10
38750.24000272057
 20
-6230.026253733706
  0
VERTEX
  8
0
  6
CONTINUOUS
 10
38750.36309381216
 20
-6229.982433412571
  0
VERTEX
  8
0
  6
CONTINUOUS
 10
38750.48645528986
 20
-6229.941451414398
  0
VERTEX
  8
0
  6
CONTINUOUS
 10
38750.60999530936
 20
-6229.903292671508
  0
VERTEX
  8
0
  6
CONTINUOUS
 10
38750.73362371283
 20
-6229.867938445611
  0
VERTEX
  8
0
  6
CONTINUOUS
 10
38750.8572521947
 20
-6229.835366470102
  0
VERTEX
  8
0
  6
CONTINUOUS
 10
38750.9807944557
 20
-6229.805551100025
  0
VERTEX
  8
0
  6
CONTINUOUS
 10
38751.1041663445
 20
-6229.778463468674
  0
VERTEX
  8
0
  6
CONTINUOUS
 10
38751.22728598717
 20
-6229.754071649818
  0
VERTEX
  8
0
  6
CONTINUOUS
 10
38751.35007390417
 20
-6229.732340824523
  0
VERTEX
  8
0
  6
CONTINUOUS
 10
38751.47245311463
 20
-6229.71323345159
  0
VERTEX
  8
0
  6
CONTINUOUS
 10
38756.91281249931
 20
-6229.254045700244
  0
VERTEX
  8
0
  6
CONTINUOUS
 10
38763.5061314901
 20
-6228.830105168087
  0
VERTEX
  8
0
  6
CONTINUOUS
 10
38770.10717412066
 20
-6228.549169363118
  0
VERTEX
  8
0
  6
CONTINUOUS
 10
38777.06052066567
 20
-6228.415007695372
  0
VERTEX
  8
0
  6
CONTINUOUS
 10
38788.45914329732
 20
-6228.396512851415
  0
VERTEX
  8
0
  6
CONTINUOUS
 10
38799.3723832659
 20
-6228.378065648605
  0
VERTEX
  8
0
  6
CONTINUOUS
 10
38809.87355208979
 20
-6228.359710664081
  0
VERTEX
  8
0
  6
CONTINUOUS
 10
38820.03596128735
 20
-6228.341492474978
  0
VERTEX
  8
0
  6
CONTINUOUS
 10
38829.93292237696
 20
-6228.323455658433
  0
VERTEX
  8
0
  6
CONTINUOUS
 10
38839.63774687698
 20
-6228.305644791581
  0
VERTEX
  8
0
  6
CONTINUOUS
 10
38849.22374630578
 20
-6228.288104451561
  0
VERTEX
  8
0
  6
CONTINUOUS
 10
38858.76423218173
 20
-6228.270879215506
  0
VERTEX
  8
0
  6
CONTINUOUS
 10
38868.33251602318
 20
-6228.254013660554
  0
VERTEX
  8
0
  6
CONTINUOUS
 10
38878.00190934853
 20
-6228.23755236384
  0
VERTEX
  8
0
  6
CONTINUOUS
 10
38887.84572367613
 20
-6228.221539902501
  0
VERTEX
  8
0
  6
CONTINUOUS
 10
38897.93478465847
 20
-6228.206023407145
  0
VERTEX
  8
0
  6
CONTINUOUS
 10
38908.29101126817
 20
-6228.191100245153
  0
VERTEX
  8
0
  6
CONTINUOUS
 10
38918.89161092293
 20
-6228.176913711457
  0
VERTEX
  8
0
  6
CONTINUOUS
 10
38929.71214631554
 20
-6228.163608790444
  0
VERTEX
  8
0
  6
CONTINUOUS
 10
38940.72818013879
 20
-6228.151330466502
  0
VERTEX
  8
0
  6
CONTINUOUS
 10
38951.91527508548
 20
-6228.140223724018
  0
VERTEX
  8
0
  6
CONTINUOUS
 10
38963.24899384839
 20
-6228.130433547381
  0
VERTEX
  8
0
  6
CONTINUOUS
 10
38974.70489912033
 20
-6228.12210492098
  0
VERTEX
  8
0
  6
CONTINUOUS
 10
38986.25855359407
 20
-6228.115382829199
  0
VERTEX
  8
0
  6
CONTINUOUS
 10
38997.88551996242
 20
-6228.11041225643
  0
VERTEX
  8
0
  6
CONTINUOUS
 10
39009.56136091817
 20
-6228.107338187058
  0
VERTEX
  8
0
  6
CONTINUOUS
 10
39021.26163915409
 20
-6228.106305605474
  0
SEQEND
  8
0
  6
CONTINUOUS
  0
LINE
  8
0
 10
40370.88588768311
 20
-6515.813195777099
 11
39896.12584881917
 21
-6465.91390481253
  0
LINE
  8
0
 10
39902.18361687638
 20
-6426.33027453567
 11
40363.32672452542
 21
-6474.7983664251
  0
LINE
  8
0
 10
40092.56846490731
 20
-6396.065119441299
 11
39909.75589599918
 21
-6376.85074444478
  0
POLYLINE
  8
0
  6
CONTINUOUS
 62
     4
 66
     1
  0
VERTEX
  8
0
  6
CONTINUOUS
 62
     4
 10
40383.65775197334
 20
-6292.031041199069
  0
VERTEX
  8
0
  6
CONTINUOUS
 62
     4
 10
40383.66757675787
 20
-6292.002505440282
  0
VERTEX
  8
0
  6
CONTINUOUS
 62
     4
 10
40383.67718939512
 20
-6291.974585938529
  0
VERTEX
  8
0
  6
CONTINUOUS
 62
     4
 10
40383.68641702897
 20
-6291.947784815755
  0
VERTEX
  8
0
  6
CONTINUOUS
 62
     4
 10
40383.69523755038
 20
-6291.922166295482
  0
VERTEX
  8
0
  6
CONTINUOUS
 62
     4
 10
40383.7036649977
 20
-6291.897689598316
  0
VERTEX
  8
0
  6
CONTINUOUS
 62
     4
 10
40383.71171340931
 20
-6291.874313944859
  0
VERTEX
  8
0
  6
CONTINUOUS
 62
     4
 10
40383.71939682357
 20
-6291.851998555714
  0
VERTEX
  8
0
  6
CONTINUOUS
 62
     4
 10
40383.72672927882
 20
-6291.830702651486
  0
VERTEX
  8
0
  6
CONTINUOUS
 62
     4
 10
40383.73372481344
 20
-6291.810385452776
  0
VERTEX
  8
0
  6
CONTINUOUS
 62
     4
 10
40383.74039746577
 20
-6291.791006180189
  0
VERTEX
  8
0
  6
CONTINUOUS
 62
     4
 10
40383.7467612742
 20
-6291.772524054329
  0
VERTEX
  8
0
  6
CONTINUOUS
 62
     4
 10
40383.75283027704
 20
-6291.754898295797
  0
VERTEX
  8
0
  6
CONTINUOUS
 62
     4
 10
40383.75861851271
 20
-6291.738088125198
  0
VERTEX
  8
0
  6
CONTINUOUS
 62
     4
 10
40383.76414001954
 20
-6291.722052763136
  0
VERTEX
  8
0
  6
CONTINUOUS
 62
     4
 10
40383.76940883588
 20
-6291.706751430213
  0
VERTEX
  8
0
  6
CONTINUOUS
 62
     4
 10
40383.7744390001
 20
-6291.692143347033
  0
VERTEX
  8
0
  6
CONTINUOUS
 62
     4
 10
40383.77924455057
 20
-6291.678187734199
  0
VERTEX
  8
0
  6
CONTINUOUS
 62
     4
 10
40383.78383952564
 20
-6291.664843812315
  0
VERTEX
  8
0
  6
CONTINUOUS
 62
     4
 10
40383.78823796366
 20
-6291.652070801983
  0
VERTEX
  8
0
  6
CONTINUOUS
 62
     4
 10
40383.79245390301
 20
-6291.639827923807
  0
VERTEX
  8
0
  6
CONTINUOUS
 62
     4
 10
40383.79650138205
 20
-6291.628074398393
  0
VERTEX
  8
0
  6
CONTINUOUS
 62
     4
 10
40383.80039443912
 20
-6291.616769446339
  0
VERTEX
  8
0
  6
CONTINUOUS
 62
     4
 10
40383.80414711259
 20
-6291.605872288254
  0
VERTEX
  8
0
  6
CONTINUOUS
 62
     4
 10
40383.80777344082
 20
-6291.595342144738
  0
VERTEX
  8
0
  6
CONTINUOUS
 62
     4
 10
40383.81128746217
 20
-6291.585138236394
  0
VERTEX
  8
0
  6
CONTINUOUS
 62
     4
 10
40383.81470321502
 20
-6291.575219783827
  0
VERTEX
  8
0
  6
CONTINUOUS
 62
     4
 10
40383.81803473768
 20
-6291.56554600764
  0
VERTEX
  8
0
  6
CONTINUOUS
 62
     4
 10
40383.82129606856
 20
-6291.556076128436
  0
VERTEX
  8
0
  6
CONTINUOUS
 62
     4
 10
40383.82450124599
 20
-6291.546769366819
  0
VERTEX
  8
0
  6
CONTINUOUS
 62
     4
 10
40383.82766430834
 20
-6291.537584943391
  0
VERTEX
  8
0
  6
CONTINUOUS
 62
     4
 10
40383.83079929398
 20
-6291.528482078758
  0
VERTEX
  8
0
  6
CONTINUOUS
 62
     4
 10
40383.83392024125
 20
-6291.51941999352
  0
SEQEND
  8
0
  6
CONTINUOUS
 62
     4
  0
POLYLINE
  8
0
  6
CONTINUOUS
 10
0.0
 20
0.0
 30
0.0
 66
     1
 70
     8
  0
VERTEX
  8
0
  6
CONTINUOUS
 10
39021.26189254274
 20
-5048.03900741454
 30
0.0
 70
    32
  0
VERTEX
  8
0
  6
CONTINUOUS
 10
39021.26189254274
 20
-5047.911384078879
 30
0.0
 70
    32
  0
VERTEX
  8
0
  6
CONTINUOUS
 10
39021.26189254274
 20
-5047.782952394613
 30
0.0
 70
    32
  0
VERTEX
  8
0
  6
CONTINUOUS
 10
39021.26189254274
 20
-5047.652904013145
 30
0.0
 70
    32
  0
VERTEX
  8
0
  6
CONTINUOUS
 10
39021.26189254274
 20
-5047.520430585868
 30
0.0
 70
    32
  0
VERTEX
  8
0
  6
CONTINUOUS
 10
39021.26189254274
 20
-5047.384723764185
 30
0.0
 70
    32
  0
VERTEX
  8
0
  6
CONTINUOUS
 10
39021.26189254274
 20
-5047.244975199488
 30
0.0
 70
    32
  0
VERTEX
  8
0
  6
CONTINUOUS
 10
39021.26189254274
 20
-5047.10037654318
 30
0.0
 70
    32
  0
VERTEX
  8
0
  6
CONTINUOUS
 10
39021.26189254274
 20
-5046.950119446655
 30
0.0
 70
    32
  0
VERTEX
  8
0
  6
CONTINUOUS
 10
39021.26189254274
 20
-5046.793395561313
 30
0.0
 70
    32
  0
VERTEX
  8
0
  6
CONTINUOUS
 10
39021.26189254274
 20
-5046.629396538549
 30
0.0
 70
    32
  0
VERTEX
  8
0
  6
CONTINUOUS
 10
39021.26189254274
 20
-5046.457314029765
 30
0.0
 70
    32
  0
VERTEX
  8
0
  6
CONTINUOUS
 10
39021.26189254274
 20
-5046.276428872463
 30
0.0
 70
    32
  0
VERTEX
  8
0
  6
CONTINUOUS
 10
39021.26189254274
 20
-5046.086660179737
 30
0.0
 70
    32
  0
VERTEX
  8
0
  6
CONTINUOUS
 10
39021.26189254274
 20
-5045.888205176182
 30
0.0
 70
    32
  0
VERTEX
  8
0
  6
CONTINUOUS
 10
39021.26189254274
 20
-5045.681262236301
 30
0.0
 70
    32
  0
VERTEX
  8
0
  6
CONTINUOUS
 10
39021.26189254274
 20
-5045.466029734597
 30
0.0
 70
    32
  0
VERTEX
  8
0
  6
CONTINUOUS
 10
39021.26189254274
 20
-5045.242706045577
 30
0.0
 70
    32
  0
VERTEX
  8
0
  6
CONTINUOUS
 10
39021.26189254274
 20
-5045.011489543742
 30
0.0
 70
    32
  0
VERTEX
  8
0
  6
CONTINUOUS
 10
39021.26189254274
 20
-5044.772578603598
 30
0.0
 70
    32
  0
VERTEX
  8
0
  6
CONTINUOUS
 10
39021.26189254274
 20
-5044.526171599648
 30
0.0
 70
    32
  0
VERTEX
  8
0
  6
CONTINUOUS
 10
39021.26189254274
 20
-5044.272466906395
 30
0.0
 70
    32
  0
VERTEX
  8
0
  6
CONTINUOUS
 10
39021.26189254274
 20
-5044.011662898346
 30
0.0
 70
    32
  0
VERTEX
  8
0
  6
CONTINUOUS
 10
39021.26189254274
 20
-5043.743947471509
 30
0.0
 70
    32
  0
VERTEX
  8
0
  6
CONTINUOUS
 10
39021.26189254274
 20
-5043.469363620065
 30
0.0
 70
    32
  0
VERTEX
  8
0
  6
CONTINUOUS
 10
39021.26189254274
 20
-5043.187848575898
 30
0.0
 70
    32
  0
VERTEX
  8
0
  6
CONTINUOUS
 10
39021.26189254274
 20
-5042.89933716439
 30
0.0
 70
    32
  0
VERTEX
  8
0
  6
CONTINUOUS
 10
39021.26189254274
 20
-5042.603764210924
 30
0.0
 70
    32
  0
VERTEX
  8
0
  6
CONTINUOUS
 10
39021.26189254274
 20
-5042.301064540879
 30
0.0
 70
    32
  0
VERTEX
  8
0
  6
CONTINUOUS
 10
39021.26189254274
 20
-5041.991172979642
 30
0.0
 70
    32
  0
VERTEX
  8
0
  6
CONTINUOUS
 10
39021.26189254274
 20
-5041.674024352592
 30
0.0
 70
    32
  0
VERTEX
  8
0
  6
CONTINUOUS
 10
39021.26189254274
 20
-5041.349553485112
 30
0.0
 70
    32
  0
VERTEX
  8
0
  6
CONTINUOUS
 10
39021.26189254274
 20
-5041.017695202582
 30
0.0
 70
    32
  0
VERTEX
  8
0
  6
CONTINUOUS
 10
39021.26189254274
 20
-5040.678384330387
 30
0.0
 70
    32
  0
VERTEX
  8
0
  6
CONTINUOUS
 10
39021.26189254274
 20
-5040.331556356338
 30
0.0
 70
    32
  0
VERTEX
  8
0
  6
CONTINUOUS
 10
39021.26189254274
 20
-5039.977177137672
 30
0.0
 70
    32
  0
VERTEX
  8
0
  6
CONTINUOUS
 10
39021.26189254274
 20
-5039.615254883412
 30
0.0
 70
    32
  0
VERTEX
  8
0
  6
CONTINUOUS
 10
39021.26189254274
 20
-5039.245800944889
 30
0.0
 70
    32
  0
VERTEX
  8
0
  6
CONTINUOUS
 10
39021.26189254274
 20
-5038.868826673433
 30
0.0
 70
    32
  0
VERTEX
  8
0
  6
CONTINUOUS
 10
39021.26189254274
 20
-5038.484343420376
 30
0.0
 70
    32
  0
VERTEX
  8
0
  6
CONTINUOUS
 10
39021.26189254274
 20
-5038.092362537046
 30
0.0
 70
    32
  0
VERTEX
  8
0
  6
CONTINUOUS
 10
39021.26189254274
 20
-5037.692895374774
 30
0.0
 70
    32
  0
VERTEX
  8
0
  6
CONTINUOUS
 10
39021.26189254274
 20
-5037.285953284889
 30
0.0
 70
    32
  0
VERTEX
  8
0
  6
CONTINUOUS
 10
39021.26189254274
 20
-5036.871547618722
 30
0.0
 70
    32
  0
VERTEX
  8
0
  6
CONTINUOUS
 10
39021.26189254274
 20
-5036.449689727604
 30
0.0
 70
    32
  0
VERTEX
  8
0
  6
CONTINUOUS
 10
39021.26189254274
 20
-5036.02039095025
 30
0.0
 70
    32
  0
VERTEX
  8
0
  6
CONTINUOUS
 10
39021.26189254274
 20
-5035.583653695422
 30
0.0
 70
    32
  0
VERTEX
  8
0
  6
CONTINUOUS
 10
39021.26189254274
 20
-5035.139455779766
 30
0.0
 70
    32
  0
VERTEX
  8
0
  6
CONTINUOUS
 10
39021.26189254274
 20
-5034.687770823079
 30
0.0
 70
    32
  0
VERTEX
  8
0
  6
CONTINUOUS
 10
39021.26189254274
 20
-5034.228572445159
 30
0.0
 70
    32
  0
VERTEX
  8
0
  6
CONTINUOUS
 10
39021.26189254274
 20
-5033.761834265804
 30
0.0
 70
    32
  0
VERTEX
  8
0
  6
CONTINUOUS
 10
39021.26189254274
 20
-5033.287529904815
 30
0.0
 70
    32
  0
VERTEX
  8
0
  6
CONTINUOUS
 10
39021.26189254274
 20
-5032.805632981989
 30
0.0
 70
    32
  0
VERTEX
  8
0
  6
CONTINUOUS
 10
39021.26189254274
 20
-5032.316117117124
 30
0.0
 70
    32
  0
VERTEX
  8
0
  6
CONTINUOUS
 10
39021.26189254274
 20
-5031.818956730903
 30
0.0
 70
    32
  0
VERTEX
  8
0
  6
CONTINUOUS
 10
39021.26189254274
 20
-5031.314166251671
 30
0.0
 70
    32
  0
VERTEX
  8
0
  6
CONTINUOUS
 10
39021.26189254274
 20
-5030.801817889193
 30
0.0
 70
    32
  0
VERTEX
  8
0
  6
CONTINUOUS
 10
39021.26189254274
 20
-5030.281988360123
 30
0.0
 70
    32
  0
VERTEX
  8
0
  6
CONTINUOUS
 10
39021.26189254274
 20
-5029.754754381123
 30
0.0
 70
    32
  0
VERTEX
  8
0
  6
CONTINUOUS
 10
39021.26189254274
 20
-5029.220192668848
 30
0.0
 70
    32
  0
VERTEX
  8
0
  6
CONTINUOUS
 10
39021.26189254274
 20
-5028.678379939956
 30
0.0
 70
    32
  0
VERTEX
  8
0
  6
CONTINUOUS
 10
39021.26189254274
 20
-5028.129392911105
 30
0.0
 70
    32
  0
VERTEX
  8
0
  6
CONTINUOUS
 10
39021.26189254274
 20
-5027.573308298954
 30
0.0
 70
    32
  0
VERTEX
  8
0
  6
CONTINUOUS
 10
39021.26189254274
 20
-5027.01019029201
 30
0.0
 70
    32
  0
VERTEX
  8
0
  6
CONTINUOUS
 10
39021.26189254274
 20
-5026.439910844081
 30
0.0
 70
    32
  0
VERTEX
  8
0
  6
CONTINUOUS
 10
39021.26189254274
 20
-5025.862191444711
 30
0.0
 70
    32
  0
VERTEX
  8
0
  6
CONTINUOUS
 10
39021.26189254274
 20
-5025.27674956688
 30
0.0
 70
    32
  0
VERTEX
  8
0
  6
CONTINUOUS
 10
39021.26189254274
 20
-5024.683302683567
 30
0.0
 70
    32
  0
VERTEX
  8
0
  6
CONTINUOUS
 10
39021.26189254274
 20
-5024.081568267753
 30
0.0
 70
    32
  0
VERTEX
  8
0
  6
CONTINUOUS
 10
39021.26189254274
 20
-5023.47126379242
 30
0.0
 70
    32
  0
VERTEX
  8
0
  6
CONTINUOUS
 10
39021.26189254274
 20
-5022.852106730549
 30
0.0
 70
    32
  0
VERTEX
  8
0
  6
CONTINUOUS
 10
39021.26189254274
 20
-5022.223814555119
 30
0.0
 70
    32
  0
VERTEX
  8
0
  6
CONTINUOUS
 10
39021.26189254274
 20
-5021.586219390102
 30
0.0
 70
    32
  0
VERTEX
  8
0
  6
CONTINUOUS
 10
39021.26189254274
 20
-5020.940009357307
 30
0.0
 70
    32
  0
VERTEX
  8
0
  6
CONTINUOUS
 10
39021.26189254274
 20
-5020.286259652557
 30
0.0
 70
    32
  0
VERTEX
  8
0
  6
CONTINUOUS
 10
39021.26189254274
 20
-5019.626047371846
 30
0.0
 70
    32
  0
VERTEX
  8
0
  6
CONTINUOUS
 10
39021.26189254274
 20
-5018.960449611166
 30
0.0
 70
    32
  0
VERTEX
  8
0
  6
CONTINUOUS
 10
39021.26189254274
 20
-5018.290543466512
 30
0.0
 70
    32
  0
VERTEX
  8
0
  6
CONTINUOUS
 10
39021.26189254274
 20
-5017.617406033877
 30
0.0
 70
    32
  0
VERTEX
  8
0
  6
CONTINUOUS
 10
39021.26189254274
 20
-5016.942114409255
 30
0.0
 70
    32
  0
VERTEX
  8
0
  6
CONTINUOUS
 10
39021.26189254274
 20
-5016.265745688639
 30
0.0
 70
    32
  0
SEQEND
  8
0
  6
CONTINUOUS
  0
LINE
  8
0
  6
CONTINUOUS
 10
39021.26186870088
 20
-4864.71800368784
 11
38776.26185797204
 21
-4864.71800368784
  0
POLYLINE
  8
0
  6
CONTINUOUS
 66
     1
  0
VERTEX
  8
0
  6
CONTINUOUS
 10
38776.26185797204
 20
-4879.912269140439
  0
VERTEX
  8
0
  6
CONTINUOUS
 10
38776.26185797204
 20
-4856.027914700489
 42
0.417429979052
  0
VERTEX
  8
0
  6
CONTINUOUS
 10
38774.26185391893
 20
-4854.027910647379
  0
VERTEX
  8
0
  6
CONTINUOUS
 10
38748.26186083307
 20
-4854.027910647379
 42
0.416549880933
  0
VERTEX
  8
0
  6
CONTINUOUS
 10
38746.2618806218
 20
-4856.02100757663
  0
VERTEX
  8
0
  6
CONTINUOUS
 10
38746.26188062181
 20
-5528.18531344053
 42
0.413931751342
  0
VERTEX
  8
0
  6
CONTINUOUS
 10
38776.18900058871
 20
-5558.09396524045
  0
VERTEX
  8
0
  6
CONTINUOUS
 10
39021.26186870088
 20
-5558.09396524045
  0
SEQEND
  8
0
  6
CONTINUOUS
  0
POLYLINE
  8
0
 66
     1
  0
VERTEX
  8
0
 10
39021.26189254274
 20
-4879.912269140439
  0
VERTEX
  8
0
 10
38771.26973004167
 20
-4879.912269140439
 42
0.409923942773
  0
VERTEX
  8
0
 10
38746.2618806218
 20
-4907.317708955091
  0
SEQEND
  8
0
  0
POLYLINE
  8
0
 66
     1
  0
VERTEX
  8
0
 10
38746.26188062181
 20
-4952.67705195065
 42
0.380733167307
  0
VERTEX
  8
0
 10
38786.07586133173
 20
-4998.176142789456
 42
0.04117623948
  0
VERTEX
  8
0
 10
39021.26189254274
 20
-5020.56922770118
  0
SEQEND
  8
0
  0
POLYLINE
  8
0
 66
     1
  0
VERTEX
  8
0
 10
38746.2618806218
 20
-5036.210583288971
 42
0.401694990331
  0
VERTEX
  8
0
 10
38782.62118340241
 20
-5072.814881041324
 42
0.021814873476
  0
VERTEX
  8
0
 10
39017.66368625165
 20
-5083.545123386921
 42
0.373392447689
  0
VERTEX
  8
0
 10
39021.26186870088
 20
-5079.713080727865
  0
SEQEND
  8
0
  0
POLYLINE
  8
0
 66
     1
  0
VERTEX
  8
0
 10
38746.26188062181
 20
-4897.80791064738
  0
VERTEX
  8
0
 10
38719.26188062181
 20
-4897.80791064738
  0
VERTEX
  8
0
 10
38719.26188062181
 20
-5316.88791064738
  0
VERTEX
  8
0
 10
38746.26188062181
 20
-5316.88791064738
  0
SEQEND
  8
0
  0
POLYLINE
  8
0
  6
CONTINUOUS
 66
     1
  0
VERTEX
  8
0
  6
CONTINUOUS
 10
38746.26188062181
 20
-5528.18531344051
  0
VERTEX
  8
0
  6
CONTINUOUS
 10
38746.26188062183
 20
-5554.493015505041
  0
VERTEX
  8
0
  6
CONTINUOUS
 10
38746.26188062183
 20
-5554.495459295469
 42
0.414424386707
  0
VERTEX
  8
0
  6
CONTINUOUS
 10
38748.26189254276
 20
-5556.4954337585
  0
VERTEX
  8
0
  6
CONTINUOUS
 10
38756.74188467495
 20
-5556.488102174959
 42
0.437027272251
  0
VERTEX
  8
0
  6
CONTINUOUS
 10
38758.89255235958
 20
-5554.4954337585
  0
VERTEX
  8
0
  6
CONTINUOUS
 10
38758.8925501014
 20
-5552.59021381023
  0
SEQEND
  8
0
  6
CONTINUOUS
  0
POLYLINE
  8
0
  6
CONTINUOUS
 66
     1
 70
     1
  0
VERTEX
  8
0
  6
CONTINUOUS
 10
38749.26190041054
 20
-6664.82651730407
  0
VERTEX
  8
0
  6
CONTINUOUS
 10
38773.2618894433
 20
-6664.82651730407
 42
0.417906481242
  0
VERTEX
  8
0
  6
CONTINUOUS
 10
38776.2618806218
 20
-6661.826517277989
  0
VERTEX
  8
0
  6
CONTINUOUS
 10
38776.2618806218
 20
-6661.756760751489
  0
VERTEX
  8
0
  6
CONTINUOUS
 10
38776.2618806218
 20
-6322.09016442924
 42
0.415975756301
  0
VERTEX
  8
0
  6
CONTINUOUS
 10
38774.26187656869
 20
-6320.090190178443
  0
VERTEX
  8
0
  6
CONTINUOUS
 10
38748.26188348282
 20
-6320.090190178441
 42
0.418952842046
  0
VERTEX
  8
0
  6
CONTINUOUS
 10
38746.26187942972
 20
-6322.09016442924
  0
VERTEX
  8
0
  6
CONTINUOUS
 10
38746.26187942972
 20
-6661.756760751489
  0
VERTEX
  8
0
  6
CONTINUOUS
 10
38746.26187942972
 20
-6661.826517277989
 42
0.413414595255
  0
SEQEND
  8
0
  6
CONTINUOUS
  0
LINE
  8
0
 10
38746.26189135064
 20
-6066.826517304061
 11
38746.26189135064
 21
-5908.09396524045
  0
ARC
  8
0
 10
39015.89279409307
 20
-2682.892709782809
 40
2245.863876348702
 50
263.104627461147
 51
270.136974897377
  0
POLYLINE
  8
0
  6
CONTINUOUS
 66
     1
  0
VERTEX
  8
0
  6
CONTINUOUS
 10
38746.26187942972
 20
-6322.058144812571
  0
VERTEX
  8
0
  6
CONTINUOUS
 10
38746.26187942972
 20
-6066.82652731765
 42
0.414298251783
  0
VERTEX
  8
0
  6
CONTINUOUS
 10
38744.26190517891
 20
-6064.82649346221
  0
VERTEX
  8
0
  6
CONTINUOUS
 10
38721.26188229073
 20
-6064.82649346221
 42
0.414621073923
  0
VERTEX
  8
0
  6
CONTINUOUS
 10
38719.26187823762
 20
-6066.82652731765
  0
VERTEX
  8
0
  6
CONTINUOUS
 10
38719.26187823762
 20
-6385.137066847324
 42
0.423344401641
  0
VERTEX
  8
0
  6
CONTINUOUS
 10
38721.26188229073
 20
-6387.149260050342
  0
VERTEX
  8
0
  6
CONTINUOUS
 10
38744.26190517891
 20
-6387.14926005034
 42
0.415061393428
  0
VERTEX
  8
0
  6
CONTINUOUS
 10
38746.26189135064
 20
-6385.149251388971
  0
SEQEND
  8
0
  6
CONTINUOUS
  0
LINE
  8
0
  6
CONTINUOUS
 10
38776.1682275148
 20
-6321.485296494061
 11
39266.35550988698
 21
-6321.485296494061
  0
POLYLINE
  8
0
  6
CONTINUOUS
 66
     1
  0
VERTEX
  8
0
  6
CONTINUOUS
 10
39296.26185797206
 20
-6235.142812735131
  0
VERTEX
  8
0
  6
CONTINUOUS
 10
39296.24782092512
 20
-6235.019899016136
  0
VERTEX
  8
0
  6
CONTINUOUS
 10
39296.23118504712
 20
-6234.896465186372
  0
VERTEX
  8
0
  6
CONTINUOUS
 10
39296.21190948353
 20
-6234.772586292282
  0
VERTEX
  8
0
  6
CONTINUOUS
 10
39296.1899559752
 20
-6234.648339995644
  0
VERTEX
  8
0
  6
CONTINUOUS
 10
39296.16528903302
 20
-6234.523806477841
  0
VERTEX
  8
0
  6
CONTINUOUS
 10
39296.13787610967
 20
-6234.399068331528
  0
VERTEX
  8
0
  6
CONTINUOUS
 10
39296.1076877674
 20
-6234.274210439653
  0
VERTEX
  8
0
  6
CONTINUOUS
 10
39296.07469784076
 20
-6234.149319841892
  0
VERTEX
  8
0
  6
CONTINUOUS
 10
39296.03888359352
 20
-6234.02448558863
  0
VERTEX
  8
0
  6
CONTINUOUS
 10
39296.00022586841
 20
-6233.899798582734
  0
VERTEX
  8
0
  6
CONTINUOUS
 10
39295.95870922881
 20
-6233.775351409419
  0
VERTEX
  8
0
  6
CONTINUOUS
 10
39295.91432209141
 20
-6233.651238154676
  0
VERTEX
  8
0
  6
CONTINUOUS
 10
39295.86705684879
 20
-6233.527554212715
  0
VERTEX
  8
0
  6
CONTINUOUS
 10
39295.81690998081
 20
-6233.40439608309
  0
VERTEX
  8
0
  6
CONTINUOUS
 10
39295.76388215416
 20
-6233.281861158188
  0
VERTEX
  8
0
  6
CONTINUOUS
 10
39295.70797830885
 20
-6233.160047501869
  0
VERTEX
  8
0
  6
CONTINUOUS
 10
39295.64920773113
 20
-6233.039053620198
  0
VERTEX
  8
0
  6
CONTINUOUS
 10
39295.58758411177
 20
-6232.91897822516
  0
VERTEX
  8
0
  6
CONTINUOUS
 10
39295.52312558922
 20
-6232.799919992499
  0
VERTEX
  8
0
  6
CONTINUOUS
 10
39295.45585477707
 20
-6232.681977314735
  0
VERTEX
  8
0
  6
CONTINUOUS
 10
39295.38579877507
 20
-6232.565248050588
  0
VERTEX
  8
0
  6
CONTINUOUS
 10
39295.3129891636
 20
-6232.449829272032
  0
VERTEX
  8
0
  6
CONTINUOUS
 10
39295.23746198104
 20
-6232.335817010289
  0
VERTEX
  8
0
  6
CONTINUOUS
 10
39295.15925768409
 20
-6232.223306002055
  0
VERTEX
  8
0
  6
CONTINUOUS
 10
39295.07842109076
 20
-6232.112389437344
  0
VERTEX
  8
0
  6
CONTINUOUS
 10
39294.99500130619
 20
-6232.003158710272
  0
VERTEX
  8
0
  6
CONTINUOUS
 10
39294.90905163157
 20
-6231.895703174193
  0
VERTEX
  8
0
  6
CONTINUOUS
 10
39294.82062945621
 20
-6231.790109902461
  0
VERTEX
  8
0
  6
CONTINUOUS
 10
39294.72979613348
 20
-6231.686463456215
  0
VERTEX
  8
0
  6
CONTINUOUS
 10
39294.63661684091
 20
-6231.584845660431
  0
VERTEX
  8
0
  6
CONTINUOUS
 10
39294.54116042527
 20
-6231.485335389474
  0
VERTEX
  8
0
  6
CONTINUOUS
 10
39294.4434992333
 20
-6231.388008363358
  0
VERTEX
  8
0
  6
CONTINUOUS
 10
39294.34370892913
 20
-6231.292936955783
  0
VERTEX
  8
0
  6
CONTINUOUS
 10
39294.24186829895
 20
-6231.200190014989
  0
VERTEX
  8
0
  6
CONTINUOUS
 10
39294.13805904463
 20
-6231.10983269835
  0
VERTEX
  8
0
  6
CONTINUOUS
 10
39294.0323655668
 20
-6231.021926321539
  0
VERTEX
  8
0
  6
CONTINUOUS
 10
39293.92487473893
 20
-6230.936528222993
  0
VERTEX
  8
0
  6
CONTINUOUS
 10
39293.81567567358
 20
-6230.853691644275
  0
VERTEX
  8
0
  6
CONTINUOUS
 10
39293.70485948216
 20
-6230.773465626847
  0
VERTEX
  8
0
  6
CONTINUOUS
 10
39293.59251902944
 20
-6230.695894925597
  0
VERTEX
  8
0
  6
CONTINUOUS
 10
39293.47874868428
 20
-6230.621019939408
  0
VERTEX
  8
0
  6
CONTINUOUS
 10
39293.3636440678
 20
-6230.548876658859
  0
VERTEX
  8
0
  6
CONTINUOUS
 10
39293.24730180046
 20
-6230.479496631106
  0
VERTEX
  8
0
  6
CONTINUOUS
 10
39293.12981924935
 20
-6230.412906941777
  0
VERTEX
  8
0
  6
CONTINUOUS
 10
39293.01129427695
 20
-6230.349130213729
  0
VERTEX
  8
0
  6
CONTINUOUS
 10
39292.89182499273
 20
-6230.288184622243
  0
VERTEX
  8
0
  6
CONTINUOUS
 10
39292.77150950863
 20
-6230.230083926273
  0
VERTEX
  8
0
  6
CONTINUOUS
 10
39292.65044569981
 20
-6230.174837515204
  0
VERTEX
  8
0
  6
CONTINUOUS
 10
39292.5287309715
 20
-6230.122450470453
  0
VERTEX
  8
0
  6
CONTINUOUS
 10
39292.40646203324
 20
-6230.07292364124
  0
VERTEX
  8
0
  6
CONTINUOUS
 10
39292.2837346812
 20
-6230.026253733706
  0
VERTEX
  8
0
  6
CONTINUOUS
 10
39292.16064358962
 20
-6229.982433412571
  0
VERTEX
  8
0
  6
CONTINUOUS
 10
39292.03728211192
 20
-6229.941451414398
  0
VERTEX
  8
0
  6
CONTINUOUS
 10
39291.91374209242
 20
-6229.903292671508
  0
VERTEX
  8
0
  6
CONTINUOUS
 10
39291.79011368896
 20
-6229.867938445611
  0
VERTEX
  8
0
  6
CONTINUOUS
 10
39291.66648520707
 20
-6229.835366470102
  0
VERTEX
  8
0
  6
CONTINUOUS
 10
39291.54294294607
 20
-6229.805551100025
  0
VERTEX
  8
0
  6
CONTINUOUS
 10
39291.41957105727
 20
-6229.778463468674
  0
VERTEX
  8
0
  6
CONTINUOUS
 10
39291.2964514146
 20
-6229.754071649818
  0
VERTEX
  8
0
  6
CONTINUOUS
 10
39291.17366349761
 20
-6229.732340824523
  0
VERTEX
  8
0
  6
CONTINUOUS
 10
39291.05128428715
 20
-6229.71323345159
  0
VERTEX
  8
0
  6
CONTINUOUS
 10
39285.61092490247
 20
-6229.254045700244
  0
VERTEX
  8
0
  6
CONTINUOUS
 10
39279.01760591166
 20
-6228.830105168087
  0
VERTEX
  8
0
  6
CONTINUOUS
 10
39272.41656328111
 20
-6228.549169363118
  0
VERTEX
  8
0
  6
CONTINUOUS
 10
39265.46321673611
 20
-6228.415007695372
  0
VERTEX
  8
0
  6
CONTINUOUS
 10
39254.06459410446
 20
-6228.396512851415
  0
VERTEX
  8
0
  6
CONTINUOUS
 10
39243.15135413587
 20
-6228.378065648605
  0
VERTEX
  8
0
  6
CONTINUOUS
 10
39232.65018531198
 20
-6228.359710664081
  0
VERTEX
  8
0
  6
CONTINUOUS
 10
39222.48777611442
 20
-6228.341492474978
  0
VERTEX
  8
0
  6
CONTINUOUS
 10
39212.59081502481
 20
-6228.323455658433
  0
VERTEX
  8
0
  6
CONTINUOUS
 10
39202.8859905248
 20
-6228.305644791581
  0
VERTEX
  8
0
  6
CONTINUOUS
 10
39193.299991096
 20
-6228.288104451561
  0
VERTEX
  8
0
  6
CONTINUOUS
 10
39183.75950522005
 20
-6228.270879215506
  0
VERTEX
  8
0
  6
CONTINUOUS
 10
39174.19122137859
 20
-6228.254013660554
  0
VERTEX
  8
0
  6
CONTINUOUS
 10
39164.52182805324
 20
-6228.23755236384
  0
VERTEX
  8
0
  6
CONTINUOUS
 10
39154.67801372564
 20
-6228.221539902501
  0
VERTEX
  8
0
  6
CONTINUOUS
 10
39144.58895272273
 20
-6228.206023407145
  0
VERTEX
  8
0
  6
CONTINUOUS
 10
39134.23272564657
 20
-6228.191100245153
  0
VERTEX
  8
0
  6
CONTINUOUS
 10
39123.63212428411
 20
-6228.176913711457
  0
VERTEX
  8
0
  6
CONTINUOUS
 10
39112.81158513362
 20
-6228.163608790444
  0
VERTEX
  8
0
  6
CONTINUOUS
 10
39101.79554469333
 20
-6228.151330466501
  0
VERTEX
  8
0
  6
CONTINUOUS
 10
39090.60843946152
 20
-6228.140223724017
  0
VERTEX
  8
0
  6
CONTINUOUS
 10
39079.27470593644
 20
-6228.13043354738
  0
VERTEX
  8
0
  6
CONTINUOUS
 10
39067.81878061632
 20
-6228.122104920976
  0
VERTEX
  8
0
  6
CONTINUOUS
 10
39056.26509999943
 20
-6228.115382829194
  0
VERTEX
  8
0
  6
CONTINUOUS
 10
39044.63810058402
 20
-6228.110412256423
  0
VERTEX
  8
0
  6
CONTINUOUS
 10
39032.96221886834
 20
-6228.107338187049
  0
VERTEX
  8
0
  6
CONTINUOUS
 10
39021.26189135064
 20
-6228.106305605461
  0
SEQEND
  8
0
  6
CONTINUOUS
  0
POLYLINE
  8
0
  6
CONTINUOUS
 66
     1
 70
     1
  0
VERTEX
  8
0
  6
CONTINUOUS
 10
39293.26183699123
 20
-6664.82651730407
  0
VERTEX
  8
0
  6
CONTINUOUS
 10
39269.26184795848
 20
-6664.82651730407
 42
-0.417906481242
  0
VERTEX
  8
0
  6
CONTINUOUS
 10
39266.26185677997
 20
-6661.826517277989
  0
VERTEX
  8
0
  6
CONTINUOUS
 10
39266.26185677997
 20
-6661.756760751489
  0
VERTEX
  8
0
  6
CONTINUOUS
 10
39266.26185677997
 20
-6322.09016442924
 42
-0.415975756301
  0
VERTEX
  8
0
  6
CONTINUOUS
 10
39268.26186083308
 20
-6320.090190178443
  0
VERTEX
  8
0
  6
CONTINUOUS
 10
39294.26185391896
 20
-6320.090190178441
 42
-0.418952842046
  0
VERTEX
  8
0
  6
CONTINUOUS
 10
39296.26185797206
 20
-6322.09016442924
  0
VERTEX
  8
0
  6
CONTINUOUS
 10
39296.26185797206
 20
-6661.756760751489
  0
VERTEX
  8
0
  6
CONTINUOUS
 10
39296.26185797206
 20
-6661.826517277989
 42
-0.413414595255
  0
SEQEND
  8
0
  6
CONTINUOUS
  0
LINE
  8
0
 10
39296.26184605113
 20
-6066.826517304061
 11
39296.26184605113
 21
-5908.09396524045
  0
POLYLINE
  8
0
  6
CONTINUOUS
 66
     1
  0
VERTEX
  8
0
  6
CONTINUOUS
 10
39296.26185797206
 20
-6322.058144812571
  0
VERTEX
  8
0
  6
CONTINUOUS
 10
39296.26185797206
 20
-6066.82652731765
 42
-0.414298251783
  0
VERTEX
  8
0
  6
CONTINUOUS
 10
39298.26183222287
 20
-6064.82649346221
  0
VERTEX
  8
0
  6
CONTINUOUS
 10
39321.26185511104
 20
-6064.82649346221
 42
-0.414621073923
  0
VERTEX
  8
0
  6
CONTINUOUS
 10
39323.26185916415
 20
-6066.82652731765
  0
VERTEX
  8
0
  6
CONTINUOUS
 10
39323.26185916415
 20
-6385.137066847324
 42
-0.423344401641
  0
VERTEX
  8
0
  6
CONTINUOUS
 10
39321.26185511104
 20
-6387.149260050342
  0
VERTEX
  8
0
  6
CONTINUOUS
 10
39298.26183222287
 20
-6387.14926005034
 42
-0.415061393428
  0
VERTEX
  8
0
  6
CONTINUOUS
 10
39296.26184605113
 20
-6385.149251388971
  0
SEQEND
  8
0
  6
CONTINUOUS
  0
POLYLINE
  8
0
 66
     1
  0
VERTEX
  8
0
 10
39296.26184605113
 20
-5908.09396524045
  0
VERTEX
  8
0
 10
39287.67641204123
 20
-5908.640530685437
  0
VERTEX
  8
0
 10
39279.09091298852
 20
-5909.185402380323
  0
VERTEX
  8
0
 10
39270.50528385017
 20
-5909.726886575009
  0
VERTEX
  8
0
 10
39261.91945958339
 20
-5910.263289519394
  0
VERTEX
  8
0
 10
39253.33337514535
 20
-5910.792917463378
  0
VERTEX
  8
0
 10
39244.74696549324
 20
-5911.314076656861
  0
VERTEX
  8
0
 10
39236.16016558424
 20
-5911.825073349743
  0
VERTEX
  8
0
 10
39227.57291037554
 20
-5912.324213791922
  0
VERTEX
  8
0
 10
39218.98513482432
 20
-5912.809804233299
  0
VERTEX
  8
0
 10
39210.39677388777
 20
-5913.280150923775
  0
VERTEX
  8
0
 10
39201.80776252309
 20
-5913.733560113248
  0
VERTEX
  8
0
 10
39193.21803568743
 20
-5914.168338051618
  0
VERTEX
  8
0
 10
39184.62752833801
 20
-5914.582790988785
  0
VERTEX
  8
0
 10
39176.036175432
 20
-5914.975225174648
  0
VERTEX
  8
0
 10
39167.4439119266
 20
-5915.343946859109
  0
VERTEX
  8
0
 10
39158.85067277897
 20
-5915.687262292065
  0
VERTEX
  8
0
 10
39150.25641450949
 20
-5916.00403924023
  0
VERTEX
  8
0
 10
39141.66118037187
 20
-5916.295404053647
  0
VERTEX
  8
0
 10
39133.06503542398
 20
-5916.563050874629
  0
VERTEX
  8
0
 10
39124.4680447237
 20
-5916.808673845493
  0
VERTEX
  8
0
 10
39115.87027332892
 20
-5917.033967108557
  0
VERTEX
  8
0
 10
39107.27178629749
 20
-5917.240624806134
  0
VERTEX
  8
0
 10
39098.67264868729
 20
-5917.430341080546
  0
VERTEX
  8
0
 10
39090.07292555623
 20
-5917.604810074106
  0
VERTEX
  8
0
 10
39081.47268196214
 20
-5917.765725929133
  0
VERTEX
  8
0
 10
39072.87198296292
 20
-5917.914782787941
  0
VERTEX
  8
0
 10
39064.27089361645
 20
-5918.053674792849
  0
VERTEX
  8
0
 10
39055.66947898059
 20
-5918.184096086174
  0
VERTEX
  8
0
 10
39047.06780411323
 20
-5918.307740810232
  0
VERTEX
  8
0
 10
39038.46593407224
 20
-5918.426303107339
  0
VERTEX
  8
0
 10
39029.86393391551
 20
-5918.541477119812
  0
VERTEX
  8
0
 10
39021.26186870089
 20
-5918.654956989969
  0
VERTEX
  8
0
 10
39012.65980348628
 20
-5918.541477119812
  0
VERTEX
  8
0
 10
39004.05780332953
 20
-5918.42630310734
  0
VERTEX
  8
0
 10
38995.45593328854
 20
-5918.307740810232
  0
VERTEX
  8
0
 10
38986.85425842118
 20
-5918.184096086175
  0
VERTEX
  8
0
 10
38978.25284378533
 20
-5918.053674792851
  0
VERTEX
  8
0
 10
38969.65175443886
 20
-5917.914782787942
  0
VERTEX
  8
0
 10
38961.05105543964
 20
-5917.765725929133
  0
VERTEX
  8
0
 10
38952.45081184556
 20
-5917.604810074107
  0
VERTEX
  8
0
 10
38943.85108871448
 20
-5917.430341080548
  0
VERTEX
  8
0
 10
38935.25195110429
 20
-5917.240624806136
  0
VERTEX
  8
0
 10
38926.65346407286
 20
-5917.033967108557
  0
VERTEX
  8
0
 10
38918.05569267807
 20
-5916.808673845494
  0
VERTEX
  8
0
 10
38909.4587019778
 20
-5916.56305087463
  0
VERTEX
  8
0
 10
38900.8625570299
 20
-5916.295404053647
  0
VERTEX
  8
0
 10
38892.26732289229
 20
-5916.004039240231
  0
VERTEX
  8
0
 10
38883.6730646228
 20
-5915.687262292065
  0
VERTEX
  8
0
 10
38875.07982547519
 20
-5915.343946859109
  0
VERTEX
  8
0
 10
38866.48756196978
 20
-5914.975225174649
  0
VERTEX
  8
0
 10
38857.89620906377
 20
-5914.582790988786
  0
VERTEX
  8
0
 10
38849.30570171434
 20
-5914.168338051618
  0
VERTEX
  8
0
 10
38840.7159748787
 20
-5913.733560113249
  0
VERTEX
  8
0
 10
38832.12696351401
 20
-5913.280150923775
  0
VERTEX
  8
0
 10
38823.53860257746
 20
-5912.8098042333
  0
VERTEX
  8
0
 10
38814.95082702624
 20
-5912.324213791922
  0
VERTEX
  8
0
 10
38806.36357181754
 20
-5911.825073349743
  0
VERTEX
  8
0
 10
38797.77677190854
 20
-5911.314076656861
  0
VERTEX
  8
0
 10
38789.19036225643
 20
-5910.792917463378
  0
VERTEX
  8
0
 10
38780.60427781839
 20
-5910.263289519394
  0
VERTEX
  8
0
 10
38772.0184535516
 20
-5909.726886575009
  0
VERTEX
  8
0
 10
38763.43282441326
 20
-5909.185402380323
  0
VERTEX
  8
0
 10
38754.84732536055
 20
-5908.640530685437
  0
VERTEX
  8
0
 10
38746.26189135064
 20
-5908.09396524045
  0
SEQEND
  8
0
  0
LINE
  8
0
 10
39021.26186870088
 20
-5926.646450335961
 11
39021.26163915409
 21
-6228.106305605473
  0
POLYLINE
  8
0
 66
     1
  0
VERTEX
  8
0
 10
39271.4763095235
 20
-6079.15878792632
 42
0.013323319944
  0
VERTEX
  8
0
 10
39021.26186870088
 20
-6071.727483020823
 42
0.013323319944
  0
VERTEX
  8
0
 10
38771.04742787827
 20
-6079.15878792632
  0
SEQEND
  8
0
  0
POLYLINE
  8
0
  6
CONTINUOUS
 66
     1
  0
VERTEX
  8
0
  6
CONTINUOUS
 10
38776.2618806218
 20
-6401.21838510661
  0
VERTEX
  8
0
  6
CONTINUOUS
 10
39021.26186870088
 20
-6401.21838510661
  0
VERTEX
  8
0
  6
CONTINUOUS
 10
39266.26185677997
 20
-6401.21838510661
  0
SEQEND
  8
0
  6
CONTINUOUS
  0
POLYLINE
  8
0
  6
CONTINUOUS
 66
     1
  0
VERTEX
  8
0
  6
CONTINUOUS
 10
38776.2618806218
 20
-6382.46499062209
  0
VERTEX
  8
0
  6
CONTINUOUS
 10
39021.26186870088
 20
-6382.46499062209
  0
VERTEX
  8
0
  6
CONTINUOUS
 10
39266.26185677997
 20
-6382.46499062209
  0
SEQEND
  8
0
  6
CONTINUOUS
  0
LINE
  8
0
 10
39021.26184485901
 20
-4879.912269140439
 11
39021.26184485901
 21
-5079.713687249994
  0
LINE
  8
0
  6
CONTINUOUS
 10
39021.26186870087
 20
-4864.71800368784
 11
39266.2618794297
 21
-4864.71800368784
  0
POLYLINE
  8
0
  6
CONTINUOUS
 66
     1
  0
VERTEX
  8
0
  6
CONTINUOUS
 10
39266.2618794297
 20
-4879.912269140439
  0
VERTEX
  8
0
  6
CONTINUOUS
 10
39266.2618794297
 20
-4856.027914700489
 42
-0.417429979052
  0
VERTEX
  8
0
  6
CONTINUOUS
 10
39268.26188348282
 20
-4854.027910647379
  0
VERTEX
  8
0
  6
CONTINUOUS
 10
39294.26187656868
 20
-4854.027910647379
 42
-0.416549880933
  0
VERTEX
  8
0
  6
CONTINUOUS
 10
39296.26185677994
 20
-4856.02100757663
  0
VERTEX
  8
0
  6
CONTINUOUS
 10
39296.26185677994
 20
-5528.18531344053
 42
-0.413931751342
  0
VERTEX
  8
0
  6
CONTINUOUS
 10
39266.33473681303
 20
-5558.09396524045
  0
VERTEX
  8
0
  6
CONTINUOUS
 10
39021.26186870087
 20
-5558.09396524045
  0
SEQEND
  8
0
  6
CONTINUOUS
  0
POLYLINE
  8
0
 66
     1
  0
VERTEX
  8
0
 10
39021.26184485901
 20
-4879.912269140439
  0
VERTEX
  8
0
 10
39271.25400736008
 20
-4879.912269140439
 42
-0.409923942773
  0
VERTEX
  8
0
 10
39296.26185677994
 20
-4907.317708955091
  0
SEQEND
  8
0
  0
POLYLINE
  8
0
 66
     1
  0
VERTEX
  8
0
 10
39296.26185677994
 20
-4952.67705195065
 42
-0.380733167307
  0
VERTEX
  8
0
 10
39256.44787607001
 20
-4998.176142789456
 42
-0.04117623948
  0
VERTEX
  8
0
 10
39021.26184485901
 20
-5020.56922770118
  0
SEQEND
  8
0
  0
POLYLINE
  8
0
 66
     1
  0
VERTEX
  8
0
 10
39296.26185677994
 20
-5036.210583288971
 42
-0.401694990331
  0
VERTEX
  8
0
 10
39259.90255399934
 20
-5072.814881041324
 42
-0.021814873476
  0
VERTEX
  8
0
 10
39024.86005115009
 20
-5083.545123386921
 42
-0.373392447689
  0
VERTEX
  8
0
 10
39021.26186870087
 20
-5079.713080727865
  0
SEQEND
  8
0
  0
POLYLINE
  8
0
 66
     1
  0
VERTEX
  8
0
 10
39296.26185677994
 20
-4897.80791064738
  0
VERTEX
  8
0
 10
39323.26185677994
 20
-4897.80791064738
  0
VERTEX
  8
0
 10
39323.26185677994
 20
-5316.88791064738
  0
VERTEX
  8
0
 10
39296.26185677994
 20
-5316.88791064738
  0
SEQEND
  8
0
  0
POLYLINE
  8
0
  6
CONTINUOUS
 66
     1
  0
VERTEX
  8
0
  6
CONTINUOUS
 10
39296.26185677994
 20
-5528.18531344051
  0
VERTEX
  8
0
  6
CONTINUOUS
 10
39296.26185677991
 20
-5554.493015505041
  0
VERTEX
  8
0
  6
CONTINUOUS
 10
39296.26185677991
 20
-5554.495459295469
 42
-0.414424386707
  0
VERTEX
  8
0
  6
CONTINUOUS
 10
39294.26184485899
 20
-5556.4954337585
  0
VERTEX
  8
0
  6
CONTINUOUS
 10
39285.7818527268
 20
-5556.488102174959
 42
-0.437027272251
  0
VERTEX
  8
0
  6
CONTINUOUS
 10
39283.63118504216
 20
-5554.4954337585
  0
VERTEX
  8
0
  6
CONTINUOUS
 10
39283.63118730034
 20
-5552.59021381023
  0
SEQEND
  8
0
  6
CONTINUOUS
  0
ARC
  8
0
 10
39026.63094330868
 20
-2682.892709782809
 40
2245.863876348701
 50
269.863025102623
 51
276.895372538853
  0
POLYLINE
  8
0
 66
     1
  0
VERTEX
  8
0
 10
39874.45440564657
 20
-6322.864986837513
 42
0.41436330431
  0
VERTEX
  8
0
 10
39872.25608640938
 20
-6324.644950711972
  0
VERTEX
  8
0
 10
39836.46674044992
 20
-6664.82651730407
  0
VERTEX
  8
0
 10
39865.62493886835
 20
-6664.83054094063
  0
VERTEX
  8
0
 10
39917.32820452792
 20
-6327.371203397591
  0
SEQEND
  8
0
  0
POLYLINE
  8
0
 66
     1
  0
VERTEX
  8
0
 10
40117.66744424645
 20
-6348.42771636021
  0
VERTEX
  8
0
 10
40344.42880348641
 20
-6372.26129319888
 42
0.335853317282
  0
VERTEX
  8
0
 10
40359.51152005586
 20
-6362.156778441366
  0
VERTEX
  8
0
 10
40436.31104281865
 20
-6139.11476033095
  0
SEQEND
  8
0
  0
POLYLINE
  8
0
 66
     1
  0
VERTEX
  8
0
 10
40383.83391901849
 20
-6291.519408629135
 42
0.455755160831
  0
VERTEX
  8
0
 10
40380.07653980876
 20
-6284.995233471242
  0
VERTEX
  8
0
 10
40365.98613855751
 20
-6282.238678544545
  0
SEQEND
  8
0
  0
POLYLINE
  8
0
 66
     1
  0
VERTEX
  8
0
 10
40334.23952149763
 20
-6279.14169077214
  0
VERTEX
  8
0
 10
40334.6145971106
 20
-6279.23129137864
  0
VERTEX
  8
0
 10
40334.98967792765
 20
-6279.320847673002
  0
VERTEX
  8
0
 10
40335.36476915287
 20
-6279.410315343086
  0
VERTEX
  8
0
 10
40335.73987599034
 20
-6279.499650076754
  0
VERTEX
  8
0
 10
40336.11500364415
 20
-6279.588807561865
  0
VERTEX
  8
0
 10
40336.49015731837
 20
-6279.677743486283
  0
VERTEX
  8
0
 10
40336.86534221708
 20
-6279.766413537867
  0
VERTEX
  8
0
 10
40337.24056354439
 20
-6279.85477340448
  0
VERTEX
  8
0
 10
40337.61582650437
 20
-6279.942778773981
  0
VERTEX
  8
0
 10
40337.99113630108
 20
-6280.030385334233
  0
VERTEX
  8
0
 10
40338.36649813864
 20
-6280.117548773094
  0
VERTEX
  8
0
 10
40338.7419172211
 20
-6280.20422477843
  0
VERTEX
  8
0
 10
40339.11739875257
 20
-6280.290369038099
  0
VERTEX
  8
0
 10
40339.49294793712
 20
-6280.375937239963
  0
VERTEX
  8
0
 10
40339.86856997883
 20
-6280.460885071882
  0
VERTEX
  8
0
 10
40340.2442700818
 20
-6280.545168221718
  0
VERTEX
  8
0
 10
40340.6200534501
 20
-6280.628742377333
  0
VERTEX
  8
0
 10
40340.99592528781
 20
-6280.711563226586
  0
VERTEX
  8
0
 10
40341.37189079903
 20
-6280.793586457341
  0
VERTEX
  8
0
 10
40341.74795518782
 20
-6280.874767757456
  0
VERTEX
  8
0
 10
40342.12412365829
 20
-6280.955062814795
  0
VERTEX
  8
0
 10
40342.5004014145
 20
-6281.034427317217
  0
VERTEX
  8
0
 10
40342.87679366054
 20
-6281.112816952585
  0
VERTEX
  8
0
 10
40343.2533056005
 20
-6281.190187408757
  0
VERTEX
  8
0
 10
40343.62994243847
 20
-6281.266494373597
  0
VERTEX
  8
0
 10
40344.00670937851
 20
-6281.341693534966
  0
VERTEX
  8
0
 10
40344.38361162472
 20
-6281.415740580724
  0
VERTEX
  8
0
 10
40344.76065438118
 20
-6281.488591198732
  0
VERTEX
  8
0
 10
40345.13784285197
 20
-6281.560201076853
  0
VERTEX
  8
0
 10
40345.51518224117
 20
-6281.630525902946
  0
VERTEX
  8
0
 10
40345.89267775288
 20
-6281.699521364872
  0
VERTEX
  8
0
 10
40346.27033459116
 20
-6281.767143150495
  0
VERTEX
  8
0
 10
40346.64815796011
 20
-6281.833346947674
  0
VERTEX
  8
0
 10
40347.02615306382
 20
-6281.89808844427
  0
VERTEX
  8
0
 10
40347.40432510635
 20
-6281.961323328143
  0
VERTEX
  8
0
 10
40347.78267929179
 20
-6282.023007287157
  0
VERTEX
  8
0
 10
40348.16122082424
 20
-6282.083096009173
  0
VERTEX
  8
0
 10
40348.53995490777
 20
-6282.141545182049
  0
VERTEX
  8
0
 10
40348.91888674647
 20
-6282.198310493649
  0
VERTEX
  8
0
 10
40349.29802154441
 20
-6282.253347631833
  0
VERTEX
  8
0
 10
40349.67736450569
 20
-6282.306612284462
  0
VERTEX
  8
0
 10
40350.05692083438
 20
-6282.358060139398
  0
VERTEX
  8
0
 10
40350.43669573457
 20
-6282.407646884501
  0
VERTEX
  8
0
 10
40350.81669441034
 20
-6282.455328207633
  0
VERTEX
  8
0
 10
40351.19692206578
 20
-6282.501059796654
  0
VERTEX
  8
0
 10
40351.57738390497
 20
-6282.544797339427
  0
VERTEX
  8
0
 10
40351.95808513198
 20
-6282.586496523812
  0
VERTEX
  8
0
 10
40352.33903095091
 20
-6282.626113037671
  0
VERTEX
  8
0
 10
40352.72022656583
 20
-6282.663602568862
  0
VERTEX
  8
0
 10
40353.10167718086
 20
-6282.69892080525
  0
VERTEX
  8
0
 10
40353.48338800002
 20
-6282.732023434694
  0
VERTEX
  8
0
 10
40353.86536422746
 20
-6282.762866145056
  0
VERTEX
  8
0
 10
40361.39105939976
 20
-6282.871941268883
  0
VERTEX
  8
0
 10
40376.27980645854
 20
-6278.695970769361
  0
VERTEX
  8
0
 10
40388.66938197161
 20
-6268.95535310206
  0
VERTEX
  8
0
 10
40396.05761332623
 20
-6256.019222655149
  0
SEQEND
  8
0
  0
POLYLINE
  8
0
  6
CONTINUOUS
 62
     4
 66
     1
  0
VERTEX
  8
0
  6
CONTINUOUS
 62
     4
 10
40476.1330319026
 20
-6141.671089167422
 42
-0.000000000012
  0
VERTEX
  8
0
  6
CONTINUOUS
 62
     4
 10
40476.13303184303
 20
-6141.671089164563
  0
SEQEND
  8
0
  6
CONTINUOUS
 62
     4
  0
POLYLINE
  8
0
 66
     1
 70
     1
  0
VERTEX
  8
0
 10
40190.2474275689
 20
-6093.900173605633
 42
0.057782474848
  0
VERTEX
  8
0
 10
40470.74946080097
 20
-6141.400975042098
 42
0.340251846813
  0
VERTEX
  8
0
 10
40477.77914542909
 20
-6136.554316142884
  0
VERTEX
  8
0
 10
40484.43630535757
 20
-6115.861277211793
 42
0.493689887229
  0
VERTEX
  8
0
 10
40478.10644387565
 20
-6106.725475470816
 42
-0.058939265916
  0
VERTEX
  8
0
 10
40200.02703530969
 20
-6060.294232576751
 42
0.52888788815
  0
VERTEX
  8
0
 10
40066.13197872524
 20
-6170.755377186611
  0
VERTEX
  8
0
 10
40086.32973659021
 20
-6389.746358483158
 42
0.357756668238
  0
VERTEX
  8
0
 10
40092.56846490731
 20
-6396.065119441299
  0
VERTEX
  8
0
 10
40113.86401879802
 20
-6398.30337943967
 42
0.470140059176
  0
VERTEX
  8
0
 10
40121.56615135112
 20
-6390.698826076794
  0
VERTEX
  8
0
 10
40100.98405458232
 20
-6167.540935021
 42
-0.528886292566
  0
SEQEND
  8
0
  0
POLYLINE
  8
0
 66
     1
  0
VERTEX
  8
0
 10
40484.43630610135
 20
-6115.86128817464
  0
VERTEX
  8
0
 10
40525.55477407001
 20
-5988.049126360484
 42
0.407762180568
  0
VERTEX
  8
0
 10
40519.29126209093
 20
-5975.533578159808
  0
VERTEX
  8
0
 10
40504.89743654143
 20
-5970.57740923957
 42
0.414011700569
  0
VERTEX
  8
0
 10
40492.20613888611
 20
-5976.783622321504
  0
VERTEX
  8
0
 10
40448.08693720762
 20
-6104.91507253188
  0
SEQEND
  8
0
  0
POLYLINE
  8
0
 66
     1
  0
VERTEX
  8
0
 10
40477.77914552535
 20
-6136.55432871886
  0
VERTEX
  8
0
 10
40408.41311520834
 20
-6352.1708830377
 42
0.10592863243
  0
VERTEX
  8
0
 10
40400.05414223827
 20
-6437.81567598737
  0
VERTEX
  8
0
 10
40428.17342710424
 20
-6664.82651730407
  0
VERTEX
  8
0
 10
40398.34952921807
 20
-6664.82651730407
  0
VERTEX
  8
0
 10
40353.87776232635
 20
-6423.529830909727
  0
VERTEX
  8
0
 10
40113.86401879802
 20
-6398.30337943967
  0
SEQEND
  8
0
  0
ARC
  8
0
 10
42341.77082826296
 20
-6787.463133798449
 40
2070.886920399867
 50
161.574234671755
 51
165.790936141018
  0
ARC
  8
0
 10
42530.56680790967
 20
-6819.155952827662
 40
2259.998317527087
 50
156.228419484667
 51
161.420014920036
  0
POLYLINE
  8
0
 66
     1
  0
VERTEX
  8
0
 10
40391.2730664023
 20
-6090.33995691463
  0
VERTEX
  8
0
 10
40347.31218906367
 20
-6075.202262492284
 42
0.416524064188
  0
VERTEX
  8
0
 10
40340.92952408129
 20
-6078.27649837889
  0
VERTEX
  8
0
 10
40336.53236067723
 20
-6091.509462022112
  0
SEQEND
  8
0
  0
POLYLINE
  8
0
 66
     1
  0
VERTEX
  8
0
 10
40347.31218906368
 20
-6075.202262492282
  0
VERTEX
  8
0
 10
40344.32399158042
 20
-6068.750529808563
  0
VERTEX
  8
0
 10
40344.93832958231
 20
-6067.266206566744
  0
VERTEX
  8
0
 10
40345.5527253995
 20
-6065.781867468796
  0
VERTEX
  8
0
 10
40346.16723549568
 20
-6064.297497029271
  0
VERTEX
  8
0
 10
40346.78191633457
 20
-6062.813079762721
  0
VERTEX
  8
0
 10
40347.39682437985
 20
-6061.328600183699
  0
VERTEX
  8
0
 10
40348.01201609524
 20
-6059.844042806758
  0
VERTEX
  8
0
 10
40348.62754794443
 20
-6058.359392146449
  0
VERTEX
  8
0
 10
40349.24347639112
 20
-6056.874632717324
  0
VERTEX
  8
0
 10
40349.85985789902
 20
-6055.389749033935
  0
VERTEX
  8
0
 10
40350.47674893183
 20
-6053.904725610835
  0
VERTEX
  8
0
 10
40351.09420595324
 20
-6052.419546962577
  0
VERTEX
  8
0
 10
40351.71228542695
 20
-6050.934197603712
  0
VERTEX
  8
0
 10
40352.3310438167
 20
-6049.448662048793
  0
VERTEX
  8
0
 10
40352.95053758613
 20
-6047.962924812372
  0
VERTEX
  8
0
 10
40353.57082319899
 20
-6046.476970409001
  0
VERTEX
  8
0
 10
40354.19195711897
 20
-6044.990783353232
  0
VERTEX
  8
0
 10
40354.81399580976
 20
-6043.504348159619
  0
VERTEX
  8
0
 10
40355.43699573507
 20
-6042.017649342713
  0
VERTEX
  8
0
 10
40356.06101335859
 20
-6040.530671417065
  0
VERTEX
  8
0
 10
40356.68610514404
 20
-6039.04339889723
  0
VERTEX
  8
0
 10
40357.31232755512
 20
-6037.555816297757
  0
VERTEX
  8
0
 10
40357.93973705552
 20
-6036.067908133201
  0
VERTEX
  8
0
 10
40358.56839010894
 20
-6034.579658918113
  0
VERTEX
  8
0
 10
40359.19834317908
 20
-6033.091053167044
  0
VERTEX
  8
0
 10
40359.82965272965
 20
-6031.60207539455
  0
VERTEX
  8
0
 10
40360.46237522436
 20
-6030.112710115181
  0
VERTEX
  8
0
 10
40361.09656712689
 20
-6028.622941843487
  0
VERTEX
  8
0
 10
40361.73228490095
 20
-6027.132755094023
  0
VERTEX
  8
0
 10
40362.36958501025
 20
-6025.642134381342
  0
VERTEX
  8
0
 10
40363.00852391849
 20
-6024.151064219995
  0
VERTEX
  8
0
 10
40363.64915808936
 20
-6022.659529124533
  0
VERTEX
  8
0
 10
40364.29154398657
 20
-6021.16751360951
  0
VERTEX
  8
0
 10
40364.93573807381
 20
-6019.675002189478
  0
VERTEX
  8
0
 10
40365.5817968148
 20
-6018.181979378988
  0
VERTEX
  8
0
 10
40366.22977667323
 20
-6016.688429692595
  0
VERTEX
  8
0
 10
40366.8797341128
 20
-6015.194337644848
  0
VERTEX
  8
0
 10
40367.53172559722
 20
-6013.699687750301
  0
VERTEX
  8
0
 10
40368.18580759018
 20
-6012.204464523506
  0
VERTEX
  8
0
 10
40368.8420365554
 20
-6010.708652479015
  0
VERTEX
  8
0
 10
40369.50046895655
 20
-6009.21223613138
  0
VERTEX
  8
0
 10
40370.16116125736
 20
-6007.715199995156
  0
VERTEX
  8
0
 10
40370.82416992152
 20
-6006.217528584891
  0
VERTEX
  8
0
 10
40371.48955141273
 20
-6004.71920641514
  0
VERTEX
  8
0
 10
40372.15736219471
 20
-6003.220218000453
  0
VERTEX
  8
0
 10
40372.82767716728
 20
-6001.720575170299
  0
VERTEX
  8
0
 10
40373.50072322185
 20
-6000.220514944224
  0
VERTEX
  8
0
 10
40374.17680205822
 20
-5998.720385177571
  0
VERTEX
  8
0
 10
40374.85621589852
 20
-5997.220534499575
  0
VERTEX
  8
0
 10
40375.53926696487
 20
-5995.721311539472
  0
VERTEX
  8
0
 10
40376.2262574794
 20
-5994.2230649265
  0
VERTEX
  8
0
 10
40376.91748966424
 20
-5992.726143289894
  0
VERTEX
  8
0
 10
40377.61326574152
 20
-5991.230895258888
  0
VERTEX
  8
0
 10
40378.31388793337
 20
-5989.73766946272
  0
VERTEX
  8
0
 10
40379.01965846191
 20
-5988.246814530627
  0
VERTEX
  8
0
 10
40379.73087954928
 20
-5986.758679091842
  0
VERTEX
  8
0
 10
40380.44785341759
 20
-5985.273611775603
  0
VERTEX
  8
0
 10
40381.17088228899
 20
-5983.791961211146
  0
VERTEX
  8
0
 10
40381.90026838559
 20
-5982.314076027707
  0
VERTEX
  8
0
 10
40382.63631392954
 20
-5980.840304854521
  0
VERTEX
  8
0
 10
40383.37932114294
 20
-5979.370996320826
  0
VERTEX
  8
0
 10
40384.12959224794
 20
-5977.906499055855
  0
VERTEX
  8
0
 10
40384.88742946666
 20
-5976.447161688849
  0
VERTEX
  8
0
 10
40385.65313502123
 20
-5974.993332849038
  0
VERTEX
  8
0
 10
40386.42701113378
 20
-5973.545361165661
  0
VERTEX
  8
0
 10
40387.20936002643
 20
-5972.103595267955
  0
VERTEX
  8
0
 10
40388.00048392132
 20
-5970.668383785153
  0
VERTEX
  8
0
 10
40388.80068504057
 20
-5969.240075346495
  0
VERTEX
  8
0
 10
40389.61026560631
 20
-5967.819018581214
  0
VERTEX
  8
0
 10
40390.42952784067
 20
-5966.405562118547
  0
VERTEX
  8
0
 10
40391.25877396578
 20
-5965.00005458773
  0
VERTEX
  8
0
 10
40392.09830620376
 20
-5963.602844617999
  0
VERTEX
  8
0
 10
40392.94842677675
 20
-5962.214280838589
  0
VERTEX
  8
0
 10
40393.80943790688
 20
-5960.834711878739
  0
VERTEX
  8
0
 10
40394.68164181626
 20
-5959.464486367681
  0
VERTEX
  8
0
 10
40395.56534072704
 20
-5958.103952934654
  0
VERTEX
  8
0
 10
40396.46083686133
 20
-5956.753460208893
  0
VERTEX
  8
0
 10
40397.36843244126
 20
-5955.413356819634
  0
VERTEX
  8
0
 10
40398.28842968897
 20
-5954.083991396113
  0
VERTEX
  8
0
 10
40399.22113082658
 20
-5952.765712567566
  0
VERTEX
  8
0
 10
40400.16683807622
 20
-5951.458868963229
  0
VERTEX
  8
0
 10
40401.12585366002
 20
-5950.163809212339
  0
VERTEX
  8
0
 10
40402.09847980011
 20
-5948.880881944131
  0
VERTEX
  8
0
 10
40403.08501871861
 20
-5947.61043578784
  0
VERTEX
  8
0
 10
40404.08577263766
 20
-5946.352819372704
  0
VERTEX
  8
0
 10
40405.10104377938
 20
-5945.108381327957
  0
VERTEX
  8
0
 10
40406.1311343659
 20
-5943.877470282839
  0
VERTEX
  8
0
 10
40407.17634661935
 20
-5942.660434866581
  0
VERTEX
  8
0
 10
40408.23698276185
 20
-5941.457623708422
  0
VERTEX
  8
0
 10
40409.31334501554
 20
-5940.269385437597
  0
VERTEX
  8
0
 10
40410.40573560255
 20
-5939.096068683342
  0
VERTEX
  8
0
 10
40411.51445674499
 20
-5937.938022074894
  0
VERTEX
  8
0
 10
40412.63981066502
 20
-5936.795594241487
  0
VERTEX
  8
0
 10
40413.78209958474
 20
-5935.669133812361
  0
VERTEX
  8
0
 10
40414.94162410813
 20
-5934.558987806422
  0
VERTEX
  8
0
 10
40416.11830948442
 20
-5933.465129700001
  0
VERTEX
  8
0
 10
40417.31122704448
 20
-5932.386683173852
  0
VERTEX
  8
0
 10
40418.51932998493
 20
-5931.322654344779
  0
VERTEX
  8
0
 10
40419.74157150236
 20
-5930.27204932959
  0
VERTEX
  8
0
 10
40420.97690479336
 20
-5929.233874245092
  0
VERTEX
  8
0
 10
40422.22428305453
 20
-5928.207135208089
  0
VERTEX
  8
0
 10
40423.48265948248
 20
-5927.190838335391
  0
VERTEX
  8
0
 10
40424.75098727379
 20
-5926.183989743802
  0
VERTEX
  8
0
 10
40426.02821962508
 20
-5925.185595550129
  0
VERTEX
  8
0
 10
40427.31330973293
 20
-5924.194661871179
  0
VERTEX
  8
0
 10
40428.60521079395
 20
-5923.210194823758
  0
VERTEX
  8
0
 10
40429.90287600474
 20
-5922.231200524672
  0
VERTEX
  8
0
 10
40431.20525856187
 20
-5921.25668509073
  0
VERTEX
  8
0
 10
40432.51131166198
 20
-5920.285654638736
  0
VERTEX
  8
0
 10
40433.81998850164
 20
-5919.317115285497
  0
VERTEX
  8
0
 10
40435.13024227745
 20
-5918.350073147821
  0
VERTEX
  8
0
 10
40477.67810291746
 20
-5908.898475860474
  0
SEQEND
  8
0
  0
ARC
  8
0
 10
41204.8150110545
 20
-6351.497039397034
 40
906.9558380149139
 50
165.558484642914
 51
174.938427453211
  0
POLYLINE
  8
0
 66
     1
  0
VERTEX
  8
0
 10
40492.20613888611
 20
-5976.783622321504
  0
VERTEX
  8
0
 10
40496.6219492743
 20
-5961.472540673561
 42
0.370477324366
  0
VERTEX
  8
0
 10
40477.67810291748
 20
-5908.898475860477
  0
SEQEND
  8
0
  0
ARC
  8
0
 10
39984.75198081712
 20
-7703.024941704623
 40
1466.146327409708
 50
76.209553445109
 51
85.18350122018
  0
POLYLINE
  8
0
 66
     1
  0
VERTEX
  8
0
 10
40082.1748143697
 20
-6344.697291570858
  0
VERTEX
  8
0
 10
40073.19289148942
 20
-6343.753252819084
  0
VERTEX
  8
0
 10
40064.21096860913
 20
-6342.809214067307
  0
VERTEX
  8
0
 10
40055.22904572884
 20
-6341.865175315533
  0
VERTEX
  8
0
 10
40046.24712284855
 20
-6340.921136563758
  0
VERTEX
  8
0
 10
40037.26519996826
 20
-6339.977097811981
  0
VERTEX
  8
0
 10
40028.28327708798
 20
-6339.033059060207
  0
VERTEX
  8
0
 10
40019.30135420769
 20
-6338.08902030843
  0
VERTEX
  8
0
 10
40010.3194313274
 20
-6337.144981556656
  0
VERTEX
  8
0
 10
40001.33750844711
 20
-6336.200942804881
  0
VERTEX
  8
0
 10
39992.35558556682
 20
-6335.256904053104
  0
VERTEX
  8
0
 10
39983.37366268654
 20
-6334.31286530133
  0
VERTEX
  8
0
 10
39974.39173980625
 20
-6333.368826549556
  0
VERTEX
  8
0
 10
39965.40981692596
 20
-6332.424787797779
  0
VERTEX
  8
0
 10
39956.42789404567
 20
-6331.480749046004
  0
VERTEX
  8
0
 10
39947.44597116538
 20
-6330.536710294227
  0
VERTEX
  8
0
 10
39938.4640482851
 20
-6329.592671542453
  0
VERTEX
  8
0
 10
39929.48212540481
 20
-6328.648632790679
  0
VERTEX
  8
0
 10
39920.50020252452
 20
-6327.704594038902
  0
VERTEX
  8
0
 10
39911.51827964423
 20
-6326.760555287127
  0
VERTEX
  8
0
 10
39902.53635676394
 20
-6325.816516535353
  0
VERTEX
  8
0
 10
39893.55443388366
 20
-6324.872477783576
  0
VERTEX
  8
0
 10
39884.57251100337
 20
-6323.928439031802
  0
VERTEX
  8
0
 10
39875.59058812308
 20
-6322.984400280027
  0
VERTEX
  8
0
 10
39866.60866524279
 20
-6322.04036152825
  0
VERTEX
  8
0
 10
39857.6267423625
 20
-6321.096322776476
  0
VERTEX
  8
0
 10
39848.64481948222
 20
-6320.152284024699
  0
VERTEX
  8
0
 10
39839.66289660193
 20
-6319.208245272925
  0
VERTEX
  8
0
 10
39830.68097372166
 20
-6318.26420652115
  0
VERTEX
  8
0
 10
39827.59748255103
 20
-6317.939014661348
  0
VERTEX
  8
0
 10
39827.42632846349
 20
-6317.914350808471
  0
VERTEX
  8
0
 10
39827.25512890753
 20
-6317.883573267272
  0
VERTEX
  8
0
 10
39827.08420573732
 20
-6317.846636527422
  0
VERTEX
  8
0
 10
39826.91388665223
 20
-6317.803517420316
  0
VERTEX
  8
0
 10
39826.7445032695
 20
-6317.754215830678
  0
VERTEX
  8
0
 10
39826.57638910399
 20
-6317.698755208778
  0
VERTEX
  8
0
 10
39826.40987748029
 20
-6317.637182870179
  0
VERTEX
  8
0
 10
39826.24529940245
 20
-6317.56957007335
  0
VERTEX
  8
0
 10
39826.08298140948
 20
-6317.496011869123
  0
VERTEX
  8
0
 10
39825.92324344497
 20
-6317.416626719958
  0
VERTEX
  8
0
 10
39825.76639676972
 20
-6317.33155589106
  0
VERTEX
  8
0
 10
39825.61274194553
 20
-6317.240962619479
  0
VERTEX
  8
0
 10
39825.46256691791
 20
-6317.145031071356
  0
VERTEX
  8
0
 10
39825.3161452229
 20
-6317.043965101301
  0
VERTEX
  8
0
 10
39825.17373434165
 20
-6316.937986831287
  0
VERTEX
  8
0
 10
39825.03557422322
 20
-6316.827335069643
  0
VERTEX
  8
0
 10
39824.90188599291
 20
-6316.712263593172
  0
VERTEX
  8
0
 10
39824.77287085991
 20
-6316.593039317484
  0
VERTEX
  8
0
 10
39824.64870923431
 20
-6316.469940382009
  0
VERTEX
  8
0
 10
39824.52956005932
 20
-6316.343254176912
  0
VERTEX
  8
0
 10
39824.41556036103
 20
-6316.213275339254
  0
VERTEX
  8
0
 10
39824.30672950421
 20
-6316.080182752345
  0
VERTEX
  8
0
 10
39824.20215435476
 20
-6315.942884268576
  0
VERTEX
  8
0
 10
39824.10179697451
 20
-6315.80118306397
  0
VERTEX
  8
0
 10
39824.00591995376
 20
-6315.65526879937
  0
VERTEX
  8
0
 10
39823.91477476282
 20
-6315.505351266866
  0
VERTEX
  8
0
 10
39823.8285998694
 20
-6315.351659590608
  0
VERTEX
  8
0
 10
39823.74761892409
 20
-6315.194441219823
  0
VERTEX
  8
0
 10
39823.67203904008
 20
-6315.033960720774
  0
VERTEX
  8
0
 10
39823.60204919313
 20
-6314.870498378168
  0
VERTEX
  8
0
 10
39823.53781876577
 20
-6314.704348620272
  0
VERTEX
  8
0
 10
39823.47949625838
 20
-6314.535818285509
  0
VERTEX
  8
0
 10
39823.42720818663
 20
-6314.365224751446
  0
VERTEX
  8
0
 10
39823.38105818211
 20
-6314.192893949901
  0
VERTEX
  8
0
 10
39823.34112630943
 20
-6314.019158294099
  0
VERTEX
  8
0
 10
39823.30746860916
 20
-6313.844354545535
  0
VERTEX
  8
0
 10
39823.2801168719
 20
-6313.668821649186
  0
VERTEX
  8
0
 10
39823.25907864501
 20
-6313.492898566131
  0
VERTEX
  8
0
 10
39823.24433746871
 20
-6313.316922132399
  0
VERTEX
  8
0
 10
39823.23585333517
 20
-6313.141224971839
  0
VERTEX
  8
0
 10
39823.23356335956
 20
-6312.966133489379
  0
VERTEX
  8
0
 10
39823.2373826492
 20
-6312.791965968877
  0
VERTEX
  8
0
 10
39823.24720535376
 20
-6312.619030797279
  0
VERTEX
  8
0
 10
39823.27799935381
 20
-6312.303758174571
  0
VERTEX
  8
0
 10
39823.5743231447
 20
-6309.484427521862
  0
VERTEX
  8
0
 10
39823.87064693558
 20
-6306.665096869156
  0
VERTEX
  8
0
 10
39824.16697072645
 20
-6303.845766216446
  0
VERTEX
  8
0
 10
39824.46329451733
 20
-6301.026435563737
  0
VERTEX
  8
0
 10
39824.75961830821
 20
-6298.207104911028
  0
VERTEX
  8
0
 10
39825.0559420991
 20
-6295.387774258319
  0
VERTEX
  8
0
 10
39825.35226588998
 20
-6292.56844360561
  0
VERTEX
  8
0
 10
39825.64858968086
 20
-6289.749112952903
  0
VERTEX
  8
0
 10
39825.94491347174
 20
-6286.929782300194
  0
VERTEX
  8
0
 10
39826.24123726262
 20
-6284.110451647485
  0
VERTEX
  8
0
 10
39826.5375610535
 20
-6281.291120994776
  0
VERTEX
  8
0
 10
39826.83388484439
 20
-6278.471790342067
  0
VERTEX
  8
0
 10
39827.13020863527
 20
-6275.652459689358
  0
VERTEX
  8
0
 10
39827.42653242614
 20
-6272.833129036651
  0
VERTEX
  8
0
 10
39827.72285621703
 20
-6270.013798383942
  0
VERTEX
  8
0
 10
39828.01918000791
 20
-6267.194467731233
  0
VERTEX
  8
0
 10
39828.31550379879
 20
-6264.375137078524
  0
VERTEX
  8
0
 10
39828.61182758967
 20
-6261.555806425815
  0
VERTEX
  8
0
 10
39828.90815138054
 20
-6258.736475773108
  0
VERTEX
  8
0
 10
39829.20447517143
 20
-6255.917145120399
  0
VERTEX
  8
0
 10
39829.50079896231
 20
-6253.09781446769
  0
VERTEX
  8
0
 10
39829.7971227532
 20
-6250.278483814981
  0
VERTEX
  8
0
 10
39830.09344654407
 20
-6247.459153162272
  0
VERTEX
  8
0
 10
39830.38977033494
 20
-6244.639822509563
  0
VERTEX
  8
0
 10
39830.68609412583
 20
-6241.820491856856
  0
VERTEX
  8
0
 10
39830.98241791671
 20
-6239.001161204147
  0
VERTEX
  8
0
 10
39831.2787417076
 20
-6236.181830551438
  0
VERTEX
  8
0
 10
39831.57506549848
 20
-6233.362499898729
  0
VERTEX
  8
0
 10
39831.67051601396
 20
-6232.467795804431
  0
VERTEX
  8
0
 10
39831.69400619816
 20
-6232.306591031425
  0
VERTEX
  8
0
 10
39831.72310529638
 20
-6232.144324666217
  0
VERTEX
  8
0
 10
39831.75795853521
 20
-6231.981261190284
  0
VERTEX
  8
0
 10
39831.79869625308
 20
-6231.817680426929
  0
VERTEX
  8
0
 10
39831.84543222045
 20
-6231.653876647094
  0
VERTEX
  8
0
 10
39831.89826200555
 20
-6231.490157476088
  0
VERTEX
  8
0
 10
39831.95726141151
 20
-6231.326842600632
  0
VERTEX
  8
0
 10
39832.02248501116
 20
-6231.164262279324
  0
VERTEX
  8
0
 10
39832.09396480693
 20
-6231.002755663355
  0
VERTEX
  8
0
 10
39832.17170904225
 20
-6230.842668938469
  0
VERTEX
  8
0
 10
39832.25570119046
 20
-6230.684353303234
  0
VERTEX
  8
0
 10
39832.34589914561
 20
-6230.528162802766
  0
VERTEX
  8
0
 10
39832.44223463684
 20
-6230.374452041011
  0
VERTEX
  8
0
 10
39832.54461288575
 20
-6230.223573798257
  0
VERTEX
  8
0
 10
39832.65291252189
 20
-6230.075876583829
  0
VERTEX
  8
0
 10
39832.76698576751
 20
-6229.931702156445
  0
VERTEX
  8
0
 10
39832.88665889837
 20
-6229.791383046802
  0
VERTEX
  8
0
 10
39833.01173298159
 20
-6229.655240118059
  0
VERTEX
  8
0
 10
39833.14198488709
 20
-6229.523580200324
  0
VERTEX
  8
0
 10
39833.27716856317
 20
-6229.39669383471
  0
VERTEX
  8
0
 10
39833.41701656186
 20
-6229.274853161125
  0
VERTEX
  8
0
 10
39833.56124179449
 20
-6229.158309981653
  0
VERTEX
  8
0
 10
39833.70953949354
 20
-6229.047294028377
  0
VERTEX
  8
0
 10
39833.86158935238
 20
-6228.942011460554
  0
VERTEX
  8
0
 10
39834.01705781202
 20
-6228.842643611737
  0
VERTEX
  8
0
 10
39834.17560046023
 20
-6228.749346002388
  0
VERTEX
  8
0
 10
39834.33686450777
 20
-6228.66224762844
  0
VERTEX
  8
0
 10
39834.50049130528
 20
-6228.581450530734
  0
VERTEX
  8
0
 10
39834.66611886406
 20
-6228.507029644933
  0
VERTEX
  8
0
 10
39834.83338434592
 20
-6228.439032926291
  0
VERTEX
  8
0
 10
39835.00192648787
 20
-6228.377481738735
  0
VERTEX
  8
0
 10
39835.17138793108
 20
-6228.322371493239
  0
VERTEX
  8
0
 10
39835.34141742569
 20
-6228.273672516651
  0
VERTEX
  8
0
 10
39835.51167188734
 20
-6228.23133112879
  0
VERTEX
  8
0
 10
39835.68181828496
 20
-6228.195270903129
  0
VERTEX
  8
0
 10
39835.8515353434
 20
-6228.165394084538
  0
VERTEX
  8
0
 10
39836.02051504918
 20
-6228.14158313643
  0
VERTEX
  8
0
 10
39836.18846395154
 20
-6228.123702389285
  0
VERTEX
  8
0
 10
39836.35510425495
 20
-6228.11159976272
  0
VERTEX
  8
0
 10
39836.52017470357
 20
-6228.105108534153
  0
VERTEX
  8
0
 10
39836.68343126099
 20
-6228.104049128416
  0
VERTEX
  8
0
 10
40072.45372341517
 20
-6239.298007046781
  0
SEQEND
  8
0
  0
DIMENSION
  8
1DIM
  2
*D414
 10
39323.26190446367
 20
-6814.82651730407
 11
39021.26189254274
 21
-6765.82651730407
 70
    32
 13
38719.26188062181
 23
-6664.82651730407
 33
0.0
 14
39323.26190446367
 24
-6664.82651730407
 34
0.0
  0
DIMENSION
  8
1DIM
  2
*D415
 10
38569.26188062181
 20
-6664.82651730407
 11
38520.26188062181
 21
-6445.404157193278
 70
    32
  1
440
 13
38719.26187823762
 23
-6225.981797082487
 33
0.0
 14
38719.26188062181
 24
-6664.82651730407
 34
0.0
 50
90.0
  0
DIMENSION
  8
1DIM
  2
*D416
 10
39296.26184605113
 20
-5758.09396524045
 11
39021.26186870089
 21
-5709.09396524045
 70
    32
 13
38746.26189135064
 23
-5908.09396524045
 33
0.0
 14
39296.26184605113
 24
-5908.09396524045
 34
0.0
  0
DIMENSION
  8
1DIM
  2
*D417
 10
39673.26190446367
 20
-6664.82651730407
 11
39624.26190446367
 21
-6360.469250348857
 70
    32
 13
39823.26190446367
 23
-6056.111983393644
 33
0.0
 14
39823.26190446367
 24
-6664.82651730407
 34
0.0
 50
90.0
  0
DIMENSION
  8
1DIM
  2
*D418
 10
40526.03284170564
 20
-6814.82651730407
 11
40174.64737308465
 21
-6765.82651730407
 70
    32
  1
705
 13
39823.26190446367
 23
-6664.82651730407
 33
0.0
 14
40526.03284170564
 24
-6664.82651730407
 34
0.0
  0
DIMENSION
  8
1DIM
  2
*D420
 10
40298.51777710412
 20
-5758.09396524045
 11
40060.88984078389
 21
-5709.09396524045
 70
    32
 13
39823.26190446367
 23
-5908.09396524045
 33
0.0
 14
40298.51777710412
 24
-5908.09396524045
 34
0.0
  0
DIMENSION
  8
1DIM
  2
*D421
 10
40676.03284170564
 20
-6664.82651730407
 11
40627.03284170564
 21
-6286.46024127226
 70
    32
 13
40526.03284170564
 23
-5908.09396524045
 33
0.0
 14
40526.03284170564
 24
-6664.82651730407
 34
0.0
 50
90.0
  0
ENDSEC
  0
EOF
