  0
SECTION
  2
HEADER
  9
$ACADVER
  1
AC1004
  9
$INSBASE
 10
0.0
 20
0.0
  9
$EXTMIN
 10
38464.09253500205
 20
-6834.82651730407
  9
$EXTMAX
 10
40696.79448847914
 20
-4810.343003958176
  9
$LIMMIN
 10
0.0
 20
0.0
  9
$LIMMAX
 10
12.0
 20
9.0
  9
$ORTHOMODE
 70
     0
  9
$REGENMODE
 70
     1
  9
$FILLMODE
 70
     1
  9
$QTEXTMODE
 70
     0
  9
$DRAGMODE
 70
     2
  9
$LTSCALE
 40
0.5
  9
$OSMODE
 70
  2175
  9
$ATTMODE
 70
     1
  9
$TEXTSIZE
 40
4.0
  9
$TRACEWID
 40
0.05
  9
$TEXTSTYLE
  7
STANDARD
  9
$CLAYER
  8
1DIM
  9
$CELTYPE
  6
BYLAYER
  9
$CECOLOR
 62
   256
  9
$DIMSCALE
 40
20.0
  9
$DIMASZ
 40
2.0
  9
$DIMEXO
 40
0.0
  9
$DIMDLI
 40
7.0
  9
$DIMRND
 40
0.0
  9
$DIMDLE
 40
0.0
  9
$DIMEXE
 40
1.0
  9
$DIMTP
 40
0.0
  9
$DIMTM
 40
0.0
  9
$DIMTXT
 40
3.5
  9
$DIMCEN
 40
0.0
  9
$DIMTSZ
 40
0.0
  9
$DIMTOL
 70
     0
  9
$DIMLIM
 70
     0
  9
$DIMTIH
 70
     0
  9
$DIMTOH
 70
     0
  9
$DIMSE1
 70
     0
  9
$DIMSE2
 70
     0
  9
$DIMTAD
 70
     1
  9
$DIMZIN
 70
     8
  9
$DIMBLK
  1

  9
$DIMASO
 70
     1
  9
$DIMSHO
 70
     1
  9
$DIMPOST
  1
 
  9
$DIMAPOST
  1

  9
$DIMALT
 70
     0
  9
$DIMALTD
 70
     2
  9
$DIMALTF
 40
25.4
  9
$DIMLFAC
 40
1.0
  9
$DIMTOFL
 70
     1
  9
$DIMTVP
 40
0.0
  9
$DIMTIX
 70
     0
  9
$DIMSOXD
 70
     0
  9
$DIMSAH
 70
     1
  9
$DIMBLK1
  1
OPEN30
  9
$DIMBLK2
  1
OPEN30
  9
$LUNITS
 70
     2
  9
$LUPREC
 70
     4
  9
$SKETCHINC
 40
0.1
  9
$FILLETRAD
 40
5.8
  9
$AUNITS
 70
     0
  9
$AUPREC
 70
     2
  9
$MENU
  1
acad
  9
$ELEVATION
 40
0.0
  9
$THICKNESS
 40
0.0
  9
$LIMCHECK
 70
     0
  9
$CHAMFERA
 40
0.0
  9
$CHAMFERB
 40
0.0
  9
$SKPOLY
 70
     0
  9
$TDCREATE
 40
2448750.487089225
  9
$TDUPDATE
 40
2459433.574430093
  9
$TDINDWG
 40
4.2993289699
  9
$TDUSRTIMER
 40
4.2993289699
  9
$USRTIMER
 70
     1
  9
$ANGBASE
 50
0.0
  9
$ANGDIR
 70
     0
  9
$PDMODE
 70
     0
  9
$PDSIZE
 40
0.0
  9
$PLINEWID
 40
1.0
  9
$COORDS
 70
     2
  9
$SPLFRAME
 70
     0
  9
$SPLINETYPE
 70
     6
  9
$SPLINESEGS
 70
     8
  9
$ATTDIA
 70
     0
  9
$ATTREQ
 70
     1
  9
$SURFTAB1
 70
     6
  9
$SURFTAB2
 70
     6
  9
$SURFTYPE
 70
     6
  9
$SURFU
 70
     6
  9
$SURFV
 70
     6
  9
$UCSNAME
  2

  9
$UCSORG
 10
0.0
 20
0.0
 30
0.0
  9
$UCSXDIR
 10
1.0
 20
0.0
 30
0.0
  9
$UCSYDIR
 10
0.0
 20
1.0
 30
0.0
  9
$USERI1
 70
     0
  9
$USERI2
 70
     0
  9
$USERI3
 70
     0
  9
$USERI4
 70
     0
  9
$USERI5
 70
     0
  9
$USERR1
 40
0.0
  9
$USERR2
 40
0.0
  9
$USERR3
 40
0.0
  9
$USERR4
 40
0.0
  9
$USERR5
 40
0.0
  9
$WORLDVIEW
 70
     1
  0
ENDSEC
  0
SECTION
  2
TABLES
  0
TABLE
  2
LTYPE
 70
    13
  0
LTYPE
  2
CONTINUOUS
 70
     0
  3
Solid line
 72
    65
 73
     0
 40
0.0
  0
LTYPE
  2
HIDDEN
 70
     0
  3
Hidden __ __ __ __ __ __ __ __ __ __ __ __ __ _
 72
    65
 73
     2
 40
9.525
 49
6.35
 49
-3.175
  0
LTYPE
  2
PHANTOM2
 70
     0
  3
Phantom (0.5x) ___ _ _ ___ _ _ ___ _ _ ___ _ _
 72
    65
 73
     6
 40
31.75
 49
15.875
 49
-3.175
 49
3.175
 49
-3.175
 49
3.175
 49
-3.175
  0
LTYPE
  2
CENTER2
 70
     0
  3
Center (.5x) ___ _ ___ _ ___ _ ___ _ ___ _ ___
 72
    65
 73
     4
 40
28.575
 49
19.05
 49
-3.175
 49
3.175
 49
-3.175
  0
LTYPE
  2
HADAN
 70
     0
  3
Hadansen
 72
    65
 73
     4
 40
58.0
 49
50.0
 49
-2.0
 49
-4.0
 49
-2.0
  0
LTYPE
  2
BATTING
 70
     0
  3
Batting SSSSSSSSSSSSSSSSSSSSSSSSSSSSSSSSSSSSSSS
 72
    65
 73
     4
 40
10.16254
 49
0.00254
 49
-2.54
 49
-5.08
 49
-2.54
  0
LTYPE
  2
DASHED2
 70
     0
  3
Dashed (0.5x) _ _ _ _ _ _ _ _ _ _ _ _ _ _ _ _ _
 72
    65
 73
     2
 40
9.525
 49
6.35
 49
-3.175
  0
LTYPE
  2
FENCELINE1
 70
     0
  3
Fenceline circle -0-----0----0-----0----0-----0
 72
    65
 73
     4
 40
36.83
 49
3.81
 49
-2.54
 49
-2.54
 49
27.94
  0
LTYPE
  2
FENCELINE2
 70
     0
  3
Fenceline square -[]-----[]----[]-----[]----[]-
 72
    65
 73
     4
 40
36.83
 49
3.81
 49
-2.54
 49
-2.54
 49
27.94
  0
LTYPE
  2
TRACKS
 70
     0
  3
Tracks -|-|-|-|-|-|-|-|-|-|-|-|-|-|-|-|-|-|-|-|
 72
    65
 73
     2
 40
7.62
 49
3.81
 49
3.81
  0
LTYPE
  2
ZIGZAG
 70
     0
  3
Zig zag /\/\/\/\/\/\/\/\/\/\/\/\/\/\/\/\/\/\/\/
 72
    65
 73
     4
 40
20.32254
 49
0.00254
 49
-5.08
 49
-10.16
 49
-5.08
  0
LTYPE
  2
BORDER2
 70
     0
  3
Border (0.5x) __.__.__.__.__.__.__.__.__.__.__.
 72
    65
 73
     6
 40
22.225
 49
6.35
 49
-3.175
 49
6.35
 49
-3.175
 49
0.0
 49
-3.175
  0
LTYPE
  2
PHANTOM
 70
     0
  3
Phantom ______  __  __  ______  __  __  ______
 72
    65
 73
     6
 40
12.7
 49
6.35
 49
-1.27
 49
1.27
 49
-1.27
 49
1.27
 49
-1.27
  0
ENDTAB
  0
TABLE
  2
LAYER
 70
    38
  0
LAYER
  2
0
 70
     0
 62
     7
  6
CONTINUOUS
  0
LAYER
  2
1DIM
 70
     0
 62
     8
  6
CONTINUOUS
  0
LAYER
  2
2VIEWPORT
 70
     0
 62
    -1
  6
CONTINUOUS
  0
LAYER
  2
01
 70
     0
 62
     1
  6
CONTINUOUS
  0
LAYER
  2
DEFPOINTS
 70
     0
 62
     7
  6
CONTINUOUS
  0
LAYER
  2
1HIDDEN
 70
     0
 62
     8
  6
HIDDEN
  0
LAYER
  2
1PHANTOM
 70
     0
 62
   254
  6
PHANTOM2
  0
LAYER
  2
03
 70
     0
 62
     3
  6
CONTINUOUS
  0
LAYER
  2
02
 70
     0
 62
     2
  6
CONTINUOUS
  0
LAYER
  2
1TEXT
 70
     0
 62
   201
  6
CONTINUOUS
  0
LAYER
  2
04
 70
     0
 62
     4
  6
CONTINUOUS
  0
LAYER
  2
POINT
 70
     0
 62
     7
  6
CONTINUOUS
  0
LAYER
  2
1HATCH
 70
     0
 62
     8
  6
CONTINUOUS
  0
LAYER
  2
05
 70
     0
 62
     5
  6
CONTINUOUS
  0
LAYER
  2
06
 70
     0
 62
     6
  6
CONTINUOUS
  0
LAYER
  2
07
 70
     0
 62
   143
  6
CONTINUOUS
  0
LAYER
  2
08
 70
     0
 62
    95
  6
CONTINUOUS
  0
LAYER
  2
09
 70
     0
 62
    15
  6
CONTINUOUS
  0
LAYER
  2
10
 70
     0
 62
   213
  6
CONTINUOUS
  0
LAYER
  2
11
 70
     0
 62
     7
  6
CONTINUOUS
  0
LAYER
  2
1CENTER
 70
     0
 62
   221
  6
CONTINUOUS
  0
LAYER
  2
1DIM1
 70
     0
 62
   221
  6
CONTINUOUS
  0
LAYER
  2
1DIM2
 70
     0
 62
   254
  6
CONTINUOUS
  0
LAYER
  2
1DIM3
 70
     0
 62
     8
  6
CONTINUOUS
  0
LAYER
  2
2BATTING
 70
     0
 62
     7
  6
BATTING
  0
LAYER
  2
2FENCELINE1
 70
     0
 62
     7
  6
FENCELINE1
  0
LAYER
  2
2FENCELINE2
 70
     0
 62
     7
  6
FENCELINE2
  0
LAYER
  2
2TRACKS
 70
     0
 62
     7
  6
TRACKS
  0
LAYER
  2
2ZIGZAG
 70
     0
 62
     7
  6
ZIGZAG
  0
LAYER
  2
2HADAN
 70
     0
 62
     7
  6
HADAN
  0
LAYER
  2
1TEXT2
 70
     0
 62
   221
  6
CONTINUOUS
  0
LAYER
  2
99WAKU
 70
     0
 62
   253
  6
CONTINUOUS
  0
LAYER
  2
MIDFINE
 70
     0
 62
     9
  6
CONTINUOUS
  0
LAYER
  2
THICK
 70
     0
 62
   252
  6
CONTINUOUS
  0
LAYER
  2
ZZ
 70
     0
 62
    -8
  6
CONTINUOUS
  0
LAYER
  2
ZZXX
 70
     0
 62
   243
  6
CONTINUOUS
  0
LAYER
  2
MAKE2D$VISIBLE$LINES
 70
     0
 62
     7
  6
CONTINUOUS
  0
LAYER
  2
MAKE2D$VISIBLE$TANGENTS
 70
     0
 62
     7
  6
CONTINUOUS
  0
ENDTAB
  0
TABLE
  2
STYLE
 70
     4
  0
STYLE
  2
STANDARD
 70
     0
 40
0.0
 41
1.0
 50
0.0
 71
     0
 42
4.0
  3
romans.shx
  4
extfont2.shx
  0
STYLE
  2
KAI
 70
     0
 40
0.0
 41
1.0
 50
0.0
 71
     0
 42
4.0
  3
HGSeikaishotaiPRO.ttf
  4

  0
STYLE
  2

 70
     1
 40
0.2
 41
1.0
 50
0.0
 71
     0
 42
4.0
  3
ltypeshp.shx
  4

  0
STYLE
  2
TATE2
 70
     4
 40
0.0
 41
1.0
 50
0.0
 71
     0
 42
4.0
  3
romans.shx
  4
@extfont2.shx
  0
ENDTAB
  0
TABLE
  2
VIEW
 70
     0
  0
ENDTAB
  0
ENDSEC
  0
SECTION
  2
BLOCKS
  0
BLOCK
  8
0
  2
_OPEN30
 70
     0
 10
0.0
 20
0.0
  0
LINE
  8
0
  6
BYBLOCK
 62
     0
 10
-1.0
 20
0.26794919
 11
0.0
 21
0.0
  0
LINE
  8
0
  6
BYBLOCK
 62
     0
 10
0.0
 20
0.0
 11
-1.0
 21
-0.26794919
  0
LINE
  8
0
  6
BYBLOCK
 62
     0
 10
0.0
 20
0.0
 11
-1.0
 21
0.0
  0
ENDBLK
  8
0
  0
BLOCK
  8
0
  2
NOCIRCLE
 70
     2
 10
0.0
 20
0.0
  0
CIRCLE
  8
0
  6
BYBLOCK
 62
     0
 10
0.0
 20
0.0
 40
4.2
  0
ATTDEF
  8
1TEXT
 10
-1.904761904762
 20
-2.0
 40
4.0
  1
0
 72
     4
 11
0.0
 21
0.0
  3
NO.
  2
NO
 70
     0
  0
ENDBLK
  8
0
  0
BLOCK
  8
0
  2
_OPEN
 70
     0
 10
0.0
 20
0.0
  0
LINE
  8
0
  6
BYBLOCK
 62
     0
 10
-1.0
 20
0.166667
 11
0.0
 21
0.0
  0
LINE
  8
0
  6
BYBLOCK
 62
     0
 10
-1.0
 20
-0.166667
 11
0.0
 21
0.0
  0
LINE
  8
0
  6
BYBLOCK
 62
     0
 10
0.0
 20
0.0
 11
-1.0
 21
0.0
  0
ENDBLK
  8
0
  0
BLOCK
  8
0
  2
YA__
 70
     0
 10
0.0
 20
0.0
  0
INSERT
  8
0
  2
YA_
 10
0.0
 20
0.0
 30
0.0
 50
180.0
  0
ENDBLK
  8
0
  0
BLOCK
  8
0
  2
YA_
 70
     0
 10
0.0
 20
0.0
  0
LINE
  8
0
 10
-5.598760219962
 20
0.622116757674
 11
-2.488360049962
 21
0.622116757674
  0
LINE
  8
0
 10
-5.598760219962
 20
-0.622043242326
 11
-2.488359989962
 21
-0.622043242326
  0
LINE
  8
0
 10
-5.598760219962
 20
0.622116757674
 11
-5.598760219962
 21
-0.622043242326
  0
LINE
  8
0
 10
-2.488360079962
 20
1.346879757674
 11
-2.488360049962
 21
0.622116757674
  0
LINE
  8
0
 10
0.155480482306
 20
-1.993947296099
 11
0.155480380551
 21
1.993947304034
  0
LINE
  8
0
 10
-0.000039515118
 20
-1.99999999961
 11
-0.000039719246
 21
1.999999999606
  0
LINE
  8
0
 10
-0.155559515297
 20
-1.993941131829
 11
-0.155559619962
 21
0.000036757674
  0
LINE
  8
0
 10
-0.155559619962
 20
0.000036757674
 11
-0.155559718965
 21
1.99394111594
  0
LINE
  8
0
 10
-2.488359989962
 20
-0.622043242326
 11
-2.488359959962
 21
-1.346806242326
  0
LINE
  8
0
 10
-0.155559619962
 20
0.000036757674
 11
-2.488360199962
 21
-1.346806242326
  0
LINE
  8
0
 10
-0.155559619962
 20
0.000036757674
 11
-2.488360079962
 21
1.346879757674
  0
POINT
  8
POINT
 10
0.0
 20
0.0
 30
0.0
  0
ENDBLK
  8
0
  0
BLOCK
  8
0
  2
*D293
 70
     1
 10
0.0
 20
0.0
  0
LINE
  8
1DIM
 10
43598.32957856837
 20
1549.493664484096
 11
43598.32957856837
 21
1479.493664484096
  0
LINE
  8
1DIM
 10
45378.44587196572
 20
1549.493664484096
 11
45378.44587196572
 21
1479.493664484096
  0
LINE
  8
1DIM
 10
43638.32957856837
 20
1499.493664484096
 11
45338.44587196572
 21
1499.493664484096
  0
INSERT
  8
1DIM
  2
_OPEN30
 10
43598.32957856837
 20
1499.493664484096
 30
0.0
 41
40.0
 42
40.0
 43
40.0
 50
180.0
  0
INSERT
  8
1DIM
  2
_OPEN30
 10
45378.44587196572
 20
1499.493664484096
 30
0.0
 41
40.0
 42
40.0
 43
40.0
  0
TEXT
  8
1DIM
  6
CONTINUOUS
 62
   201
 10
44350.05439193371
 20
1513.493664484096
 40
70.0
  1
1780
  0
POINT
  8
DEFPOINTS
 62
     0
 10
43598.32957856837
 20
1649.493664484096
 30
0.0
  0
POINT
  8
DEFPOINTS
 62
     0
 10
45378.44587196572
 20
1649.493664484096
 30
0.0
  0
POINT
  8
DEFPOINTS
 62
     0
 10
45378.44587196572
 20
1499.493664484096
 30
0.0
  0
ENDBLK
  8
0
  0
BLOCK
  8
0
  2
*D294
 70
     1
 10
0.0
 20
0.0
  0
LINE
  8
1DIM
 10
45892.44587196572
 20
1549.493664484096
 11
45892.44587196572
 21
1479.493664484096
  0
LINE
  8
1DIM
 10
46732.92795447499
 20
1549.493664484096
 11
46732.92795447499
 21
1479.493664484096
  0
LINE
  8
1DIM
 10
45932.44587196572
 20
1499.493664484096
 11
46692.92795447499
 21
1499.493664484096
  0
INSERT
  8
1DIM
  2
_OPEN30
 10
45892.44587196572
 20
1499.493664484096
 30
0.0
 41
40.0
 42
40.0
 43
40.0
 50
180.0
  0
INSERT
  8
1DIM
  2
_OPEN30
 10
46732.92795447499
 20
1499.493664484096
 30
0.0
 41
40.0
 42
40.0
 43
40.0
  0
TEXT
  8
1DIM
  6
CONTINUOUS
 62
   201
 10
46212.68691322036
 20
1513.493664484096
 40
70.0
  1
840
  0
POINT
  8
DEFPOINTS
 62
     0
 10
45892.44587196572
 20
1649.493664484096
 30
0.0
  0
POINT
  8
DEFPOINTS
 62
     0
 10
46732.92795447499
 20
1649.493664484096
 30
0.0
  0
POINT
  8
DEFPOINTS
 62
     0
 10
46732.92795447499
 20
1499.493664484096
 30
0.0
  0
ENDBLK
  8
0
  0
BLOCK
  8
0
  2
*D295
 70
     1
 10
0.0
 20
0.0
  0
LINE
  8
1DIM
 10
43488.32957856837
 20
2069.972892849143
 11
43418.32957856837
 21
2069.972892849143
  0
LINE
  8
1DIM
 10
43488.32957856837
 20
1649.493664484096
 11
43418.32957856837
 21
1649.493664484096
  0
LINE
  8
1DIM
 10
43438.32957856837
 20
2029.972892849143
 11
43438.32957856837
 21
1689.493664484096
  0
INSERT
  8
1DIM
  2
_OPEN30
 10
43438.32957856837
 20
2069.972892849143
 30
0.0
 41
40.0
 42
40.0
 43
40.0
 50
90.0
  0
INSERT
  8
1DIM
  2
_OPEN30
 10
43438.32957856837
 20
1649.493664484096
 30
0.0
 41
40.0
 42
40.0
 43
40.0
 50
270.0
  0
TEXT
  8
1DIM
  6
CONTINUOUS
 62
   201
 10
43424.32957856837
 20
1759.733278666623
 40
70.0
  1
420
 50
90.0
  0
POINT
  8
DEFPOINTS
 62
     0
 10
43588.32957856837
 20
2069.972892849143
 30
0.0
  0
POINT
  8
DEFPOINTS
 62
     0
 10
43588.32957856837
 20
1649.493664484096
 30
0.0
  0
POINT
  8
DEFPOINTS
 62
     0
 10
43438.32957856837
 20
1649.493664484096
 30
0.0
  0
ENDBLK
  8
0
  0
BLOCK
  8
0
  2
*D296
 70
     1
 10
0.0
 20
0.0
  0
LINE
  8
1DIM
 10
46832.92795447499
 20
1649.493664484096
 11
46902.92795447499
 21
1649.493664484096
  0
LINE
  8
1DIM
 10
46832.92795447499
 20
2599.540791299197
 11
46902.92795447499
 21
2599.540791299197
  0
LINE
  8
1DIM
 10
46882.92795447499
 20
1689.493664484096
 11
46882.92795447499
 21
2559.540791299197
  0
INSERT
  8
1DIM
  2
_OPEN30
 10
46882.92795447499
 20
1649.493664484096
 30
0.0
 41
40.0
 42
40.0
 43
40.0
 50
270.0
  0
INSERT
  8
1DIM
  2
_OPEN30
 10
46882.92795447499
 20
2599.540791299197
 30
0.0
 41
40.0
 42
40.0
 43
40.0
 50
90.0
  0
TEXT
  8
1DIM
  6
CONTINUOUS
 62
   201
 10
46868.92795447499
 20
2024.517227891643
 40
70.0
  1
950
 50
90.0
  0
POINT
  8
DEFPOINTS
 62
     0
 10
46732.92795447499
 20
1649.493664484096
 30
0.0
  0
POINT
  8
DEFPOINTS
 62
     0
 10
46732.92795447499
 20
2599.540791299197
 30
0.0
  0
POINT
  8
DEFPOINTS
 62
     0
 10
46882.92795447499
 20
2599.540791299197
 30
0.0
  0
ENDBLK
  8
0
  0
BLOCK
  8
0
  2
*D297
 70
     1
 10
0.0
 20
0.0
  0
LINE
  8
1DIM
 10
45888.44587196572
 20
2697.540791299197
 11
45888.44587196572
 21
2767.540791299197
  0
LINE
  8
1DIM
 10
46418.18963918868
 20
2697.540791299197
 11
46418.18963918868
 21
2767.540791299197
  0
LINE
  8
1DIM
 10
45928.44587196572
 20
2747.540791299197
 11
46378.18963918868
 21
2747.540791299197
  0
INSERT
  8
1DIM
  2
_OPEN30
 10
45888.44587196572
 20
2747.540791299197
 30
0.0
 41
40.0
 42
40.0
 43
40.0
 50
180.0
  0
INSERT
  8
1DIM
  2
_OPEN30
 10
46418.18963918868
 20
2747.540791299197
 30
0.0
 41
40.0
 42
40.0
 43
40.0
  0
TEXT
  8
1DIM
  6
CONTINUOUS
 62
   201
 10
46053.3177555772
 20
2761.540791299197
 40
70.0
  1
530
  0
POINT
  8
DEFPOINTS
 62
     0
 10
45888.44587196572
 20
2597.540791299197
 30
0.0
  0
POINT
  8
DEFPOINTS
 62
     0
 10
46418.18963918868
 20
2597.540791299197
 30
0.0
  0
POINT
  8
DEFPOINTS
 62
     0
 10
46418.18963918868
 20
2747.540791299197
 30
0.0
  0
ENDBLK
  8
0
  0
BLOCK
  8
0
  2
金属脚
 70
     0
 10
0.0
 20
0.0
  0
LINE
  8
0
  6
BYBLOCK
 62
     0
 10
0.0
 20
0.0
 11
125.0
 21
0.0
  0
LINE
  8
0
  6
BYBLOCK
 62
     0
 10
7.011342610203
 20
-155.999982357025
 11
23.011342610203
 21
-155.999982357025
  0
LINE
  8
0
  6
BYBLOCK
 62
     0
 10
7.011342610203
 20
-155.999982357025
 11
7.011342610203
 21
-145.999982357025
  0
LINE
  8
0
  6
BYBLOCK
 62
     0
 10
23.011342610203
 20
-155.999982357025
 11
23.011342610218
 21
-145.999982357025
  0
LINE
  8
0
  6
BYBLOCK
 62
     0
 10
4.0
 20
-145.999982357025
 11
22.0
 21
-145.999982357025
  0
LINE
  8
0
  6
BYBLOCK
 62
     0
 10
4.0
 20
-5.999982357025
 11
4.0
 21
-145.999982357025
  0
LINE
  8
0
  6
BYBLOCK
 62
     0
 10
22.0
 20
-5.999982357025
 11
104.0
 21
-5.999982357025
  0
LINE
  8
0
  6
BYBLOCK
 62
     0
 10
22.0
 20
-145.999982357025
 11
26.0
 21
-145.999982357025
  0
ARC
  8
0
  6
BYBLOCK
 62
     0
 10
31.0
 20
-32.999982357025
 40
5.0
 50
90.0
 51
180.0
  0
LINE
  8
0
  6
BYBLOCK
 62
     0
 10
26.0
 20
-145.999982357025
 11
26.0
 21
-32.999982357025
  0
LINE
  8
0
  6
BYBLOCK
 62
     0
 10
31.0
 20
-27.999982357025
 11
104.0
 21
-27.999982357025
  0
LINE
  8
0
  6
BYBLOCK
 62
     0
 10
104.0
 20
-27.999982357025
 11
104.0
 21
-5.999982357025
  0
LINE
  8
0
  6
BYBLOCK
 62
     0
 10
125.0
 20
-5.999982357025
 11
119.999885559082
 21
-5.999982357025
  0
LINE
  8
0
  6
BYBLOCK
 62
     0
 10
125.0
 20
-5.999982357025
 11
125.0
 21
0.0
  0
LINE
  8
0
  6
BYBLOCK
 62
     0
 10
119.999885559082
 20
-5.999982357025
 11
0.0
 21
-5.999982357025
  0
LINE
  8
0
  6
BYBLOCK
 62
     0
 10
0.0
 20
-5.999982357025
 11
0.0
 21
0.0
  0
ENDBLK
  8
0
  0
BLOCK
  8
0
  2
*D307
 70
     1
 10
0.0
 20
0.0
  0
LINE
  8
1DIM
 10
43715.6855831459
 20
-1499.409038093286
 11
43715.6855831459
 21
-1569.409038093286
  0
LINE
  8
1DIM
 10
45415.68486598282
 20
-1499.409038093285
 11
45415.68486598282
 21
-1569.409038093286
  0
LINE
  8
1DIM
 10
43755.6855831459
 20
-1549.409038093286
 11
45375.68486598282
 21
-1549.409038093286
  0
INSERT
  8
1DIM
  2
_OPEN30
 10
43715.6855831459
 20
-1549.409038093286
 30
0.0
 41
40.0
 42
40.0
 43
40.0
 50
180.0
  0
INSERT
  8
1DIM
  2
_OPEN30
 10
45415.68486598282
 20
-1549.409038093286
 30
0.0
 41
40.0
 42
40.0
 43
40.0
  0
TEXT
  8
1DIM
  6
CONTINUOUS
 62
   201
 10
44427.35189123102
 20
-1535.409038093286
 40
70.0
  1
1700
  0
POINT
  8
DEFPOINTS
 62
     0
 10
43715.6855831459
 20
-1399.409038093286
 30
0.0
  0
POINT
  8
DEFPOINTS
 62
     0
 10
45415.68486598282
 20
-1399.409038093285
 30
0.0
  0
POINT
  8
DEFPOINTS
 62
     0
 10
45415.68486598282
 20
-1549.409038093286
 30
0.0
  0
ENDBLK
  8
0
  0
BLOCK
  8
0
  2
*D308
 70
     1
 10
0.0
 20
0.0
  0
LINE
  8
1DIM
 10
45915.68486598282
 20
-1499.409038093285
 11
45915.68486598282
 21
-1569.409038093285
  0
LINE
  8
1DIM
 10
46805.81428092084
 20
-1499.409038093285
 11
46805.81428092084
 21
-1569.409038093285
  0
LINE
  8
1DIM
 10
45955.68486598282
 20
-1549.409038093285
 11
46765.81428092084
 21
-1549.409038093285
  0
INSERT
  8
1DIM
  2
_OPEN30
 10
45915.68486598282
 20
-1549.409038093285
 30
0.0
 41
40.0
 42
40.0
 43
40.0
 50
180.0
  0
INSERT
  8
1DIM
  2
_OPEN30
 10
46805.81428092084
 20
-1549.409038093285
 30
0.0
 41
40.0
 42
40.0
 43
40.0
  0
TEXT
  8
1DIM
  6
CONTINUOUS
 62
   201
 10
46260.74957345183
 20
-1535.409038093285
 40
70.0
  1
890
  0
POINT
  8
DEFPOINTS
 62
     0
 10
45915.68486598282
 20
-1399.409038093285
 30
0.0
  0
POINT
  8
DEFPOINTS
 62
     0
 10
46805.81428092084
 20
-1399.409038093285
 30
0.0
  0
POINT
  8
DEFPOINTS
 62
     0
 10
46805.81428092084
 20
-1549.409038093285
 30
0.0
  0
ENDBLK
  8
0
  0
BLOCK
  8
0
  2
*D309
 70
     1
 10
0.0
 20
0.0
  0
LINE
  8
1DIM
 10
43615.6855831459
 20
-964.004925899772
 11
43545.6855831459
 21
-964.004925899772
  0
LINE
  8
1DIM
 10
43615.6855831459
 20
-1399.409038093286
 11
43545.6855831459
 21
-1399.409038093286
  0
LINE
  8
1DIM
 10
43565.6855831459
 20
-1004.004925899772
 11
43565.6855831459
 21
-1359.409038093286
  0
INSERT
  8
1DIM
  2
_OPEN30
 10
43565.6855831459
 20
-964.004925899772
 30
0.0
 41
40.0
 42
40.0
 43
40.0
 50
90.0
  0
INSERT
  8
1DIM
  2
_OPEN30
 10
43565.6855831459
 20
-1399.409038093286
 30
0.0
 41
40.0
 42
40.0
 43
40.0
 50
270.0
  0
TEXT
  8
1DIM
  6
CONTINUOUS
 62
   201
 10
43551.6855831459
 20
-1281.706981996533
 40
70.0
  1
435
 50
90.0
  0
POINT
  8
DEFPOINTS
 62
     0
 10
43715.6855831459
 20
-964.004925899772
 30
0.0
  0
POINT
  8
DEFPOINTS
 62
     0
 10
43715.6855831459
 20
-1399.409038093286
 30
0.0
  0
POINT
  8
DEFPOINTS
 62
     0
 10
43565.6855831459
 20
-1399.409038093286
 30
0.0
  0
ENDBLK
  8
0
  0
BLOCK
  8
0
  2
*D310
 70
     1
 10
0.0
 20
0.0
  0
LINE
  8
1DIM
 10
46905.81428092084
 20
-1399.409038093285
 11
46975.81428092084
 21
-1399.409038093285
  0
LINE
  8
1DIM
 10
46905.81428092084
 20
-573.857931759553
 11
46975.81428092084
 21
-573.857931759553
  0
LINE
  8
1DIM
 10
46955.81428092084
 20
-1359.409038093285
 11
46955.81428092084
 21
-613.857931759553
  0
INSERT
  8
1DIM
  2
_OPEN30
 10
46955.81428092084
 20
-1399.409038093285
 30
0.0
 41
40.0
 42
40.0
 43
40.0
 50
270.0
  0
INSERT
  8
1DIM
  2
_OPEN30
 10
46955.81428092084
 20
-573.857931759553
 30
0.0
 41
40.0
 42
40.0
 43
40.0
 50
90.0
  0
TEXT
  8
1DIM
  6
CONTINUOUS
 62
   201
 10
46941.81428092084
 20
-1086.633484926417
 40
70.0
  1
826
 50
90.0
  0
POINT
  8
DEFPOINTS
 62
     0
 10
46805.81428092084
 20
-1399.409038093285
 30
0.0
  0
POINT
  8
DEFPOINTS
 62
     0
 10
46805.81428092084
 20
-573.857931759553
 30
0.0
  0
POINT
  8
DEFPOINTS
 62
     0
 10
46955.81428092084
 20
-573.857931759553
 30
0.0
  0
ENDBLK
  8
0
  0
BLOCK
  8
0
  2
*D311
 70
     1
 10
0.0
 20
0.0
  0
LINE
  8
1DIM
 10
45915.68486598282
 20
-472.857931759553
 11
45915.68486598282
 21
-402.857931759553
  0
LINE
  8
1DIM
 10
46465.30490537026
 20
-472.857931759553
 11
46465.30490537026
 21
-402.857931759553
  0
LINE
  8
1DIM
 10
45955.68486598282
 20
-422.857931759553
 11
46425.30490537026
 21
-422.857931759553
  0
INSERT
  8
1DIM
  2
_OPEN30
 10
45915.68486598282
 20
-422.857931759553
 30
0.0
 41
40.0
 42
40.0
 43
40.0
 50
180.0
  0
INSERT
  8
1DIM
  2
_OPEN30
 10
46465.30490537026
 20
-422.857931759553
 30
0.0
 41
40.0
 42
40.0
 43
40.0
  0
TEXT
  8
1DIM
  6
CONTINUOUS
 62
   201
 10
46090.49488567654
 20
-408.857931759553
 40
70.0
  1
550
  0
POINT
  8
DEFPOINTS
 62
     0
 10
45915.68486598282
 20
-572.857931759553
 30
0.0
  0
POINT
  8
DEFPOINTS
 62
     0
 10
46465.30490537026
 20
-572.857931759553
 30
0.0
  0
POINT
  8
DEFPOINTS
 62
     0
 10
46465.30490537026
 20
-422.857931759553
 30
0.0
  0
ENDBLK
  8
0
  0
BLOCK
  8
0
  2
*D312
 70
     1
 10
0.0
 20
0.0
  0
LINE
  8
1DIM
 10
45815.68486598282
 20
-1399.409038093285
 11
45745.68486598282
 21
-1399.409038093285
  0
LINE
  8
1DIM
 10
45815.68486598282
 20
-813.408613913276
 11
45745.68486598282
 21
-813.408613913276
  0
LINE
  8
1DIM
 10
45765.68486598282
 20
-1359.409038093285
 11
45765.68486598282
 21
-853.408613913276
  0
INSERT
  8
1DIM
  2
_OPEN30
 10
45765.68486598282
 20
-1399.409038093285
 30
0.0
 41
40.0
 42
40.0
 43
40.0
 50
270.0
  0
INSERT
  8
1DIM
  2
_OPEN30
 10
45765.68486598282
 20
-813.408613913276
 30
0.0
 41
40.0
 42
40.0
 43
40.0
 50
90.0
  0
TEXT
  8
1DIM
  6
CONTINUOUS
 62
   201
 10
45751.68486598282
 20
-1206.40882600328
 40
70.0
  1
586
 50
90.0
  0
POINT
  8
DEFPOINTS
 62
     0
 10
45915.68486598282
 20
-1399.409038093285
 30
0.0
  0
POINT
  8
DEFPOINTS
 62
     0
 10
45915.68486598282
 20
-813.408613913276
 30
0.0
  0
POINT
  8
DEFPOINTS
 62
     0
 10
45765.68486598282
 20
-813.408613913276
 30
0.0
  0
ENDBLK
  8
0
  0
BLOCK
  8
0
  2
*D337
 70
     1
 10
0.0
 20
0.0
  0
LINE
  8
1DIM
 10
44369.85086417123
 20
-4140.104903479667
 11
44369.85086417123
 21
-4210.104903479666
  0
LINE
  8
1DIM
 10
44999.85086417123
 20
-4140.104903479667
 11
44999.85086417123
 21
-4210.104903479666
  0
LINE
  8
1DIM
 10
44409.85086417123
 20
-4190.104903479666
 11
44959.85086417123
 21
-4190.104903479666
  0
INSERT
  8
1DIM
  2
_OPEN30
 10
44369.85086417123
 20
-4190.104903479666
 30
0.0
 41
40.0
 42
40.0
 43
40.0
 50
180.0
  0
INSERT
  8
1DIM
  2
_OPEN30
 10
44999.85086417123
 20
-4190.104903479666
 30
0.0
 41
40.0
 42
40.0
 43
40.0
  0
TEXT
  8
1DIM
  6
CONTINUOUS
 62
   201
 10
44583.18419750455
 20
-4176.104903479666
 40
70.0
  1
630
  0
POINT
  8
DEFPOINTS
 62
     0
 10
44369.85086417123
 20
-4040.104903479667
 30
0.0
  0
POINT
  8
DEFPOINTS
 62
     0
 10
44999.85086417123
 20
-4040.104903479667
 30
0.0
  0
POINT
  8
DEFPOINTS
 62
     0
 10
44999.85086417123
 20
-4190.104903479666
 30
0.0
  0
ENDBLK
  8
0
  0
BLOCK
  8
0
  2
*D338
 70
     1
 10
0.0
 20
0.0
  0
LINE
  8
1DIM
 10
45518.06107135207
 20
-4140.104903479667
 11
45518.06107135207
 21
-4210.104903479666
  0
LINE
  8
1DIM
 10
46128.06107135207
 20
-4140.104903479667
 11
46128.06107135207
 21
-4210.104903479666
  0
LINE
  8
1DIM
 10
45558.06107135207
 20
-4190.104903479666
 11
46088.06107135207
 21
-4190.104903479666
  0
INSERT
  8
1DIM
  2
_OPEN30
 10
45518.06107135207
 20
-4190.104903479666
 30
0.0
 41
40.0
 42
40.0
 43
40.0
 50
180.0
  0
INSERT
  8
1DIM
  2
_OPEN30
 10
46128.06107135207
 20
-4190.104903479666
 30
0.0
 41
40.0
 42
40.0
 43
40.0
  0
TEXT
  8
1DIM
  6
CONTINUOUS
 62
   201
 10
45721.3944046854
 20
-4176.104903479666
 40
70.0
  1
610
  0
POINT
  8
DEFPOINTS
 62
     0
 10
45518.06107135207
 20
-4040.104903479667
 30
0.0
  0
POINT
  8
DEFPOINTS
 62
     0
 10
46128.06107135207
 20
-4040.104903479667
 30
0.0
  0
POINT
  8
DEFPOINTS
 62
     0
 10
46128.06107135207
 20
-4190.104903479666
 30
0.0
  0
ENDBLK
  8
0
  0
BLOCK
  8
0
  2
*D339
 70
     1
 10
0.0
 20
0.0
  0
LINE
  8
1DIM
 10
44269.85086417123
 20
-3629.62567511462
 11
44199.85086417123
 21
-3629.62567511462
  0
LINE
  8
1DIM
 10
44269.85086417123
 20
-4040.104903479667
 11
44199.85086417123
 21
-4040.104903479667
  0
LINE
  8
1DIM
 10
44219.85086417123
 20
-3669.62567511462
 11
44219.85086417123
 21
-4000.104903479667
  0
INSERT
  8
1DIM
  2
_OPEN30
 10
44219.85086417123
 20
-3629.62567511462
 30
0.0
 41
40.0
 42
40.0
 43
40.0
 50
90.0
  0
INSERT
  8
1DIM
  2
_OPEN30
 10
44219.85086417123
 20
-4040.104903479667
 30
0.0
 41
40.0
 42
40.0
 43
40.0
 50
270.0
  0
TEXT
  8
1DIM
  6
CONTINUOUS
 62
   201
 10
44205.85086417123
 20
-3934.865289297144
 40
70.0
  1
410
 50
90.0
  0
POINT
  8
DEFPOINTS
 62
     0
 10
44369.85086417123
 20
-3629.62567511462
 30
0.0
  0
POINT
  8
DEFPOINTS
 62
     0
 10
44369.85086417123
 20
-4040.104903479667
 30
0.0
  0
POINT
  8
DEFPOINTS
 62
     0
 10
44219.85086417123
 20
-4040.104903479667
 30
0.0
  0
ENDBLK
  8
0
  0
BLOCK
  8
0
  2
*D340
 70
     1
 10
0.0
 20
0.0
  0
LINE
  8
1DIM
 10
46228.06107135207
 20
-4040.104903479667
 11
46298.06107135207
 21
-4040.104903479667
  0
LINE
  8
1DIM
 10
46228.06107135207
 20
-3330.104903479659
 11
46298.06107135207
 21
-3330.104903479659
  0
LINE
  8
1DIM
 10
46278.06107135207
 20
-4000.104903479667
 11
46278.06107135207
 21
-3370.104903479659
  0
INSERT
  8
1DIM
  2
_OPEN30
 10
46278.06107135207
 20
-4040.104903479667
 30
0.0
 41
40.0
 42
40.0
 43
40.0
 50
270.0
  0
INSERT
  8
1DIM
  2
_OPEN30
 10
46278.06107135207
 20
-3330.104903479659
 30
0.0
 41
40.0
 42
40.0
 43
40.0
 50
90.0
  0
TEXT
  8
1DIM
  6
CONTINUOUS
 62
   201
 10
46264.06107135207
 20
-3785.10490347966
 40
70.0
  1
710
 50
90.0
  0
POINT
  8
DEFPOINTS
 62
     0
 10
46128.06107135207
 20
-4040.104903479667
 30
0.0
  0
POINT
  8
DEFPOINTS
 62
     0
 10
46128.06107135207
 20
-3330.104903479659
 30
0.0
  0
POINT
  8
DEFPOINTS
 62
     0
 10
46278.06107135207
 20
-3330.104903479659
 30
0.0
  0
ENDBLK
  8
0
  0
BLOCK
  8
0
  2
*D341
 70
     1
 10
0.0
 20
0.0
  0
LINE
  8
1DIM
 10
45499.85086417123
 20
-3230.104903479659
 11
45499.85086417123
 21
-3160.104903479659
  0
LINE
  8
1DIM
 10
45959.59463139418
 20
-3230.104903479659
 11
45959.59463139418
 21
-3160.104903479659
  0
LINE
  8
1DIM
 10
45539.85086417123
 20
-3180.104903479659
 11
45919.59463139418
 21
-3180.104903479659
  0
INSERT
  8
1DIM
  2
_OPEN30
 10
45499.85086417123
 20
-3180.104903479659
 30
0.0
 41
40.0
 42
40.0
 43
40.0
 50
180.0
  0
INSERT
  8
1DIM
  2
_OPEN30
 10
45959.59463139418
 20
-3180.104903479659
 30
0.0
 41
40.0
 42
40.0
 43
40.0
  0
TEXT
  8
1DIM
  6
CONTINUOUS
 62
   201
 10
45629.7227477827
 20
-3166.104903479659
 40
70.0
  1
460
  0
POINT
  8
DEFPOINTS
 62
     0
 10
45499.85086417123
 20
-3330.104903479659
 30
0.0
  0
POINT
  8
DEFPOINTS
 62
     0
 10
45959.59463139418
 20
-3330.104903479659
 30
0.0
  0
POINT
  8
DEFPOINTS
 62
     0
 10
45959.59463139418
 20
-3180.104903479659
 30
0.0
  0
ENDBLK
  8
0
  0
BLOCK
  8
0
  2
*D342
 70
     1
 10
0.0
 20
0.0
  0
LINE
  8
1DIM
 10
44432.35086629653
 20
-3230.104903479659
 11
44432.35086629653
 21
-3160.104903479659
  0
LINE
  8
1DIM
 10
44937.35086417123
 20
-3230.104903479659
 11
44937.35086417123
 21
-3160.104903479659
  0
LINE
  8
1DIM
 10
44472.35086629653
 20
-3180.104903479659
 11
44897.35086417123
 21
-3180.104903479659
  0
INSERT
  8
1DIM
  2
_OPEN30
 10
44432.35086629653
 20
-3180.104903479659
 30
0.0
 41
40.0
 42
40.0
 43
40.0
 50
180.0
  0
INSERT
  8
1DIM
  2
_OPEN30
 10
44937.35086417123
 20
-3180.104903479659
 30
0.0
 41
40.0
 42
40.0
 43
40.0
  0
TEXT
  8
1DIM
  6
CONTINUOUS
 62
   201
 10
44584.85086523388
 20
-3166.104903479659
 40
70.0
  1
505
  0
POINT
  8
DEFPOINTS
 62
     0
 10
44432.35086629653
 20
-3330.104903479659
 30
0.0
  0
POINT
  8
DEFPOINTS
 62
     0
 10
44937.35086417123
 20
-3330.104903479659
 30
0.0
  0
POINT
  8
DEFPOINTS
 62
     0
 10
44937.35086417123
 20
-3180.104903479659
 30
0.0
  0
ENDBLK
  8
0
  0
BLOCK
  8
0
  2
*D343
 70
     1
 10
0.0
 20
0.0
  0
LINE
  8
1DIM
 10
45399.84101142381
 20
-4040.104903479667
 11
45329.84101142381
 21
-4040.104903479667
  0
LINE
  8
1DIM
 10
45399.84101142381
 20
-3390.104903479667
 11
45329.84101142381
 21
-3390.104903479667
  0
LINE
  8
1DIM
 10
45349.84101142381
 20
-4000.104903479667
 11
45349.84101142381
 21
-3430.104903479667
  0
INSERT
  8
1DIM
  2
_OPEN30
 10
45349.84101142381
 20
-4040.104903479667
 30
0.0
 41
40.0
 42
40.0
 43
40.0
 50
270.0
  0
INSERT
  8
1DIM
  2
_OPEN30
 10
45349.84101142381
 20
-3390.104903479667
 30
0.0
 41
40.0
 42
40.0
 43
40.0
 50
90.0
  0
TEXT
  8
1DIM
  6
CONTINUOUS
 62
   201
 10
45335.84101142381
 20
-3816.771570146338
 40
70.0
  1
650
 50
90.0
  0
POINT
  8
DEFPOINTS
 62
     0
 10
45499.84101142381
 20
-4040.104903479667
 30
0.0
  0
POINT
  8
DEFPOINTS
 62
     0
 10
45499.84101142381
 20
-3390.104903479667
 30
0.0
  0
POINT
  8
DEFPOINTS
 62
     0
 10
45349.84101142381
 20
-3390.104903479667
 30
0.0
  0
ENDBLK
  8
0
  0
BLOCK
  8
0
  2
A-A
 70
     0
 10
0.0
 20
0.0
  0
LINE
  8
0
 10
0.0
 20
0.0
 11
53.759996799999
 21
0.0
  0
LINE
  8
0
 10
8.0321632
 20
10.63999856
 11
11.2933376
 21
1.68
  0
LINE
  8
0
 10
3.36
 20
1.68000624
 11
6.6211696
 21
10.63998944
  0
LINE
  8
0
 10
9.8630848
 20
1.68
 11
11.2933392
 21
1.68
  0
LINE
  8
0
 10
8.905750399999
 20
4.31024896
 11
9.8630848
 21
1.67999952
  0
LINE
  8
0
 10
4.7902528
 20
1.68000016
 11
5.7475856
 21
4.31024864
  0
LINE
  8
0
 10
3.36
 20
1.68
 11
4.7902528
 21
1.68
  0
LINE
  8
0
 10
5.7475856
 20
4.31024928
 11
8.905750399999
 21
4.31024928
  0
LINE
  8
0
 10
6.171791999999
 20
5.47574928
 11
8.4815424
 21
5.47574928
  0
LINE
  8
0
 10
6.171791999999
 20
5.4757488
 11
7.3266672
 21
8.64873968
  0
LINE
  8
0
 10
7.326668799999
 20
8.64873888
 11
8.481544
 21
5.4757488
  0
LINE
  8
0
 10
12.678397759999
 20
5.57759664
 11
16.441594239999
 21
5.57759664
  0
LINE
  8
0
 10
12.678397759999
 20
6.65279616
 11
16.441594239999
 21
6.65279616
  0
ARC
  8
0
 10
12.678397759999
 20
5.93599664
 40
0.3583999840000001
 50
179.99994
 51
270.0
  0
ARC
  8
0
 10
12.678397759999
 20
6.29439616
 40
0.3583999840000001
 50
90.0
 51
179.99994
  0
LINE
  8
0
 10
12.319997759999
 20
6.29439616
 11
12.319997759999
 21
5.93599664
  0
ARC
  8
0
 10
16.441594239999
 20
6.29439616
 40
0.3583999840000001
 50
0.0
 51
90.0
  0
ARC
  8
0
 10
16.441594239999
 20
5.93599664
 40
0.3583999840000001
 50
270.0
 51
0.0
  0
LINE
  8
0
 10
16.79999424
 20
6.29439616
 11
16.79999424
 21
5.93599664
  0
LINE
  8
0
 10
6.621172799999
 20
10.63999856
 11
8.0321632
 21
10.63999856
  0
LINE
  8
0
 10
25.952162927999
 20
10.63999936
 11
29.21333792
 21
1.68000064
  0
LINE
  8
0
 10
21.279999519999
 20
1.68000528
 11
24.541168639999
 21
10.639988
  0
LINE
  8
0
 10
23.667586079999
 20
4.31024928
 11
26.8257509616
 21
4.31024928
  0
LINE
  8
0
 10
22.7102536
 20
1.67999904
 11
23.667586559999
 21
4.31024784
  0
LINE
  8
0
 10
21.28000064
 20
1.68
 11
22.71025168
 21
1.68
  0
LINE
  8
0
 10
24.09179248
 20
5.47574928
 11
26.401542576
 21
5.47574928
  0
LINE
  8
0
 10
24.091794239999
 20
5.475748
 11
25.24666896
 21
8.64873888
  0
LINE
  8
0
 10
25.2466664
 20
8.64873968
 11
26.401541424
 21
5.475748
  0
LINE
  8
0
 10
26.8257489648
 20
4.31024816
 11
27.783081824
 21
1.67999952
  0
LINE
  8
0
 10
27.783083439999
 20
1.68
 11
29.21333888
 21
1.68
  0
POINT
  8
0
 10
26.8799984
 20
0.0
 30
0.0
  0
POINT
  8
0
 10
26.8799984
 20
0.0
 30
0.0
  0
LINE
  8
0
 10
24.541171999999
 20
10.63999856
 11
25.952163024
 21
10.63999856
  0
TEXT
  8
0
 10
35.978853279999
 20
1.99199984
 40
8.0
  1
断面
 41
0.8643459
  0
ENDBLK
  8
0
  0
BLOCK
  8
0
  2
AA
 70
     0
 10
0.0
 20
0.0
  0
LINE
  8
0
 10
0.000001680067
 20
0.00000565232
 11
2.9117599
 21
7.9999905
  0
LINE
  8
0
 10
3.5416694
 20
6.2220893
 11
4.5728078
 21
3.3890617
  0
LINE
  8
0
 10
2.5105312
 20
3.3890617
 11
3.5416694
 21
6.2220888
  0
LINE
  8
0
 10
4.171576
 20
7.999999
 11
7.0833392
 21
0.000000048888
  0
LINE
  8
0
 10
2.1317739
 20
2.3484368
 11
4.9515643
 21
2.3484368
  0
LINE
  8
0
 10
2.5105309
 20
3.3890619
 11
4.5728073
 21
3.3890619
  0
LINE
  8
0
 10
0.000001907349
 20
0.0
 11
1.2770123
 21
0.0
  0
POINT
  8
0
 10
0.0
 20
0.0
 30
0.0
  0
LINE
  8
0
 10
1.2770127
 20
-0.000000009364
 11
2.1317742
 21
2.3484364
  0
LINE
  8
0
 10
5.8063259
 20
0.0
 11
7.0833392
 21
0.0
  0
LINE
  8
0
 10
4.9515648
 20
2.3484368
 11
5.8063259
 21
0.000000268506
  0
LINE
  8
0
 10
2.9117632
 20
7.999999
 11
4.171576
 21
7.999999
  0
ENDBLK
  8
0
  0
BLOCK
  8
0
  2
訂正1
 70
     0
 10
0.0
 20
0.0
  0
LINE
  8
1HATCH
 10
0.000000135843
 20
2.025
 11
2.33826804
 21
-2.0250009
  0
LINE
  8
1HATCH
 10
-2.33826867
 20
-2.025
 11
2.33826849
 21
-2.025
  0
TEXT
  8
1TEXT
 10
-0.434499620191
 20
-1.510450886077
 40
1.8
  1
1
 41
0.66666667
 72
     1
 11
0.051214667951
 21
-1.510450886077
  0
LINE
  8
1HATCH
 10
0.000000476316
 20
2.02500018
 11
-2.33826849
 21
-2.02499937
  0
ENDBLK
  8
0
  0
BLOCK
  8
0
  2
*D440
 70
     1
 10
0.0
 20
0.0
  0
LINE
  8
1DIM
 10
36379.32666867284
 20
-3852.642870565283
 11
36379.32666867284
 21
-3970.748384853918
  0
LINE
  8
1DIM
 10
36879.31644627106
 20
-3847.415733333414
 11
36879.31644627106
 21
-3970.748384853918
  0
LINE
  8
1DIM
 10
36409.32666867284
 20
-3955.748384853918
 11
36849.31644627106
 21
-3955.748384853918
  0
INSERT
  8
1DIM
  2
_OPEN30
 10
36379.32666867284
 20
-3955.748384853918
 30
0.0
 41
30.0
 42
30.0
 43
30.0
 50
180.0
  0
INSERT
  8
1DIM
  2
_OPEN30
 10
36879.31644627106
 20
-3955.748384853918
 30
0.0
 41
30.0
 42
30.0
 43
30.0
  0
TEXT
  8
1DIM
  6
CONTINUOUS
 62
   201
 10
36486.82155747195
 20
-3945.248384853918
 40
52.5
  1
SW:500
  0
POINT
  8
DEFPOINTS
 62
     0
 10
36379.32666867284
 20
-3852.642870565283
 30
0.0
  0
POINT
  8
DEFPOINTS
 62
     0
 10
36879.31644627106
 20
-3847.415733333414
 30
0.0
  0
POINT
  8
DEFPOINTS
 62
     0
 10
36879.31644627106
 20
-3955.748384853918
 30
0.0
  0
ENDBLK
  8
0
  0
BLOCK
  8
0
  2
*D441
 70
     1
 10
0.0
 20
0.0
  0
LINE
  8
1DIM
 10
36958.71469106342
 20
-3815.589182669874
 11
37114.65405042568
 21
-3815.589182669874
  0
LINE
  8
1DIM
 10
36969.88557907428
 20
-3145.817324850248
 11
37114.65405042568
 21
-3145.817324850248
  0
LINE
  8
1DIM
 10
37099.65405042568
 20
-3785.589182669874
 11
37099.65405042568
 21
-3175.817324850248
  0
INSERT
  8
1DIM
  2
_OPEN30
 10
37099.65405042568
 20
-3815.589182669874
 30
0.0
 41
30.0
 42
30.0
 43
30.0
 50
270.0
  0
INSERT
  8
1DIM
  2
_OPEN30
 10
37099.65405042568
 20
-3145.817324850248
 30
0.0
 41
30.0
 42
30.0
 43
30.0
 50
90.0
  0
TEXT
  8
1DIM
  6
CONTINUOUS
 62
   201
 10
37089.15405042568
 20
-3556.953253760061
 40
52.5
  1
670
 50
90.0
  0
POINT
  8
DEFPOINTS
 62
     0
 10
36958.71469106342
 20
-3815.589182669874
 30
0.0
  0
POINT
  8
DEFPOINTS
 62
     0
 10
36969.88557907428
 20
-3145.817324850248
 30
0.0
  0
POINT
  8
DEFPOINTS
 62
     0
 10
37099.65405042568
 20
-3145.817324850248
 30
0.0
  0
ENDBLK
  8
0
  0
BLOCK
  8
0
  2
*D442
 70
     1
 10
0.0
 20
0.0
  0
LINE
  8
1DIM
 10
37365.24484371737
 20
-4915.536124296625
 11
37365.24484371737
 21
-5180.570863729112
  0
LINE
  8
1DIM
 10
38035.6005908004
 20
-4914.619553812116
 11
38035.6005908004
 21
-5180.570863729112
  0
LINE
  8
1DIM
 10
37395.24484371737
 20
-5165.570863729112
 11
38005.6005908004
 21
-5165.570863729112
  0
INSERT
  8
1DIM
  2
_OPEN30
 10
37365.24484371737
 20
-5165.570863729112
 30
0.0
 41
30.0
 42
30.0
 43
30.0
 50
180.0
  0
INSERT
  8
1DIM
  2
_OPEN30
 10
38035.6005908004
 20
-5165.570863729112
 30
0.0
 41
30.0
 42
30.0
 43
30.0
  0
TEXT
  8
1DIM
  6
CONTINUOUS
 62
   201
 10
37585.42271725889
 20
-5155.070863729112
 40
52.5
  1
D:670
  0
POINT
  8
DEFPOINTS
 62
     0
 10
37365.24484371737
 20
-4915.536124296625
 30
0.0
  0
POINT
  8
DEFPOINTS
 62
     0
 10
38035.6005908004
 20
-4914.619553812116
 30
0.0
  0
POINT
  8
DEFPOINTS
 62
     0
 10
38035.6005908004
 20
-5165.570863729112
 30
0.0
  0
ENDBLK
  8
0
  0
BLOCK
  8
0
  2
*D443
 70
     1
 10
0.0
 20
0.0
  0
LINE
  8
1DIM
 10
36349.44149122525
 20
-4914.469568584204
 11
36349.44149122525
 21
-5046.912035774903
  0
LINE
  8
1DIM
 10
36909.44149122525
 20
-4914.469568584204
 11
36909.44149122525
 21
-5046.912035774903
  0
LINE
  8
1DIM
 10
36379.44149122525
 20
-5031.912035774903
 11
36879.44149122525
 21
-5031.912035774903
  0
INSERT
  8
1DIM
  2
_OPEN30
 10
36349.44149122525
 20
-5031.912035774903
 30
0.0
 41
30.0
 42
30.0
 43
30.0
 50
180.0
  0
INSERT
  8
1DIM
  2
_OPEN30
 10
36909.44149122525
 20
-5031.912035774903
 30
0.0
 41
30.0
 42
30.0
 43
30.0
  0
TEXT
  8
1DIM
  6
CONTINUOUS
 62
   201
 10
36554.44149122525
 20
-5021.412035774903
 40
52.5
  1
560
  0
POINT
  8
DEFPOINTS
 62
     0
 10
36349.44149122525
 20
-4914.469568584204
 30
0.0
  0
POINT
  8
DEFPOINTS
 62
     0
 10
36909.44149122525
 20
-4914.469568584204
 30
0.0
  0
POINT
  8
DEFPOINTS
 62
     0
 10
36909.44149122525
 20
-5031.912035774903
 30
0.0
  0
ENDBLK
  8
0
  0
BLOCK
  8
0
  2
*D444
 70
     1
 10
0.0
 20
0.0
  0
LINE
  8
1DIM
 10
37333.76761342643
 20
-4891.64796197398
 11
37244.66725396411
 21
-4891.64796197398
  0
LINE
  8
1DIM
 10
37345.30896408932
 20
-4471.482835713083
 11
37244.66725396411
 21
-4471.482835713083
  0
LINE
  8
1DIM
 10
37259.66725396411
 20
-4861.64796197398
 11
37259.66725396411
 21
-4501.482835713083
  0
INSERT
  8
1DIM
  2
_OPEN30
 10
37259.66725396411
 20
-4891.64796197398
 30
0.0
 41
30.0
 42
30.0
 43
30.0
 50
270.0
  0
INSERT
  8
1DIM
  2
_OPEN30
 10
37259.66725396411
 20
-4471.482835713083
 30
0.0
 41
30.0
 42
30.0
 43
30.0
 50
90.0
  0
TEXT
  8
1DIM
  6
CONTINUOUS
 62
   201
 10
37249.16725396411
 20
-4821.56539884353
 40
52.5
  1
SH:420
 50
90.0
  0
POINT
  8
DEFPOINTS
 62
     0
 10
37333.76761342643
 20
-4891.64796197398
 30
0.0
  0
POINT
  8
DEFPOINTS
 62
     0
 10
37345.30896408932
 20
-4471.482835713083
 30
0.0
  0
POINT
  8
DEFPOINTS
 62
     0
 10
37259.66725396411
 20
-4471.482835713083
 30
0.0
  0
ENDBLK
  8
0
  0
BLOCK
  8
0
  2
*D445
 70
     1
 10
0.0
 20
0.0
  0
LINE
  8
1DIM
 10
37333.76761342643
 20
-4891.64796197398
 11
37134.98369174293
 21
-4891.64796197398
  0
LINE
  8
1DIM
 10
37373.475042851
 20
-4282.127092205303
 11
37134.98369174293
 21
-4282.127092205303
  0
LINE
  8
1DIM
 10
37149.98369174293
 20
-4861.64796197398
 11
37149.98369174293
 21
-4312.127092205303
  0
INSERT
  8
1DIM
  2
_OPEN30
 10
37149.98369174293
 20
-4891.64796197398
 30
0.0
 41
30.0
 42
30.0
 43
30.0
 50
270.0
  0
INSERT
  8
1DIM
  2
_OPEN30
 10
37149.98369174293
 20
-4282.127092205303
 30
0.0
 41
30.0
 42
30.0
 43
30.0
 50
90.0
  0
TEXT
  8
1DIM
  6
CONTINUOUS
 62
   201
 10
37139.48369174293
 20
-4721.887527089639
 40
52.5
  1
AH:610
 50
90.0
  0
POINT
  8
DEFPOINTS
 62
     0
 10
37333.76761342643
 20
-4891.64796197398
 30
0.0
  0
POINT
  8
DEFPOINTS
 62
     0
 10
37373.475042851
 20
-4282.127092205303
 30
0.0
  0
POINT
  8
DEFPOINTS
 62
     0
 10
37149.98369174293
 20
-4282.127092205303
 30
0.0
  0
ENDBLK
  8
0
  0
BLOCK
  8
0
  2
*D446
 70
     1
 10
0.0
 20
0.0
  0
LINE
  8
1DIM
 10
38078.61082173161
 20
-4891.64796197398
 11
38169.14412183288
 21
-4891.64796197398
  0
LINE
  8
1DIM
 10
38052.30741623693
 20
-4126.783807643882
 11
38169.14412183288
 21
-4126.783807643882
  0
LINE
  8
1DIM
 10
38154.14412183288
 20
-4861.64796197398
 11
38154.14412183288
 21
-4156.783807643882
  0
INSERT
  8
1DIM
  2
_OPEN30
 10
38154.14412183288
 20
-4891.64796197398
 30
0.0
 41
30.0
 42
30.0
 43
30.0
 50
270.0
  0
INSERT
  8
1DIM
  2
_OPEN30
 10
38154.14412183288
 20
-4126.783807643882
 30
0.0
 41
30.0
 42
30.0
 43
30.0
 50
90.0
  0
TEXT
  8
1DIM
  6
CONTINUOUS
 62
   201
 10
38143.64412183288
 20
-4625.465884808931
 40
52.5
  1
H:765
 50
90.0
  0
POINT
  8
DEFPOINTS
 62
     0
 10
38078.61082173161
 20
-4891.64796197398
 30
0.0
  0
POINT
  8
DEFPOINTS
 62
     0
 10
38052.30741623693
 20
-4126.783807643882
 30
0.0
  0
POINT
  8
DEFPOINTS
 62
     0
 10
38154.14412183288
 20
-4126.783807643882
 30
0.0
  0
ENDBLK
  8
0
  0
BLOCK
  8
0
  2
*D447
 70
     1
 10
0.0
 20
0.0
  0
LINE
  8
1DIM
 10
36316.86528204795
 20
-4914.469568584204
 11
36316.86528204795
 21
-5180.570863729112
  0
LINE
  8
1DIM
 10
36942.02446480552
 20
-4914.469568584204
 11
36942.02446480552
 21
-5180.570863729112
  0
LINE
  8
1DIM
 10
36346.86528204795
 20
-5165.570863729112
 11
36912.02446480552
 21
-5165.570863729112
  0
INSERT
  8
1DIM
  2
_OPEN30
 10
36316.86528204795
 20
-5165.570863729112
 30
0.0
 41
30.0
 42
30.0
 43
30.0
 50
180.0
  0
INSERT
  8
1DIM
  2
_OPEN30
 10
36942.02446480552
 20
-5165.570863729112
 30
0.0
 41
30.0
 42
30.0
 43
30.0
  0
TEXT
  8
1DIM
  6
CONTINUOUS
 62
   201
 10
36513.19487342674
 20
-5155.070863729112
 40
52.5
  1
W:625
  0
POINT
  8
DEFPOINTS
 62
     0
 10
36316.86528204795
 20
-4914.469568584204
 30
0.0
  0
POINT
  8
DEFPOINTS
 62
     0
 10
36942.02446480552
 20
-4914.469568584204
 30
0.0
  0
POINT
  8
DEFPOINTS
 62
     0
 10
36942.02446480552
 20
-5165.570863729112
 30
0.0
  0
ENDBLK
  8
0
  0
BLOCK
  8
0
  2
*D448
 70
     1
 10
0.0
 20
0.0
  0
LINE
  8
1DIM
 10
38762.17471193743
 20
-5764.251787055598
 11
38762.17471193743
 21
-5694.251787055598
  0
LINE
  8
1DIM
 10
39259.19085362436
 20
-5764.251787055598
 11
39259.19085362436
 21
-5694.251787055598
  0
LINE
  8
1DIM
 10
38802.17471193743
 20
-5714.251787055598
 11
39219.19085362436
 21
-5714.251787055598
  0
INSERT
  8
1DIM
  2
_OPEN30
 10
38762.17471193743
 20
-5714.251787055598
 30
0.0
 41
40.0
 42
40.0
 43
40.0
 50
180.0
  0
INSERT
  8
1DIM
  2
_OPEN30
 10
39259.19085362436
 20
-5714.251787055598
 30
0.0
 41
40.0
 42
40.0
 43
40.0
  0
TEXT
  8
1DIM
  6
CONTINUOUS
 62
   201
 10
38910.6827827809
 20
-5700.251787055598
 40
70.0
  1
500
  0
POINT
  8
DEFPOINTS
 62
     0
 10
38762.17471193743
 20
-5864.251787055598
 30
0.0
  0
POINT
  8
DEFPOINTS
 62
     0
 10
39259.19085362436
 20
-5864.251787055598
 30
0.0
  0
POINT
  8
DEFPOINTS
 62
     0
 10
39259.19085362436
 20
-5714.251787055598
 30
0.0
  0
ENDBLK
  8
0
  0
BLOCK
  8
0
  2
*D449
 70
     1
 10
0.0
 20
0.0
  0
LINE
  8
1DIM
 10
39723.26190446367
 20
-6054.202457134049
 11
39653.26190446367
 21
-6054.202457134049
  0
LINE
  8
1DIM
 10
39723.26190446367
 20
-6664.82651730407
 11
39653.26190446367
 21
-6664.82651730407
  0
LINE
  8
1DIM
 10
39673.26190446367
 20
-6094.202457134049
 11
39673.26190446367
 21
-6624.82651730407
  0
INSERT
  8
1DIM
  2
_OPEN30
 10
39673.26190446367
 20
-6054.202457134049
 30
0.0
 41
40.0
 42
40.0
 43
40.0
 50
90.0
  0
INSERT
  8
1DIM
  2
_OPEN30
 10
39673.26190446367
 20
-6664.82651730407
 30
0.0
 41
40.0
 42
40.0
 43
40.0
 50
270.0
  0
TEXT
  8
1DIM
  6
CONTINUOUS
 62
   201
 10
39659.26190446367
 20
-6461.181153885729
 40
70.0
  1
610
 50
90.0
  0
POINT
  8
DEFPOINTS
 62
     0
 10
39823.26190446367
 20
-6054.202457134049
 30
0.0
  0
POINT
  8
DEFPOINTS
 62
     0
 10
39823.26190446367
 20
-6664.82651730407
 30
0.0
  0
POINT
  8
DEFPOINTS
 62
     0
 10
39673.26190446367
 20
-6664.82651730407
 30
0.0
  0
ENDBLK
  8
0
  0
BLOCK
  8
0
  2
*D450
 70
     1
 10
0.0
 20
0.0
  0
LINE
  8
1DIM
 10
38698.09253500205
 20
-6242.429953862399
 11
38528.09253500205
 21
-6242.429953862399
  0
LINE
  8
1DIM
 10
38698.09253500205
 20
-6664.82651730407
 11
38528.09253500205
 21
-6664.82651730407
  0
LINE
  8
1DIM
 10
38548.09253500205
 20
-6282.429953862399
 11
38548.09253500205
 21
-6624.82651730407
  0
INSERT
  8
1DIM
  2
_OPEN30
 10
38548.09253500205
 20
-6242.429953862399
 30
0.0
 41
40.0
 42
40.0
 43
40.0
 50
90.0
  0
INSERT
  8
1DIM
  2
_OPEN30
 10
38548.09253500205
 20
-6664.82651730407
 30
0.0
 41
40.0
 42
40.0
 43
40.0
 50
270.0
  0
TEXT
  8
1DIM
  6
CONTINUOUS
 62
   201
 10
38534.09253500205
 20
-6553.628235583237
 40
70.0
  1
420
 50
90.0
  0
POINT
  8
DEFPOINTS
 62
     0
 10
38698.09253500205
 20
-6242.429953862399
 30
0.0
  0
POINT
  8
DEFPOINTS
 62
     0
 10
38698.09253500205
 20
-6664.82651730407
 30
0.0
  0
POINT
  8
DEFPOINTS
 62
     0
 10
38548.09253500205
 20
-6664.82651730407
 30
0.0
  0
ENDBLK
  8
0
  0
BLOCK
  8
0
  2
*D452
 70
     1
 10
0.0
 20
0.0
  0
LINE
  8
1DIM
 10
39823.26190446367
 20
-6764.82651730407
 11
39823.26190446367
 21
-6834.82651730407
  0
LINE
  8
1DIM
 10
40526.79448847914
 20
-6764.82651730407
 11
40526.79448847914
 21
-6834.82651730407
  0
LINE
  8
1DIM
 10
39863.26190446367
 20
-6814.82651730407
 11
40486.79448847914
 21
-6814.82651730407
  0
INSERT
  8
1DIM
  2
_OPEN30
 10
39823.26190446367
 20
-6814.82651730407
 30
0.0
 41
40.0
 42
40.0
 43
40.0
 50
180.0
  0
INSERT
  8
1DIM
  2
_OPEN30
 10
40526.79448847914
 20
-6814.82651730407
 30
0.0
 41
40.0
 42
40.0
 43
40.0
  0
TEXT
  8
1DIM
  6
CONTINUOUS
 62
   201
 10
40073.36152980474
 20
-6800.82651730407
 40
70.0
  1
690
  0
POINT
  8
DEFPOINTS
 62
     0
 10
39823.26190446367
 20
-6664.82651730407
 30
0.0
  0
POINT
  8
DEFPOINTS
 62
     0
 10
40526.79448847914
 20
-6664.82651730407
 30
0.0
  0
POINT
  8
DEFPOINTS
 62
     0
 10
40526.79448847914
 20
-6814.82651730407
 30
0.0
  0
ENDBLK
  8
0
  0
BLOCK
  8
0
  2
*D454
 70
     1
 10
0.0
 20
0.0
  0
LINE
  8
1DIM
 10
38698.09253500205
 20
-6764.82651730407
 11
38698.09253500205
 21
-6834.82651730407
  0
LINE
  8
1DIM
 10
39323.26190446367
 20
-6764.82651730407
 11
39323.26190446367
 21
-6834.82651730407
  0
LINE
  8
1DIM
 10
38738.09253500205
 20
-6814.82651730407
 11
39283.26190446367
 21
-6814.82651730407
  0
INSERT
  8
1DIM
  2
_OPEN30
 10
38698.09253500205
 20
-6814.82651730407
 30
0.0
 41
40.0
 42
40.0
 43
40.0
 50
180.0
  0
INSERT
  8
1DIM
  2
_OPEN30
 10
39323.26190446367
 20
-6814.82651730407
 30
0.0
 41
40.0
 42
40.0
 43
40.0
  0
TEXT
  8
1DIM
  6
CONTINUOUS
 62
   201
 10
38909.01055306618
 20
-6800.82651730407
 40
70.0
  1
625
  0
POINT
  8
DEFPOINTS
 62
     0
 10
38698.09253500205
 20
-6664.82651730407
 30
0.0
  0
POINT
  8
DEFPOINTS
 62
     0
 10
39323.26190446367
 20
-6664.82651730407
 30
0.0
  0
POINT
  8
DEFPOINTS
 62
     0
 10
39323.26190446367
 20
-6814.82651730407
 30
0.0
  0
ENDBLK
  8
0
  0
BLOCK
  8
0
  2
*D455
 70
     1
 10
0.0
 20
0.0
  0
LINE
  8
1DIM
 10
39823.26190446367
 20
-5764.251787055598
 11
39823.26190446367
 21
-5694.251787055598
  0
LINE
  8
1DIM
 10
40255.03624237943
 20
-5764.251787055598
 11
40255.03624237943
 21
-5694.251787055598
  0
LINE
  8
1DIM
 10
39863.26190446367
 20
-5714.251787055598
 11
40215.03624237943
 21
-5714.251787055598
  0
INSERT
  8
1DIM
  2
_OPEN30
 10
39823.26190446367
 20
-5714.251787055598
 30
0.0
 41
40.0
 42
40.0
 43
40.0
 50
180.0
  0
INSERT
  8
1DIM
  2
_OPEN30
 10
40255.03624237943
 20
-5714.251787055598
 30
0.0
 41
40.0
 42
40.0
 43
40.0
  0
TEXT
  8
1DIM
  6
CONTINUOUS
 62
   201
 10
39939.14907342155
 20
-5700.251787055598
 40
70.0
  1
432
  0
POINT
  8
DEFPOINTS
 62
     0
 10
39823.26190446367
 20
-5864.251787055598
 30
0.0
  0
POINT
  8
DEFPOINTS
 62
     0
 10
40255.03624237943
 20
-5864.251787055598
 30
0.0
  0
POINT
  8
DEFPOINTS
 62
     0
 10
40255.03624237943
 20
-5714.251787055598
 30
0.0
  0
ENDBLK
  8
0
  0
BLOCK
  8
0
  2
*D458
 70
     1
 10
0.0
 20
0.0
  0
LINE
  8
1DIM
 10
40626.79448847914
 20
-5864.251787055598
 11
40696.79448847914
 21
-5864.251787055598
  0
LINE
  8
1DIM
 10
40626.79448847914
 20
-6664.82651730407
 11
40696.79448847914
 21
-6664.82651730407
  0
LINE
  8
1DIM
 10
40676.79448847914
 20
-5904.251787055598
 11
40676.79448847914
 21
-6624.82651730407
  0
INSERT
  8
1DIM
  2
_OPEN30
 10
40676.79448847914
 20
-5864.251787055598
 30
0.0
 41
40.0
 42
40.0
 43
40.0
 50
90.0
  0
INSERT
  8
1DIM
  2
_OPEN30
 10
40676.79448847914
 20
-6664.82651730407
 30
0.0
 41
40.0
 42
40.0
 43
40.0
 50
270.0
  0
TEXT
  8
1DIM
  6
CONTINUOUS
 62
   201
 10
40662.79448847914
 20
-6364.539152179837
 40
70.0
  1
800
 50
90.0
  0
POINT
  8
DEFPOINTS
 62
     0
 10
40526.79448847914
 20
-5864.251787055598
 30
0.0
  0
POINT
  8
DEFPOINTS
 62
     0
 10
40526.79448847914
 20
-6664.82651730407
 30
0.0
  0
POINT
  8
DEFPOINTS
 62
     0
 10
40676.79448847914
 20
-6664.82651730407
 30
0.0
  0
ENDBLK
  8
0
  0
BLOCK
  8
0
  2
*D459
 70
     1
 10
0.0
 20
0.0
  0
LINE
  8
1DIM
 10
38598.09253500205
 20
-6268.957079386373
 11
38528.09253500205
 21
-6268.957079386373
  0
LINE
  8
1DIM
 10
38598.09253500205
 20
-6664.82651730407
 11
38528.09253500205
 21
-6664.82651730407
  0
LINE
  8
1DIM
 10
38548.09253500205
 20
-6308.957079386373
 11
38548.09253500205
 21
-6624.82651730407
  0
INSERT
  8
1DIM
  2
_OPEN30
 10
38548.09253500205
 20
-6268.957079386373
 30
0.0
 41
40.0
 42
40.0
 43
40.0
 50
90.0
  0
INSERT
  8
1DIM
  2
_OPEN30
 10
38548.09253500205
 20
-6664.82651730407
 30
0.0
 41
40.0
 42
40.0
 43
40.0
 50
270.0
  0
TEXT
  8
1DIM
  6
CONTINUOUS
 62
   201
 10
38534.09253500205
 20
-6566.891798345219
 40
70.0
  1
400
 50
90.0
  0
POINT
  8
DEFPOINTS
 62
     0
 10
38698.09253500205
 20
-6268.957079386373
 30
0.0
  0
POINT
  8
DEFPOINTS
 62
     0
 10
38698.09253500205
 20
-6664.82651730407
 30
0.0
  0
POINT
  8
DEFPOINTS
 62
     0
 10
38548.09253500205
 20
-6664.82651730407
 30
0.0
  0
ENDBLK
  8
0
  0
ENDSEC
  0
SECTION
  2
ENTITIES
  0
DIMENSION
  8
1DIM
  2
*D448
 10
39259.19085362436
 20
-5714.251787055598
 11
39010.6827827809
 21
-5665.251787055598
 70
    32
  1
500
 13
38762.17471193743
 23
-5864.251787055598
 33
0.0
 14
39259.19085362436
 24
-5864.251787055598
 34
0.0
  0
DIMENSION
  8
1DIM
  2
*D449
 10
39673.26190446367
 20
-6664.82651730407
 11
39624.26190446367
 21
-6359.514487219059
 70
    32
  1
610
 13
39823.26190446367
 23
-6054.202457134049
 33
0.0
 14
39823.26190446367
 24
-6664.82651730407
 34
0.0
 50
90.0
  0
DIMENSION
  8
1DIM
  2
*D452
 10
40526.79448847914
 20
-6814.82651730407
 11
40175.02819647141
 21
-6765.82651730407
 70
    32
  1
690
 13
39823.26190446367
 23
-6664.82651730407
 33
0.0
 14
40526.79448847914
 24
-6664.82651730407
 34
0.0
  0
DIMENSION
  8
1DIM
  2
*D454
 10
39323.26190446367
 20
-6814.82651730407
 11
39010.67721973285
 21
-6765.82651730407
 70
    32
 13
38698.09253500205
 23
-6664.82651730407
 33
0.0
 14
39323.26190446367
 24
-6664.82651730407
 34
0.0
  0
DIMENSION
  8
1DIM
  2
*D455
 10
40255.03624237943
 20
-5714.251787055598
 11
40039.14907342155
 21
-5665.251787055598
 70
    32
 13
39823.26190446367
 23
-5864.251787055598
 33
0.0
 14
40255.03624237943
 24
-5864.251787055598
 34
0.0
  0
LINE
  8
0
  6
CONTINUOUS
 62
     4
 10
39869.78221493321
 20
-6330.345463005447
 11
39870.0387507452
 21
-6330.339629754896
  0
LINE
  8
0
  6
CONTINUOUS
 62
     4
 10
39869.78221265364
 20
-6330.345463077333
 11
39870.0387507432
 21
-6330.339629787645
  0
POLYLINE
  8
0
 66
     1
  0
VERTEX
  8
0
 10
40435.3928099768
 20
-6360.970021851359
  0
VERTEX
  8
0
 10
39896.73702841658
 20
-6363.829998947381
  0
VERTEX
  8
0
 10
39904.04392280809
 20
-6314.409259915076
  0
VERTEX
  8
0
 10
39906.73298670712
 20
-6314.565196590899
  0
VERTEX
  8
0
 10
39909.42201799692
 20
-6314.721938267276
  0
VERTEX
  8
0
 10
39912.11101629995
 20
-6314.879484931955
  0
VERTEX
  8
0
 10
39914.79998123866
 20
-6315.03783657268
  0
VERTEX
  8
0
 10
39917.48891243547
 20
-6315.196993177198
  0
VERTEX
  8
0
 10
39920.17780951285
 20
-6315.356954733255
  0
VERTEX
  8
0
 10
39922.86667209322
 20
-6315.517721228597
  0
VERTEX
  8
0
 10
39925.55549979903
 20
-6315.67929265097
  0
VERTEX
  8
0
 10
39928.24429225273
 20
-6315.84166898812
  0
VERTEX
  8
0
 10
39930.93304907675
 20
-6316.004850227793
  0
VERTEX
  8
0
 10
39933.62176989354
 20
-6316.168836357734
  0
VERTEX
  8
0
 10
39936.31045432555
 20
-6316.333627365691
  0
VERTEX
  8
0
 10
39938.99910199521
 20
-6316.49922323941
  0
VERTEX
  8
0
 10
39941.68771252497
 20
-6316.665623966633
  0
VERTEX
  8
0
 10
39944.37628553726
 20
-6316.83282953511
  0
VERTEX
  8
0
 10
39947.06482065454
 20
-6317.000839932586
  0
VERTEX
  8
0
 10
39949.75331749924
 20
-6317.169655146808
  0
VERTEX
  8
0
 10
39952.44177569382
 20
-6317.33927516552
  0
VERTEX
  8
0
 10
39955.13019486071
 20
-6317.509699976469
  0
VERTEX
  8
0
 10
39957.81857462235
 20
-6317.6809295674
  0
VERTEX
  8
0
 10
39960.50691460118
 20
-6317.852963926061
  0
VERTEX
  8
0
 10
39963.19521441965
 20
-6318.025803040197
  0
VERTEX
  8
0
 10
39965.8834737002
 20
-6318.199446897554
  0
VERTEX
  8
0
 10
39968.57169206528
 20
-6318.373895485877
  0
VERTEX
  8
0
 10
39971.25986913734
 20
-6318.549148792914
  0
VERTEX
  8
0
 10
39973.94800453879
 20
-6318.725206806409
  0
VERTEX
  8
0
 10
39976.6360978921
 20
-6318.902069514109
  0
VERTEX
  8
0
 10
39979.32414881969
 20
-6319.07973690376
  0
VERTEX
  8
0
 10
39982.01215694404
 20
-6319.258208963108
  0
VERTEX
  8
0
 10
39984.70012188756
 20
-6319.437485679899
  0
VERTEX
  8
0
 10
39987.38804327271
 20
-6319.617567041879
  0
VERTEX
  8
0
 10
39990.07592072192
 20
-6319.798453036794
  0
VERTEX
  8
0
 10
39992.76375385764
 20
-6319.980143652389
  0
VERTEX
  8
0
 10
39995.4515423023
 20
-6320.162638876412
  0
VERTEX
  8
0
 10
39998.13928567837
 20
-6320.345938696607
  0
VERTEX
  8
0
 10
40000.82698360828
 20
-6320.530043100721
  0
VERTEX
  8
0
 10
40003.51463571445
 20
-6320.7149520765
  0
VERTEX
  8
0
 10
40006.20224161936
 20
-6320.90066561169
  0
VERTEX
  8
0
 10
40008.88980094542
 20
-6321.087183694037
  0
VERTEX
  8
0
 10
40011.57731331509
 20
-6321.274506311286
  0
VERTEX
  8
0
 10
40014.26477835082
 20
-6321.462633451185
  0
VERTEX
  8
0
 10
40016.95219567504
 20
-6321.651565101478
  0
VERTEX
  8
0
 10
40019.63956491019
 20
-6321.841301249913
  0
VERTEX
  8
0
 10
40022.32688567872
 20
-6322.031841884233
  0
VERTEX
  8
0
 10
40025.01415760307
 20
-6322.223186992188
  0
VERTEX
  8
0
 10
40027.70138030568
 20
-6322.415336561521
  0
VERTEX
  8
0
 10
40030.38855340901
 20
-6322.608290579979
  0
VERTEX
  8
0
 10
40033.07567653547
 20
-6322.802049035307
  0
VERTEX
  8
0
 10
40035.76274930754
 20
-6322.996611915253
  0
VERTEX
  8
0
 10
40038.44977134763
 20
-6323.191979207561
  0
VERTEX
  8
0
 10
40041.13674227821
 20
-6323.388150899978
  0
VERTEX
  8
0
 10
40043.8236617217
 20
-6323.585126980252
  0
VERTEX
  8
0
 10
40046.51052930055
 20
-6323.782907436124
  0
VERTEX
  8
0
 10
40049.19734463721
 20
-6323.981492255343
  0
VERTEX
  8
0
 10
40051.88410735412
 20
-6324.180881425656
  0
VERTEX
  8
0
 10
40054.57081707372
 20
-6324.381074934808
  0
VERTEX
  8
0
 10
40057.25747341845
 20
-6324.582072770544
  0
VERTEX
  8
0
 10
40059.94407601075
 20
-6324.783874920612
  0
VERTEX
  8
0
 10
40062.63062447308
 20
-6324.986481372756
  0
VERTEX
  8
0
 10
40065.31711842786
 20
-6325.189892114723
  0
VERTEX
  8
0
 10
40068.00355749756
 20
-6325.394107134259
  0
VERTEX
  8
0
 10
40070.68994130459
 20
-6325.59912641911
  0
VERTEX
  8
0
 10
40073.37626947142
 20
-6325.804949957022
  0
VERTEX
  8
0
 10
40076.06254162047
 20
-6326.01157773574
  0
VERTEX
  8
0
 10
40078.74875737421
 20
-6326.219009743011
  0
VERTEX
  8
0
 10
40081.43491635506
 20
-6326.427245966581
  0
VERTEX
  8
0
 10
40084.12101818546
 20
-6326.636286394196
  0
VERTEX
  8
0
 10
40086.80706248788
 20
-6326.846131013602
  0
VERTEX
  8
0
 10
40089.49304888473
 20
-6327.056779812545
  0
VERTEX
  8
0
 10
40092.17897699848
 20
-6327.26823277877
  0
VERTEX
  8
0
 10
40094.86484645156
 20
-6327.480489900025
  0
VERTEX
  8
0
 10
40097.55065686641
 20
-6327.693551164054
  0
VERTEX
  8
0
 10
40100.23640786547
 20
-6327.907416558603
  0
VERTEX
  8
0
 10
40102.9220990712
 20
-6328.122086071421
  0
VERTEX
  8
0
 10
40105.60773010602
 20
-6328.337559690251
  0
VERTEX
  8
0
 10
40108.29330059239
 20
-6328.553837402839
  0
VERTEX
  8
0
 10
40110.97881015275
 20
-6328.770919196932
  0
VERTEX
  8
0
 10
40113.66425840954
 20
-6328.988805060277
  0
VERTEX
  8
0
 10
40116.3496449852
 20
-6329.207494980617
  0
VERTEX
  8
0
 10
40119.03496950217
 20
-6329.426988945701
  0
VERTEX
  8
0
 10
40121.72023158291
 20
-6329.647286943275
  0
VERTEX
  8
0
 10
40124.40543084983
 20
-6329.868388961081
  0
VERTEX
  8
0
 10
40127.09056692541
 20
-6330.090294986871
  0
VERTEX
  8
0
 10
40129.77563943207
 20
-6330.313005008386
  0
VERTEX
  8
0
 10
40132.46064799226
 20
-6330.536519013373
  0
VERTEX
  8
0
 10
40135.14559222841
 20
-6330.760836989581
  0
VERTEX
  8
0
 10
40137.83047176299
 20
-6330.985958924752
  0
VERTEX
  8
0
 10
40140.51528621843
 20
-6331.211884806635
  0
VERTEX
  8
0
 10
40143.20003521715
 20
-6331.438614622974
  0
VERTEX
  8
0
 10
40145.88471838163
 20
-6331.666148361516
  0
VERTEX
  8
0
 10
40148.56933533428
 20
-6331.894486010006
  0
VERTEX
  8
0
 10
40151.25388569756
 20
-6332.123627556192
  0
VERTEX
  8
0
 10
40153.93836909391
 20
-6332.353572987819
  0
VERTEX
  8
0
 10
40156.62278514577
 20
-6332.584322292632
  0
VERTEX
  8
0
 10
40159.3071334756
 20
-6332.815875458378
  0
VERTEX
  8
0
 10
40161.99141370582
 20
-6333.048232472804
  0
VERTEX
  8
0
 10
40164.67562545888
 20
-6333.281393323653
  0
VERTEX
  8
0
 10
40167.35976835722
 20
-6333.515357998675
  0
VERTEX
  8
0
 10
40170.0438420233
 20
-6333.750126485612
  0
VERTEX
  8
0
 10
40172.72784607953
 20
-6333.985698772212
  0
VERTEX
  8
0
 10
40175.41178014838
 20
-6334.22207484622
  0
VERTEX
  8
0
 10
40178.09564385228
 20
-6334.459254695385
  0
VERTEX
  8
0
 10
40180.77943681368
 20
-6334.697238307449
  0
VERTEX
  8
0
 10
40183.46315865502
 20
-6334.936025670161
  0
VERTEX
  8
0
 10
40186.14680899875
 20
-6335.175616771265
  0
VERTEX
  8
0
 10
40188.83038748496
 20
-6335.416011593658
  0
VERTEX
  8
0
 10
40191.51389382645
 20
-6335.657210100294
  0
VERTEX
  8
0
 10
40194.19732775466
 20
-6335.899212249
  0
VERTEX
  8
0
 10
40196.88068900103
 20
-6336.142017997605
  0
VERTEX
  8
0
 10
40199.56397729702
 20
-6336.385627303936
  0
VERTEX
  8
0
 10
40202.24719237407
 20
-6336.630040125822
  0
VERTEX
  8
0
 10
40204.93033396365
 20
-6336.875256421092
  0
VERTEX
  8
0
 10
40207.61340179718
 20
-6337.121276147572
  0
VERTEX
  8
0
 10
40210.29639560612
 20
-6337.368099263092
  0
VERTEX
  8
0
 10
40212.97931512193
 20
-6337.615725725479
  0
VERTEX
  8
0
 10
40215.66216007604
 20
-6337.864155492562
  0
VERTEX
  8
0
 10
40218.34493019991
 20
-6338.113388522169
  0
VERTEX
  8
0
 10
40221.02762522499
 20
-6338.363424772127
  0
VERTEX
  8
0
 10
40223.71024488273
 20
-6338.614264200265
  0
VERTEX
  8
0
 10
40226.39278890457
 20
-6338.865906764411
  0
VERTEX
  8
0
 10
40229.07525702196
 20
-6339.118352422394
  0
VERTEX
  8
0
 10
40231.75764896635
 20
-6339.371601132041
  0
VERTEX
  8
0
 10
40234.43996446919
 20
-6339.62565285118
  0
VERTEX
  8
0
 10
40237.12220326193
 20
-6339.88050753764
  0
VERTEX
  8
0
 10
40239.80436507602
 20
-6340.13616514925
  0
VERTEX
  8
0
 10
40242.48644964291
 20
-6340.392625643835
  0
VERTEX
  8
0
 10
40245.16845669405
 20
-6340.649888979226
  0
VERTEX
  8
0
 10
40247.85038596088
 20
-6340.907955113251
  0
VERTEX
  8
0
 10
40250.53223717485
 20
-6341.166824003737
  0
VERTEX
  8
0
 10
40253.21401006741
 20
-6341.426495608512
  0
VERTEX
  8
0
 10
40255.89570437001
 20
-6341.686969885404
  0
VERTEX
  8
0
 10
40258.5773198141
 20
-6341.948246792243
  0
VERTEX
  8
0
 10
40261.25885613113
 20
-6342.210326286855
  0
VERTEX
  8
0
 10
40263.94031305255
 20
-6342.473208327069
  0
VERTEX
  8
0
 10
40266.6216903098
 20
-6342.736892870714
  0
VERTEX
  8
0
 10
40269.30298763435
 20
-6343.001379875616
  0
VERTEX
  8
0
 10
40271.98420475762
 20
-6343.266669299605
  0
VERTEX
  8
0
 10
40274.66534141108
 20
-6343.53276110051
  0
VERTEX
  8
0
 10
40277.34639732616
 20
-6343.799655236156
  0
VERTEX
  8
0
 10
40280.02737223432
 20
-6344.067351664373
  0
VERTEX
  8
0
 10
40282.70826586702
 20
-6344.33585034299
  0
VERTEX
  8
0
 10
40285.38907795568
 20
-6344.605151229833
  0
VERTEX
  8
0
 10
40288.06980823178
 20
-6344.875254282731
  0
VERTEX
  8
0
 10
40290.75045642675
 20
-6345.146159459514
  0
VERTEX
  8
0
 10
40293.43102227205
 20
-6345.417866718008
  0
VERTEX
  8
0
 10
40296.11150549911
 20
-6345.69037601604
  0
VERTEX
  8
0
 10
40298.7919058394
 20
-6345.963687311441
  0
VERTEX
  8
0
 10
40301.47222302436
 20
-6346.237800562038
  0
VERTEX
  8
0
 10
40304.15245678544
 20
-6346.512715725659
  0
VERTEX
  8
0
 10
40306.83260685408
 20
-6346.788432760132
  0
VERTEX
  8
0
 10
40309.51267296174
 20
-6347.064951623286
  0
VERTEX
  8
0
 10
40312.19265483986
 20
-6347.342272272947
  0
VERTEX
  8
0
 10
40314.8725522199
 20
-6347.620394666947
  0
VERTEX
  8
0
 10
40317.5523648333
 20
-6347.899318763109
  0
VERTEX
  8
0
 10
40320.23209241151
 20
-6348.179044519266
  0
VERTEX
  8
0
 10
40322.91173468599
 20
-6348.459571893243
  0
VERTEX
  8
0
 10
40325.59129138816
 20
-6348.740900842869
  0
VERTEX
  8
0
 10
40328.2707622495
 20
-6349.023031325974
  0
VERTEX
  8
0
 10
40330.95014700145
 20
-6349.305963300382
  0
VERTEX
  8
0
 10
40333.62944537545
 20
-6349.589696723925
  0
VERTEX
  8
0
 10
40336.30865710295
 20
-6349.87423155443
  0
VERTEX
  8
0
 10
40338.98778191541
 20
-6350.159567749723
  0
VERTEX
  8
0
 10
40341.66681954426
 20
-6350.445705267635
  0
VERTEX
  8
0
 10
40344.34576972097
 20
-6350.732644065994
  0
VERTEX
  8
0
 10
40347.02463217698
 20
-6351.020384102626
  0
VERTEX
  8
0
 10
40349.70340664373
 20
-6351.308925335361
  0
VERTEX
  8
0
 10
40352.38209285268
 20
-6351.598267722026
  0
VERTEX
  8
0
 10
40355.06069053528
 20
-6351.888411220451
  0
VERTEX
  8
0
 10
40357.73919942297
 20
-6352.179355788461
  0
VERTEX
  8
0
 10
40360.4176192472
 20
-6352.471101383887
  0
VERTEX
  8
0
 10
40363.09594973942
 20
-6352.763647964555
  0
VERTEX
  8
0
 10
40365.77419063108
 20
-6353.056995488296
  0
VERTEX
  8
0
 10
40368.45234165364
 20
-6353.351143912935
  0
VERTEX
  8
0
 10
40371.13040253853
 20
-6353.646093196302
  0
VERTEX
  8
0
 10
40373.80837301721
 20
-6353.941843296225
  0
VERTEX
  8
0
 10
40376.48625282112
 20
-6354.23839417053
  0
VERTEX
  8
0
 10
40379.16404168172
 20
-6354.535745777048
  0
VERTEX
  8
0
 10
40381.84173933046
 20
-6354.833898073606
  0
VERTEX
  8
0
 10
40384.51934549876
 20
-6355.132851018033
  0
VERTEX
  8
0
 10
40387.19685991811
 20
-6355.432604568155
  0
VERTEX
  8
0
 10
40389.87428231993
 20
-6355.733158681802
  0
VERTEX
  8
0
 10
40392.55161243567
 20
-6356.034513316801
  0
VERTEX
  8
0
 10
40395.2288499968
 20
-6356.336668430981
  0
VERTEX
  8
0
 10
40397.90599473476
 20
-6356.639623982171
  0
VERTEX
  8
0
 10
40400.58304638098
 20
-6356.943379928196
  0
VERTEX
  8
0
 10
40403.26000466693
 20
-6357.247936226888
  0
VERTEX
  8
0
 10
40405.93686932405
 20
-6357.553292836072
  0
VERTEX
  8
0
 10
40408.61364008379
 20
-6357.859449713577
  0
VERTEX
  8
0
 10
40411.2903166776
 20
-6358.166406817232
  0
VERTEX
  8
0
 10
40413.96689883694
 20
-6358.474164104865
  0
VERTEX
  8
0
 10
40416.64338629323
 20
-6358.782721534304
  0
VERTEX
  8
0
 10
40419.31977877794
 20
-6359.092079063376
  0
VERTEX
  8
0
 10
40421.99607602252
 20
-6359.402236649911
  0
VERTEX
  8
0
 10
40424.67227775841
 20
-6359.713194251735
  0
VERTEX
  8
0
 10
40427.34838371706
 20
-6360.024951826678
  0
VERTEX
  8
0
 10
40430.02439362993
 20
-6360.337509332568
  0
VERTEX
  8
0
 10
40432.70030722845
 20
-6360.650866727233
  0
VERTEX
  8
0
 10
40435.37612424408
 20
-6360.965023968499
  0
SEQEND
  8
0
  0
LINE
  8
0
  6
CONTINUOUS
 62
     4
 10
40435.37634612918
 20
-6360.965050052807
 11
40435.37668968954
 21
-6360.965090440971
  0
LINE
  8
0
  6
CONTINUOUS
 62
     4
 10
39869.78197587709
 20
-6330.335050104687
 11
39869.782131608
 21
-6330.335581806524
  0
LINE
  8
0
 10
38759.12511001123
 20
-6408.550642963054
 11
39262.22932945448
 21
-6408.550642962938
  0
POLYLINE
  8
0
 66
     1
 70
   128
  0
VERTEX
  8
0
 10
38756.29217464513
 20
-6104.483486533055
  0
VERTEX
  8
0
 10
38758.4748155558
 20
-6097.219835068338
  0
VERTEX
  8
0
 10
38762.06971368531
 20
-6085.354368565778
  0
SEQEND
  8
0
  0
DIMENSION
  8
1DIM
  2
*D458
 10
40676.79448847914
 20
-6664.82651730407
 11
40627.79448847914
 21
-6264.539152179834
 70
    32
  1
800
 13
40526.79448847914
 23
-5864.251787055598
 33
0.0
 14
40526.79448847914
 24
-6664.82651730407
 34
0.0
 50
90.0
  0
POLYLINE
  8
0
 66
     1
  0
VERTEX
  8
0
 10
39010.67951391805
 20
-6330.304191772431
 42
-0.054491923906
  0
VERTEX
  8
0
 10
38789.43617626193
 20
-6306.549688037788
 42
-0.105266086189
  0
VERTEX
  8
0
 10
38759.08027373471
 20
-6321.994487536889
 42
0.136798785366
  0
VERTEX
  8
0
 10
38755.59665921396
 20
-6332.396993862842
  0
VERTEX
  8
0
 10
38755.59665921396
 20
-6332.409156502784
  0
VERTEX
  8
0
 10
38755.66634268766
 20
-6384.224155940042
 42
0.122879381549
  0
VERTEX
  8
0
 10
38759.1584017055
 20
-6394.672194525642
  0
VERTEX
  8
0
 10
39010.67721973285
 20
-6394.672194525573
  0
VERTEX
  8
0
 10
39262.19603776021
 20
-6394.672194525642
 42
0.122879381549
  0
VERTEX
  8
0
 10
39265.68809677805
 20
-6384.224155940042
  0
VERTEX
  8
0
 10
39265.75778025175
 20
-6332.409156502784
  0
VERTEX
  8
0
 10
39265.75778025175
 20
-6332.396993862842
 42
0.136798785366
  0
VERTEX
  8
0
 10
39262.274165731
 20
-6321.994487536889
 42
-0.105266086189
  0
VERTEX
  8
0
 10
39231.91826320378
 20
-6306.549688037788
 42
-0.054491923906
  0
VERTEX
  8
0
 10
39010.67492554765
 20
-6330.304191772431
  0
SEQEND
  8
0
  0
POLYLINE
  8
0
 66
     1
  0
VERTEX
  8
0
 10
38768.91106316623
 20
-4901.43915607641
  0
VERTEX
  8
0
 10
38771.29476987186
 20
-4896.351479330506
  0
VERTEX
  8
0
 10
38773.79828505157
 20
-4891.388855464142
  0
VERTEX
  8
0
 10
38776.52103809065
 20
-4886.655066209269
  0
VERTEX
  8
0
 10
38779.56245837441
 20
-4882.253893297835
  0
VERTEX
  8
0
 10
38783.02094497492
 20
-4878.288091012374
  0
VERTEX
  8
0
 10
38786.93579518238
 20
-4874.801476129743
  0
VERTEX
  8
0
 10
38791.25622756345
 20
-4871.748037081325
  0
VERTEX
  8
0
 10
38795.92388797194
 20
-4869.074210634408
  0
VERTEX
  8
0
 10
38800.88042226171
 20
-4866.726433556276
  0
VERTEX
  8
0
 10
38806.06747628658
 20
-4864.651142614217
  0
VERTEX
  8
0
 10
38811.4266959004
 20
-4862.794774575516
  0
VERTEX
  8
0
 10
38816.89972695701
 20
-4861.10376620746
  0
VERTEX
  8
0
 10
38822.42821531023
 20
-4859.524554277335
  0
VERTEX
  8
0
 10
38827.95393960713
 20
-4858.003695749355
  0
VERTEX
  8
0
 10
38833.43770236109
 20
-4856.504966919261
  0
VERTEX
  8
0
 10
38838.8789605869
 20
-4855.027131958597
  0
VERTEX
  8
0
 10
38844.28186039227
 20
-4853.573199341589
  0
VERTEX
  8
0
 10
38849.65054788499
 20
-4852.146177542466
  0
VERTEX
  8
0
 10
38854.98916917281
 20
-4850.749075035454
  0
VERTEX
  8
0
 10
38860.3018703635
 20
-4849.384900294781
  0
VERTEX
  8
0
 10
38865.59279756479
 20
-4848.056661794672
  0
VERTEX
  8
0
 10
38870.86609688448
 20
-4846.767368009359
  0
VERTEX
  8
0
 10
38876.12591443029
 20
-4845.520027413064
  0
VERTEX
  8
0
 10
38881.37639630999
 20
-4844.317648480018
  0
VERTEX
  8
0
 10
38886.62168863135
 20
-4843.163239684447
  0
VERTEX
  8
0
 10
38891.86593750212
 20
-4842.059809500578
  0
VERTEX
  8
0
 10
38897.11328903006
 20
-4841.010366402638
  0
VERTEX
  8
0
 10
38902.36788932292
 20
-4840.017918864856
  0
VERTEX
  8
0
 10
38907.63388448847
 20
-4839.085475361457
  0
VERTEX
  8
0
 10
38912.91542063446
 20
-4838.216044366671
  0
VERTEX
  8
0
 10
38918.21662538746
 20
-4837.412610807019
  0
VERTEX
  8
0
 10
38923.53982365444
 20
-4836.675862683816
  0
VERTEX
  8
0
 10
38928.88405105305
 20
-4836.002296968605
  0
VERTEX
  8
0
 10
38934.24799326255
 20
-4835.387964760885
  0
VERTEX
  8
0
 10
38939.63033596223
 20
-4834.828917160155
  0
VERTEX
  8
0
 10
38945.02976483134
 20
-4834.32120526592
  0
VERTEX
  8
0
 10
38950.44496554917
 20
-4833.860880177675
  0
VERTEX
  8
0
 10
38955.87462379498
 20
-4833.443992994926
  0
VERTEX
  8
0
 10
38961.31742524807
 20
-4833.066594817169
  0
VERTEX
  8
0
 10
38966.77205558769
 20
-4832.724736743909
  0
VERTEX
  8
0
 10
38972.23720049312
 20
-4832.414469874641
  0
VERTEX
  8
0
 10
38977.71154564364
 20
-4832.131845308872
  0
VERTEX
  8
0
 10
38983.19377671852
 20
-4831.872914146098
  0
VERTEX
  8
0
 10
38988.68257939703
 20
-4831.633727485821
  0
VERTEX
  8
0
 10
38994.17663935844
 20
-4831.410336427542
  0
VERTEX
  8
0
 10
38999.67464228204
 20
-4831.198792070761
  0
VERTEX
  8
0
 10
39005.17527384709
 20
-4830.995145514979
  0
VERTEX
  8
0
 10
39010.67721973286
 20
-4830.795447859696
  0
VERTEX
  8
0
 10
39016.17916561863
 20
-4830.995145514979
  0
VERTEX
  8
0
 10
39021.67979718368
 20
-4831.198792070761
  0
VERTEX
  8
0
 10
39027.17780010727
 20
-4831.410336427542
  0
VERTEX
  8
0
 10
39032.67186006868
 20
-4831.633727485821
  0
VERTEX
  8
0
 10
39038.16066274718
 20
-4831.872914146098
  0
VERTEX
  8
0
 10
39043.64289382206
 20
-4832.131845308872
  0
VERTEX
  8
0
 10
39049.11723897258
 20
-4832.414469874641
  0
VERTEX
  8
0
 10
39054.58238387802
 20
-4832.724736743909
  0
VERTEX
  8
0
 10
39060.03701421764
 20
-4833.066594817169
  0
VERTEX
  8
0
 10
39065.47981567073
 20
-4833.443992994926
  0
VERTEX
  8
0
 10
39070.90947391654
 20
-4833.860880177675
  0
VERTEX
  8
0
 10
39076.32467463437
 20
-4834.32120526592
  0
VERTEX
  8
0
 10
39081.72410350348
 20
-4834.828917160155
  0
VERTEX
  8
0
 10
39087.10644620316
 20
-4835.387964760885
  0
VERTEX
  8
0
 10
39092.47038841266
 20
-4836.002296968605
  0
VERTEX
  8
0
 10
39097.81461581126
 20
-4836.675862683816
  0
VERTEX
  8
0
 10
39103.13781407825
 20
-4837.412610807019
  0
VERTEX
  8
0
 10
39108.43901883125
 20
-4838.216044366671
  0
VERTEX
  8
0
 10
39113.72055497724
 20
-4839.085475361457
  0
VERTEX
  8
0
 10
39118.98655014278
 20
-4840.017918864856
  0
VERTEX
  8
0
 10
39124.24115043565
 20
-4841.010366402638
  0
VERTEX
  8
0
 10
39129.48850196358
 20
-4842.059809500578
  0
VERTEX
  8
0
 10
39134.73275083435
 20
-4843.163239684447
  0
VERTEX
  8
0
 10
39139.97804315572
 20
-4844.317648480018
  0
VERTEX
  8
0
 10
39145.22852503542
 20
-4845.520027413064
  0
VERTEX
  8
0
 10
39150.48834258123
 20
-4846.767368009359
  0
VERTEX
  8
0
 10
39155.76164190091
 20
-4848.056661794672
  0
VERTEX
  8
0
 10
39161.0525691022
 20
-4849.384900294781
  0
VERTEX
  8
0
 10
39166.3652702929
 20
-4850.749075035454
  0
VERTEX
  8
0
 10
39171.70389158071
 20
-4852.146177542466
  0
VERTEX
  8
0
 10
39177.07257907344
 20
-4853.573199341589
  0
VERTEX
  8
0
 10
39182.47547887881
 20
-4855.027131958597
  0
VERTEX
  8
0
 10
39187.91673710461
 20
-4856.504966919261
  0
VERTEX
  8
0
 10
39193.40049985858
 20
-4858.003695749355
  0
VERTEX
  8
0
 10
39198.92622415548
 20
-4859.524554277335
  0
VERTEX
  8
0
 10
39204.4547125087
 20
-4861.10376620746
  0
VERTEX
  8
0
 10
39209.92774356531
 20
-4862.794774575515
  0
VERTEX
  8
0
 10
39215.28696317913
 20
-4864.651142614217
  0
VERTEX
  8
0
 10
39220.474017204
 20
-4866.726433556276
  0
VERTEX
  8
0
 10
39225.43055149377
 20
-4869.074210634408
  0
VERTEX
  8
0
 10
39230.09821190226
 20
-4871.748037081325
  0
VERTEX
  8
0
 10
39234.41864428332
 20
-4874.801476129743
  0
VERTEX
  8
0
 10
39238.33349449078
 20
-4878.288091012373
  0
VERTEX
  8
0
 10
39241.79198109129
 20
-4882.253893297835
  0
VERTEX
  8
0
 10
39244.83340137506
 20
-4886.655066209269
  0
VERTEX
  8
0
 10
39247.55615441414
 20
-4891.388855464142
  0
VERTEX
  8
0
 10
39250.05966959385
 20
-4896.351479330506
  0
VERTEX
  8
0
 10
39252.44337629947
 20
-4901.43915607641
  0
SEQEND
  8
0
  0
POLYLINE
  8
0
 66
     1
  0
VERTEX
  8
0
 10
38761.31202742021
 20
-4937.032110550153
  0
VERTEX
  8
0
 10
38761.90510098183
 20
-4917.284050644757
  0
VERTEX
  8
0
 10
38762.81179048378
 20
-4913.935093844761
  0
VERTEX
  8
0
 10
38763.86795373307
 20
-4910.670292692967
  0
VERTEX
  8
0
 10
38765.14974107523
 20
-4907.532520816368
  0
VERTEX
  8
0
 10
38766.73225689931
 20
-4904.564165676491
  0
VERTEX
  8
0
 10
38768.64225632299
 20
-4901.785141767453
  0
VERTEX
  8
0
 10
38770.8388379381
 20
-4899.183916513794
  0
VERTEX
  8
0
 10
38773.2760557567
 20
-4896.746612595803
  0
VERTEX
  8
0
 10
38775.90796379091
 20
-4894.459352693772
  0
VERTEX
  8
0
 10
38778.68861605281
 20
-4892.308259487992
  0
VERTEX
  8
0
 10
38781.57206655449
 20
-4890.279455658753
  0
VERTEX
  8
0
 10
38784.51375704403
 20
-4888.359333111815
  0
VERTEX
  8
0
 10
38787.49218013822
 20
-4886.53875569923
  0
VERTEX
  8
0
 10
38790.5048202328
 20
-4884.812271742254
  0
VERTEX
  8
0
 10
38793.54972808166
 20
-4883.17453943753
  0
VERTEX
  8
0
 10
38796.62495443868
 20
-4881.620216981703
  0
VERTEX
  8
0
 10
38799.72855005776
 20
-4880.14396257142
  0
VERTEX
  8
0
 10
38802.85856569279
 20
-4878.740434403323
  0
VERTEX
  8
0
 10
38806.01305209765
 20
-4877.404290674059
  0
VERTEX
  8
0
 10
38809.19006002625
 20
-4876.13018958027
  0
VERTEX
  8
0
 10
38812.38764023245
 20
-4874.912789318603
  0
VERTEX
  8
0
 10
38815.60384347016
 20
-4873.746748085703
  0
VERTEX
  8
0
 10
38818.83672049327
 20
-4872.626724078214
  0
VERTEX
  8
0
 10
38822.08432205566
 20
-4871.547375492779
  0
VERTEX
  8
0
 10
38825.34469891122
 20
-4870.503360526046
  0
VERTEX
  8
0
 10
38828.61590181384
 20
-4869.489337374657
  0
VERTEX
  8
0
 10
38831.89598151743
 20
-4868.499964235259
  0
VERTEX
  8
0
 10
38835.18298877585
 20
-4867.529899304496
  0
VERTEX
  8
0
 10
38838.47497437845
 20
-4866.573800888924
  0
VERTEX
  8
0
 10
38841.77037101027
 20
-4865.627511462404
  0
VERTEX
  8
0
 10
38845.06893683689
 20
-4864.690983497167
  0
VERTEX
  8
0
 10
38848.37071740136
 20
-4863.765060554277
  0
VERTEX
  8
0
 10
38851.67575824673
 20
-4862.850586194803
  0
VERTEX
  8
0
 10
38854.98410491605
 20
-4861.948403979814
  0
VERTEX
  8
0
 10
38858.29580295238
 20
-4861.059357470376
  0
VERTEX
  8
0
 10
38861.61089789875
 20
-4860.184290227558
  0
VERTEX
  8
0
 10
38864.92943529821
 20
-4859.324045812426
  0
VERTEX
  8
0
 10
38868.25146069382
 20
-4858.479467786048
  0
VERTEX
  8
0
 10
38871.57701962862
 20
-4857.651399709492
  0
VERTEX
  8
0
 10
38874.90615764568
 20
-4856.840685143826
  0
VERTEX
  8
0
 10
38878.23892028801
 20
-4856.048167650116
  0
VERTEX
  8
0
 10
38881.5753530987
 20
-4855.274690789431
  0
VERTEX
  8
0
 10
38884.91550162078
 20
-4854.521098122838
  0
VERTEX
  8
0
 10
38888.2594113973
 20
-4853.788233211406
  0
VERTEX
  8
0
 10
38891.6071279713
 20
-4853.076939616201
  0
VERTEX
  8
0
 10
38894.95869688584
 20
-4852.38806089829
  0
VERTEX
  8
0
 10
38898.31416368397
 20
-4851.722440618742
  0
VERTEX
  8
0
 10
38901.67357390875
 20
-4851.080922338625
  0
VERTEX
  8
0
 10
38905.0369731032
 20
-4850.464349619006
  0
VERTEX
  8
0
 10
38908.40439907039
 20
-4849.873492207896
  0
VERTEX
  8
0
 10
38911.77579006697
 20
-4849.308170521223
  0
VERTEX
  8
0
 10
38915.15101526953
 20
-4848.767546187648
  0
VERTEX
  8
0
 10
38918.52994246408
 20
-4848.250767574306
  0
VERTEX
  8
0
 10
38921.91243943662
 20
-4847.756983048333
  0
VERTEX
  8
0
 10
38925.29837397314
 20
-4847.285340976862
  0
VERTEX
  8
0
 10
38928.68761385964
 20
-4846.834989727027
  0
VERTEX
  8
0
 10
38932.08002688213
 20
-4846.405077665964
  0
VERTEX
  8
0
 10
38935.4754808266
 20
-4845.994753160808
  0
VERTEX
  8
0
 10
38938.87384347906
 20
-4845.60316457869
  0
VERTEX
  8
0
 10
38942.27498262552
 20
-4845.229460286748
  0
VERTEX
  8
0
 10
38945.67876605195
 20
-4844.872788652116
  0
VERTEX
  8
0
 10
38949.08506154439
 20
-4844.532298041926
  0
VERTEX
  8
0
 10
38952.4937368888
 20
-4844.207136823316
  0
VERTEX
  8
0
 10
38955.90465987121
 20
-4843.896453363418
  0
VERTEX
  8
0
 10
38959.31769827761
 20
-4843.599396029367
  0
VERTEX
  8
0
 10
38962.732719894
 20
-4843.315113188301
  0
VERTEX
  8
0
 10
38966.14959250637
 20
-4843.042753207349
  0
VERTEX
  8
0
 10
38969.56818390075
 20
-4842.781464453648
  0
VERTEX
  8
0
 10
38972.98836186311
 20
-4842.530395294334
  0
VERTEX
  8
0
 10
38976.40999417948
 20
-4842.28869409654
  0
VERTEX
  8
0
 10
38979.83294863583
 20
-4842.055509227401
  0
VERTEX
  8
0
 10
38983.25709301818
 20
-4841.82998905405
  0
VERTEX
  8
0
 10
38986.68229511253
 20
-4841.611281943623
  0
VERTEX
  8
0
 10
38990.10842270486
 20
-4841.398536263255
  0
VERTEX
  8
0
 10
38993.53534358121
 20
-4841.190900380079
  0
VERTEX
  8
0
 10
38996.96292552754
 20
-4840.987522661231
  0
VERTEX
  8
0
 10
39000.39103632987
 20
-4840.787551473844
  0
VERTEX
  8
0
 10
39003.8195437742
 20
-4840.590135185055
  0
VERTEX
  8
0
 10
39007.24831564652
 20
-4840.394422161997
  0
VERTEX
  8
0
 10
39010.67721973286
 20
-4840.199560771803
  0
VERTEX
  8
0
 10
39014.1061238192
 20
-4840.394422161997
  0
VERTEX
  8
0
 10
39017.53489569152
 20
-4840.590135185055
  0
VERTEX
  8
0
 10
39020.96340313585
 20
-4840.787551473844
  0
VERTEX
  8
0
 10
39024.39151393817
 20
-4840.987522661231
  0
VERTEX
  8
0
 10
39027.81909588452
 20
-4841.190900380079
  0
VERTEX
  8
0
 10
39031.24601676084
 20
-4841.398536263255
  0
VERTEX
  8
0
 10
39034.67214435319
 20
-4841.611281943623
  0
VERTEX
  8
0
 10
39038.09734644753
 20
-4841.82998905405
  0
VERTEX
  8
0
 10
39041.52149082988
 20
-4842.0555092274
  0
VERTEX
  8
0
 10
39044.94444528623
 20
-4842.28869409654
  0
VERTEX
  8
0
 10
39048.36607760259
 20
-4842.530395294334
  0
VERTEX
  8
0
 10
39051.78625556496
 20
-4842.781464453648
  0
VERTEX
  8
0
 10
39055.20484695934
 20
-4843.042753207349
  0
VERTEX
  8
0
 10
39058.62171957172
 20
-4843.315113188301
  0
VERTEX
  8
0
 10
39062.0367411881
 20
-4843.599396029367
  0
VERTEX
  8
0
 10
39065.4497795945
 20
-4843.896453363418
  0
VERTEX
  8
0
 10
39068.86070257691
 20
-4844.207136823316
  0
VERTEX
  8
0
 10
39072.26937792132
 20
-4844.532298041926
  0
VERTEX
  8
0
 10
39075.67567341375
 20
-4844.872788652115
  0
VERTEX
  8
0
 10
39079.07945684019
 20
-4845.229460286748
  0
VERTEX
  8
0
 10
39082.48059598664
 20
-4845.60316457869
  0
VERTEX
  8
0
 10
39085.87895863911
 20
-4845.994753160808
  0
VERTEX
  8
0
 10
39089.27441258358
 20
-4846.405077665964
  0
VERTEX
  8
0
 10
39092.66682560607
 20
-4846.834989727027
  0
VERTEX
  8
0
 10
39096.05606549257
 20
-4847.285340976862
  0
VERTEX
  8
0
 10
39099.44200002909
 20
-4847.756983048333
  0
VERTEX
  8
0
 10
39102.82449700162
 20
-4848.250767574306
  0
VERTEX
  8
0
 10
39106.20342419617
 20
-4848.767546187648
  0
VERTEX
  8
0
 10
39109.57864939873
 20
-4849.308170521223
  0
VERTEX
  8
0
 10
39112.95004039531
 20
-4849.873492207896
  0
VERTEX
  8
0
 10
39116.31746636251
 20
-4850.464349619006
  0
VERTEX
  8
0
 10
39119.68086555696
 20
-4851.080922338625
  0
VERTEX
  8
0
 10
39123.04027578174
 20
-4851.722440618742
  0
VERTEX
  8
0
 10
39126.39574257987
 20
-4852.38806089829
  0
VERTEX
  8
0
 10
39129.74731149441
 20
-4853.076939616201
  0
VERTEX
  8
0
 10
39133.09502806841
 20
-4853.788233211406
  0
VERTEX
  8
0
 10
39136.43893784493
 20
-4854.521098122838
  0
VERTEX
  8
0
 10
39139.779086367
 20
-4855.274690789431
  0
VERTEX
  8
0
 10
39143.11551917769
 20
-4856.048167650116
  0
VERTEX
  8
0
 10
39146.44828182003
 20
-4856.840685143825
  0
VERTEX
  8
0
 10
39149.77741983708
 20
-4857.651399709492
  0
VERTEX
  8
0
 10
39153.10297877189
 20
-4858.479467786047
  0
VERTEX
  8
0
 10
39156.4250041675
 20
-4859.324045812426
  0
VERTEX
  8
0
 10
39159.74354156696
 20
-4860.184290227557
  0
VERTEX
  8
0
 10
39163.05863651333
 20
-4861.059357470376
  0
VERTEX
  8
0
 10
39166.37033454965
 20
-4861.948403979814
  0
VERTEX
  8
0
 10
39169.67868121897
 20
-4862.850586194803
  0
VERTEX
  8
0
 10
39172.98372206435
 20
-4863.765060554277
  0
VERTEX
  8
0
 10
39176.28550262882
 20
-4864.690983497167
  0
VERTEX
  8
0
 10
39179.58406845544
 20
-4865.627511462404
  0
VERTEX
  8
0
 10
39182.87946508726
 20
-4866.573800888924
  0
VERTEX
  8
0
 10
39186.17145068986
 20
-4867.529899304495
  0
VERTEX
  8
0
 10
39189.45845794828
 20
-4868.499964235259
  0
VERTEX
  8
0
 10
39192.73853765187
 20
-4869.489337374657
  0
VERTEX
  8
0
 10
39196.00974055449
 20
-4870.503360526046
  0
VERTEX
  8
0
 10
39199.27011741004
 20
-4871.547375492779
  0
VERTEX
  8
0
 10
39202.51771897243
 20
-4872.626724078213
  0
VERTEX
  8
0
 10
39205.75059599555
 20
-4873.746748085703
  0
VERTEX
  8
0
 10
39208.96679923325
 20
-4874.912789318603
  0
VERTEX
  8
0
 10
39212.16437943946
 20
-4876.13018958027
  0
VERTEX
  8
0
 10
39215.34138736805
 20
-4877.404290674059
  0
VERTEX
  8
0
 10
39218.49587377292
 20
-4878.740434403323
  0
VERTEX
  8
0
 10
39221.62588940794
 20
-4880.143962571419
  0
VERTEX
  8
0
 10
39224.72948502703
 20
-4881.620216981703
  0
VERTEX
  8
0
 10
39227.80471138404
 20
-4883.174539437529
  0
VERTEX
  8
0
 10
39230.84961923291
 20
-4884.812271742253
  0
VERTEX
  8
0
 10
39233.86225932748
 20
-4886.53875569923
  0
VERTEX
  8
0
 10
39236.84068242167
 20
-4888.359333111815
  0
VERTEX
  8
0
 10
39239.78237291122
 20
-4890.279455658753
  0
VERTEX
  8
0
 10
39242.6658234129
 20
-4892.308259487992
  0
VERTEX
  8
0
 10
39245.4464756748
 20
-4894.459352693772
  0
VERTEX
  8
0
 10
39248.07838370901
 20
-4896.746612595803
  0
VERTEX
  8
0
 10
39250.51560152761
 20
-4899.183916513793
  0
VERTEX
  8
0
 10
39252.71218314271
 20
-4901.785141767452
  0
VERTEX
  8
0
 10
39254.6221825664
 20
-4904.564165676489
  0
VERTEX
  8
0
 10
39256.20469839048
 20
-4907.532520816368
  0
VERTEX
  8
0
 10
39257.48648573264
 20
-4910.670292692966
  0
VERTEX
  8
0
 10
39258.54264898192
 20
-4913.935093844761
  0
VERTEX
  8
0
 10
39259.44933848388
 20
-4917.284050644756
  0
VERTEX
  8
0
 10
39260.0424120455
 20
-4937.032110550136
  0
SEQEND
  8
0
  0
POLYLINE
  8
0
 66
     1
  0
VERTEX
  8
0
 10
38761.31202742021
 20
-5438.441481170071
  0
VERTEX
  8
0
 10
38761.42984002602
 20
-5459.295158156296
  0
VERTEX
  8
0
 10
38761.67770611029
 20
-5462.863189882773
  0
VERTEX
  8
0
 10
38761.99008704675
 20
-5466.422135604341
  0
VERTEX
  8
0
 10
38762.4044972405
 20
-5469.966711947365
  0
VERTEX
  8
0
 10
38762.95845109665
 20
-5473.491635538213
  0
VERTEX
  8
0
 10
38763.68946302032
 20
-5476.991623003252
  0
VERTEX
  8
0
 10
38764.6350474166
 20
-5480.46139096885
  0
VERTEX
  8
0
 10
38765.83170926532
 20
-5483.895201385933
  0
VERTEX
  8
0
 10
38767.29146981746
 20
-5487.276287999041
  0
VERTEX
  8
0
 10
38769.00114133954
 20
-5490.576529669472
  0
VERTEX
  8
0
 10
38770.94638158299
 20
-5493.767285230255
  0
VERTEX
  8
0
 10
38773.11284829923
 20
-5496.81991351442
  0
VERTEX
  8
0
 10
38775.48619923967
 20
-5499.705773354998
  0
VERTEX
  8
0
 10
38778.05209215573
 20
-5502.396223585017
  0
VERTEX
  8
0
 10
38780.79618479883
 20
-5504.862623037507
  0
VERTEX
  8
0
 10
38783.70413492039
 20
-5507.076330545498
  0
VERTEX
  8
0
 10
38786.76160027182
 20
-5509.008704942021
  0
VERTEX
  8
0
 10
38789.95423860455
 20
-5510.631105060103
  0
VERTEX
  8
0
 10
38793.26766645547
 20
-5511.915358536416
  0
VERTEX
  8
0
 10
38796.68499015534
 20
-5512.861845897001
  0
VERTEX
  8
0
 10
38800.18540359486
 20
-5513.515450574869
  0
VERTEX
  8
0
 10
38803.74776157102
 20
-5513.92491309845
  0
VERTEX
  8
0
 10
38807.3509188808
 20
-5514.138973996171
  0
VERTEX
  8
0
 10
38810.97373032121
 20
-5514.206373796465
  0
VERTEX
  8
0
 10
38814.59507609871
 20
-5514.175807813606
  0
VERTEX
  8
0
 10
38818.20023237746
 20
-5514.084590270693
  0
VERTEX
  8
0
 10
38821.78927619127
 20
-5513.943698436075
  0
VERTEX
  8
0
 10
38825.36437213709
 20
-5513.760394927734
  0
VERTEX
  8
0
 10
38828.92768481187
 20
-5513.541942363655
  0
VERTEX
  8
0
 10
38832.48137881255
 20
-5513.295603361821
  0
VERTEX
  8
0
 10
38836.0276187361
 20
-5513.028640540219
  0
VERTEX
  8
0
 10
38839.56856917946
 20
-5512.748316516832
  0
VERTEX
  8
0
 10
38843.10639473958
 20
-5512.461893909644
  0
VERTEX
  8
0
 10
38846.64326001341
 20
-5512.176635336639
  0
VERTEX
  8
0
 10
38850.18120890583
 20
-5511.899393219074
  0
VERTEX
  8
0
 10
38853.72099413903
 20
-5511.632631629678
  0
VERTEX
  8
0
 10
38857.26258562742
 20
-5511.376154108611
  0
VERTEX
  8
0
 10
38860.80594231972
 20
-5511.129726927048
  0
VERTEX
  8
0
 10
38864.35102316471
 20
-5510.893116356163
  0
VERTEX
  8
0
 10
38867.89778711111
 20
-5510.66608866713
  0
VERTEX
  8
0
 10
38871.44619310767
 20
-5510.448410131125
  0
VERTEX
  8
0
 10
38874.99620010315
 20
-5510.239847019319
  0
VERTEX
  8
0
 10
38878.54776704627
 20
-5510.040165602888
  0
VERTEX
  8
0
 10
38882.10085288581
 20
-5509.849132153008
  0
VERTEX
  8
0
 10
38885.65541657049
 20
-5509.666512940852
  0
VERTEX
  8
0
 10
38889.21141704906
 20
-5509.492074237594
  0
VERTEX
  8
0
 10
38892.76881327027
 20
-5509.325582314409
  0
VERTEX
  8
0
 10
38896.32756418287
 20
-5509.16680344247
  0
VERTEX
  8
0
 10
38899.8876287356
 20
-5509.015503892953
  0
VERTEX
  8
0
 10
38903.4489658772
 20
-5508.871449937032
  0
VERTEX
  8
0
 10
38907.01153455643
 20
-5508.73440784588
  0
VERTEX
  8
0
 10
38910.57529372202
 20
-5508.604143890673
  0
VERTEX
  8
0
 10
38914.14020232273
 20
-5508.480424342584
  0
VERTEX
  8
0
 10
38917.70621930731
 20
-5508.363015472789
  0
VERTEX
  8
0
 10
38921.27330362449
 20
-5508.251683552461
  0
VERTEX
  8
0
 10
38924.84141422302
 20
-5508.146194852774
  0
VERTEX
  8
0
 10
38928.41051005165
 20
-5508.046315644903
  0
VERTEX
  8
0
 10
38931.98055005912
 20
-5507.951812200024
  0
VERTEX
  8
0
 10
38935.55149319419
 20
-5507.862450789306
  0
VERTEX
  8
0
 10
38939.12329840559
 20
-5507.77799768393
  0
VERTEX
  8
0
 10
38942.69592464207
 20
-5507.698219155066
  0
VERTEX
  8
0
 10
38946.26933085238
 20
-5507.622881473891
  0
VERTEX
  8
0
 10
38949.84347598527
 20
-5507.551750911577
  0
VERTEX
  8
0
 10
38953.41831898947
 20
-5507.484593739299
  0
VERTEX
  8
0
 10
38956.99381881374
 20
-5507.421176228232
  0
VERTEX
  8
0
 10
38960.56993440682
 20
-5507.36126464955
  0
VERTEX
  8
0
 10
38964.14662471745
 20
-5507.304625274428
  0
VERTEX
  8
0
 10
38967.7238486944
 20
-5507.251024374039
  0
VERTEX
  8
0
 10
38971.30156528638
 20
-5507.200228219558
  0
VERTEX
  8
0
 10
38974.87973344218
 20
-5507.15200308216
  0
VERTEX
  8
0
 10
38978.4583121105
 20
-5507.106115233018
  0
VERTEX
  8
0
 10
38982.03726024011
 20
-5507.062330943306
  0
VERTEX
  8
0
 10
38985.61653677976
 20
-5507.020416484201
  0
VERTEX
  8
0
 10
38989.19610067818
 20
-5506.980138126874
  0
VERTEX
  8
0
 10
38992.77591088413
 20
-5506.941262142503
  0
VERTEX
  8
0
 10
38996.35592634635
 20
-5506.903554802259
  0
VERTEX
  8
0
 10
38999.93610601359
 20
-5506.866782377318
  0
VERTEX
  8
0
 10
39003.51640883458
 20
-5506.830711138853
  0
VERTEX
  8
0
 10
39007.0967937581
 20
-5506.795107358041
  0
VERTEX
  8
0
 10
39010.67721973285
 20
-5506.759737306054
  0
VERTEX
  8
0
 10
39014.25764570761
 20
-5506.795107358041
  0
VERTEX
  8
0
 10
39017.83803063112
 20
-5506.830711138853
  0
VERTEX
  8
0
 10
39021.41833345211
 20
-5506.866782377319
  0
VERTEX
  8
0
 10
39024.99851311936
 20
-5506.903554802259
  0
VERTEX
  8
0
 10
39028.57852858157
 20
-5506.941262142503
  0
VERTEX
  8
0
 10
39032.15833878753
 20
-5506.980138126874
  0
VERTEX
  8
0
 10
39035.73790268595
 20
-5507.020416484201
  0
VERTEX
  8
0
 10
39039.3171792256
 20
-5507.062330943306
  0
VERTEX
  8
0
 10
39042.89612735521
 20
-5507.106115233018
  0
VERTEX
  8
0
 10
39046.47470602353
 20
-5507.15200308216
  0
VERTEX
  8
0
 10
39050.05287417932
 20
-5507.200228219558
  0
VERTEX
  8
0
 10
39053.63059077131
 20
-5507.251024374039
  0
VERTEX
  8
0
 10
39057.20781474825
 20
-5507.304625274428
  0
VERTEX
  8
0
 10
39060.78450505889
 20
-5507.36126464955
  0
VERTEX
  8
0
 10
39064.36062065197
 20
-5507.421176228233
  0
VERTEX
  8
0
 10
39067.93612047624
 20
-5507.484593739299
  0
VERTEX
  8
0
 10
39071.51096348044
 20
-5507.551750911577
  0
VERTEX
  8
0
 10
39075.08510861333
 20
-5507.622881473891
  0
VERTEX
  8
0
 10
39078.65851482364
 20
-5507.698219155067
  0
VERTEX
  8
0
 10
39082.23114106012
 20
-5507.77799768393
  0
VERTEX
  8
0
 10
39085.80294627152
 20
-5507.862450789306
  0
VERTEX
  8
0
 10
39089.37388940658
 20
-5507.951812200024
  0
VERTEX
  8
0
 10
39092.94392941405
 20
-5508.046315644903
  0
VERTEX
  8
0
 10
39096.51302524269
 20
-5508.146194852774
  0
VERTEX
  8
0
 10
39100.08113584122
 20
-5508.251683552461
  0
VERTEX
  8
0
 10
39103.6482201584
 20
-5508.363015472789
  0
VERTEX
  8
0
 10
39107.21423714297
 20
-5508.480424342584
  0
VERTEX
  8
0
 10
39110.77914574368
 20
-5508.604143890673
  0
VERTEX
  8
0
 10
39114.34290490928
 20
-5508.73440784588
  0
VERTEX
  8
0
 10
39117.90547358851
 20
-5508.871449937032
  0
VERTEX
  8
0
 10
39121.46681073011
 20
-5509.015503892953
  0
VERTEX
  8
0
 10
39125.02687528284
 20
-5509.16680344247
  0
VERTEX
  8
0
 10
39128.58562619544
 20
-5509.325582314409
  0
VERTEX
  8
0
 10
39132.14302241665
 20
-5509.492074237594
  0
VERTEX
  8
0
 10
39135.69902289522
 20
-5509.666512940852
  0
VERTEX
  8
0
 10
39139.2535865799
 20
-5509.849132153008
  0
VERTEX
  8
0
 10
39142.80667241944
 20
-5510.040165602889
  0
VERTEX
  8
0
 10
39146.35823936256
 20
-5510.239847019319
  0
VERTEX
  8
0
 10
39149.90824635804
 20
-5510.448410131125
  0
VERTEX
  8
0
 10
39153.4566523546
 20
-5510.66608866713
  0
VERTEX
  8
0
 10
39157.003416301
 20
-5510.893116356163
  0
VERTEX
  8
0
 10
39160.54849714599
 20
-5511.129726927048
  0
VERTEX
  8
0
 10
39164.09185383829
 20
-5511.376154108611
  0
VERTEX
  8
0
 10
39167.63344532668
 20
-5511.632631629678
  0
VERTEX
  8
0
 10
39171.17323055988
 20
-5511.899393219074
  0
VERTEX
  8
0
 10
39174.71117945229
 20
-5512.176635336639
  0
VERTEX
  8
0
 10
39178.24804472613
 20
-5512.461893909644
  0
VERTEX
  8
0
 10
39181.78587028624
 20
-5512.748316516832
  0
VERTEX
  8
0
 10
39185.32682072961
 20
-5513.028640540219
  0
VERTEX
  8
0
 10
39188.87306065315
 20
-5513.295603361821
  0
VERTEX
  8
0
 10
39192.42675465384
 20
-5513.541942363655
  0
VERTEX
  8
0
 10
39195.99006732862
 20
-5513.760394927734
  0
VERTEX
  8
0
 10
39199.56516327443
 20
-5513.943698436075
  0
VERTEX
  8
0
 10
39203.15420708825
 20
-5514.084590270693
  0
VERTEX
  8
0
 10
39206.759363367
 20
-5514.175807813606
  0
VERTEX
  8
0
 10
39210.38070914451
 20
-5514.206373796465
  0
VERTEX
  8
0
 10
39214.00352058491
 20
-5514.138973996171
  0
VERTEX
  8
0
 10
39217.60667789468
 20
-5513.92491309845
  0
VERTEX
  8
0
 10
39221.16903587084
 20
-5513.515450574869
  0
VERTEX
  8
0
 10
39224.66944931036
 20
-5512.861845897001
  0
VERTEX
  8
0
 10
39228.08677301024
 20
-5511.915358536415
  0
VERTEX
  8
0
 10
39231.40020086116
 20
-5510.631105060103
  0
VERTEX
  8
0
 10
39234.59283919389
 20
-5509.00870494202
  0
VERTEX
  8
0
 10
39237.65030454532
 20
-5507.076330545498
  0
VERTEX
  8
0
 10
39240.55825466688
 20
-5504.862623037507
  0
VERTEX
  8
0
 10
39243.30234730998
 20
-5502.396223585016
  0
VERTEX
  8
0
 10
39245.86824022604
 20
-5499.705773354997
  0
VERTEX
  8
0
 10
39248.24159116648
 20
-5496.81991351442
  0
VERTEX
  8
0
 10
39250.40805788272
 20
-5493.767285230255
  0
VERTEX
  8
0
 10
39252.35329812617
 20
-5490.576529669471
  0
VERTEX
  8
0
 10
39254.06296964825
 20
-5487.276287999041
  0
VERTEX
  8
0
 10
39255.52273020038
 20
-5483.895201385932
  0
VERTEX
  8
0
 10
39256.71939204911
 20
-5480.461390968849
  0
VERTEX
  8
0
 10
39257.66497644539
 20
-5476.991623003251
  0
VERTEX
  8
0
 10
39258.39598836905
 20
-5473.491635538212
  0
VERTEX
  8
0
 10
39258.94994222521
 20
-5469.966711947363
  0
VERTEX
  8
0
 10
39259.36435241897
 20
-5466.422135604339
  0
VERTEX
  8
0
 10
39259.67673335542
 20
-5462.863189882773
  0
VERTEX
  8
0
 10
39259.92459943968
 20
-5459.295158156296
  0
VERTEX
  8
0
 10
39260.0424120455
 20
-5438.44148117007
  0
SEQEND
  8
0
  0
POLYLINE
  8
0
 66
     1
 70
     1
  0
VERTEX
  8
0
 10
39010.67721973285
 20
-4845.207658894772
  0
VERTEX
  8
0
 10
39014.23691607986
 20
-4845.416918349367
  0
VERTEX
  8
0
 10
39017.79653844501
 20
-4845.627111239172
  0
VERTEX
  8
0
 10
39021.35601284649
 20
-4845.839170999398
  0
VERTEX
  8
0
 10
39024.91526530244
 20
-4846.054031065256
  0
VERTEX
  8
0
 10
39028.47422183103
 20
-4846.272624871953
  0
VERTEX
  8
0
 10
39032.03280845041
 20
-4846.495885854701
  0
VERTEX
  8
0
 10
39035.59095117876
 20
-4846.724747448709
  0
VERTEX
  8
0
 10
39039.14857603422
 20
-4846.960143089189
  0
VERTEX
  8
0
 10
39042.70560903495
 20
-4847.20300621135
  0
VERTEX
  8
0
 10
39046.2619761991
 20
-4847.454270250404
  0
VERTEX
  8
0
 10
39049.81760354486
 20
-4847.714868641558
  0
VERTEX
  8
0
 10
39053.37241709036
 20
-4847.985734820024
  0
VERTEX
  8
0
 10
39056.92634285377
 20
-4848.267802221012
  0
VERTEX
  8
0
 10
39060.47930685325
 20
-4848.562004279733
  0
VERTEX
  8
0
 10
39064.03123510696
 20
-4848.869274431396
  0
VERTEX
  8
0
 10
39067.58205363306
 20
-4849.190546111211
  0
VERTEX
  8
0
 10
39071.13168844969
 20
-4849.526752754389
  0
VERTEX
  8
0
 10
39074.68006557504
 20
-4849.878827796139
  0
VERTEX
  8
0
 10
39078.22711102725
 20
-4850.247704671673
  0
VERTEX
  8
0
 10
39081.77275082449
 20
-4850.6343168162
  0
VERTEX
  8
0
 10
39085.3169109849
 20
-4851.039597664929
  0
VERTEX
  8
0
 10
39088.85951752665
 20
-4851.464480653073
  0
VERTEX
  8
0
 10
39092.40049646792
 20
-4851.909899215842
  0
VERTEX
  8
0
 10
39095.93977382684
 20
-4852.376786788442
  0
VERTEX
  8
0
 10
39099.47725999544
 20
-4852.866022944688
  0
VERTEX
  8
0
 10
39103.01272896866
 20
-4853.378017113751
  0
VERTEX
  8
0
 10
39106.54588434492
 20
-4853.91293607647
  0
VERTEX
  8
0
 10
39110.07642913586
 20
-4854.470944591141
  0
VERTEX
  8
0
 10
39113.60406635312
 20
-4855.05220741606
  0
VERTEX
  8
0
 10
39117.12849900838
 20
-4855.656889309516
  0
VERTEX
  8
0
 10
39120.64943011326
 20
-4856.285155029809
  0
VERTEX
  8
0
 10
39124.16656267943
 20
-4856.93716933523
  0
VERTEX
  8
0
 10
39127.67959971853
 20
-4857.613096984075
  0
VERTEX
  8
0
 10
39131.18824424221
 20
-4858.313102734638
  0
VERTEX
  8
0
 10
39134.69219926212
 20
-4859.037351345213
  0
VERTEX
  8
0
 10
39138.19116778991
 20
-4859.786007574095
  0
VERTEX
  8
0
 10
39141.68485283723
 20
-4860.559236179577
  0
VERTEX
  8
0
 10
39145.17295741573
 20
-4861.357201919955
  0
VERTEX
  8
0
 10
39148.65518453706
 20
-4862.180069553521
  0
VERTEX
  8
0
 10
39152.13123721286
 20
-4863.028003838572
  0
VERTEX
  8
0
 10
39155.6008184548
 20
-4863.901169533401
  0
VERTEX
  8
0
 10
39159.0636312745
 20
-4864.799731396303
  0
VERTEX
  8
0
 10
39162.51937868365
 20
-4865.723854185572
  0
VERTEX
  8
0
 10
39165.96776369386
 20
-4866.673702659503
  0
VERTEX
  8
0
 10
39169.4084893168
 20
-4867.64944157639
  0
VERTEX
  8
0
 10
39172.84125856412
 20
-4868.651235694526
  0
VERTEX
  8
0
 10
39176.26577444746
 20
-4869.679249772206
  0
VERTEX
  8
0
 10
39179.68173997848
 20
-4870.733648567726
  0
VERTEX
  8
0
 10
39183.08885816881
 20
-4871.814596839379
  0
VERTEX
  8
0
 10
39186.48683203013
 20
-4872.92225934546
  0
VERTEX
  8
0
 10
39189.87536457407
 20
-4874.056800844262
  0
VERTEX
  8
0
 10
39193.25415881228
 20
-4875.218386094081
  0
VERTEX
  8
0
 10
39196.62291775642
 20
-4876.40717985321
  0
VERTEX
  8
0
 10
39199.98134441813
 20
-4877.623346879946
  0
VERTEX
  8
0
 10
39203.32914180905
 20
-4878.867051932579
  0
VERTEX
  8
0
 10
39206.66601294086
 20
-4880.138459769406
  0
VERTEX
  8
0
 10
39209.99166082518
 20
-4881.437735148723
  0
VERTEX
  8
0
 10
39213.30578847367
 20
-4882.765042828821
  0
VERTEX
  8
0
 10
39216.60809877775
 20
-4884.120547804165
  0
VERTEX
  8
0
 10
39219.89626505367
 20
-4885.508401784966
  0
VERTEX
  8
0
 10
39223.16077084956
 20
-4886.946879418188
  0
VERTEX
  8
0
 10
39226.39050838794
 20
-4888.457381208363
  0
VERTEX
  8
0
 10
39229.57436989131
 20
-4890.061307660028
  0
VERTEX
  8
0
 10
39232.70124758218
 20
-4891.780059277717
  0
VERTEX
  8
0
 10
39235.76003368307
 20
-4893.635036565965
  0
VERTEX
  8
0
 10
39238.73962041648
 20
-4895.647640029307
  0
VERTEX
  8
0
 10
39241.62515197066
 20
-4897.83851233395
  0
VERTEX
  8
0
 10
39244.36487954183
 20
-4900.220836522913
  0
VERTEX
  8
0
 10
39246.88608193513
 20
-4902.803555101211
  0
VERTEX
  8
0
 10
39249.11579606841
 20
-4905.595561665164
  0
VERTEX
  8
0
 10
39250.98105885953
 20
-4908.605749811094
  0
VERTEX
  8
0
 10
39252.44236098113
 20
-4911.830041302629
  0
VERTEX
  8
0
 10
39253.60875400981
 20
-4915.206752794391
  0
VERTEX
  8
0
 10
39254.59297787189
 20
-4990.588483039604
  0
VERTEX
  8
0
 10
39254.39822513499
 20
-5459.435827430319
  0
VERTEX
  8
0
 10
39254.11543970866
 20
-5463.011712588815
  0
VERTEX
  8
0
 10
39253.77170825141
 20
-5466.574367363746
  0
VERTEX
  8
0
 10
39253.33234445186
 20
-5470.116261925903
  0
VERTEX
  8
0
 10
39252.76266199863
 20
-5473.629866446076
  0
VERTEX
  8
0
 10
39252.02797458036
 20
-5477.107651095056
  0
VERTEX
  8
0
 10
39251.0937386026
 20
-5480.541770619244
  0
VERTEX
  8
0
 10
39249.92987753848
 20
-5483.914506921094
  0
VERTEX
  8
0
 10
39248.51155992131
 20
-5487.196549586733
  0
VERTEX
  8
0
 10
39246.81425385825
 20
-5490.357926102101
  0
VERTEX
  8
0
 10
39244.81718812863
 20
-5493.36846901924
  0
VERTEX
  8
0
 10
39242.53292817184
 20
-5496.196282889157
  0
VERTEX
  8
0
 10
39239.99146408097
 20
-5498.808569058419
  0
VERTEX
  8
0
 10
39237.22293789124
 20
-5501.172520997695
  0
VERTEX
  8
0
 10
39234.25749163789
 20
-5503.25533217765
  0
VERTEX
  8
0
 10
39231.12526735615
 20
-5505.024196068952
  0
VERTEX
  8
0
 10
39227.85637190509
 20
-5506.446568830993
  0
VERTEX
  8
0
 10
39224.47739808014
 20
-5507.516148965449
  0
VERTEX
  8
0
 10
39221.00848056031
 20
-5508.274862928317
  0
VERTEX
  8
0
 10
39217.46906076973
 20
-5508.769814267888
  0
VERTEX
  8
0
 10
39213.87858013256
 20
-5509.048106532452
  0
VERTEX
  8
0
 10
39210.25648007291
 20
-5509.1568432703
  0
VERTEX
  8
0
 10
39206.62220201492
 20
-5509.143128029723
  0
VERTEX
  8
0
 10
39202.9950652486
 20
-5509.053827187218
  0
VERTEX
  8
0
 10
39199.38650640789
 20
-5508.920499820427
  0
VERTEX
  8
0
 10
39195.79541396834
 20
-5508.750337787488
  0
VERTEX
  8
0
 10
39192.21955747637
 20
-5508.548360102431
  0
VERTEX
  8
0
 10
39188.65670647837
 20
-5508.319585779284
  0
VERTEX
  8
0
 10
39185.10463052076
 20
-5508.069033832076
  0
VERTEX
  8
0
 10
39181.56109914996
 20
-5507.801723274838
  0
VERTEX
  8
0
 10
39178.02388191237
 20
-5507.522673121596
  0
VERTEX
  8
0
 10
39174.49074835439
 20
-5507.236902386381
  0
VERTEX
  8
0
 10
39170.95946802245
 20
-5506.949430083221
  0
VERTEX
  8
0
 10
39167.42781046296
 20
-5506.665275226145
  0
VERTEX
  8
0
 10
39163.89356211526
 20
-5506.389420384528
  0
VERTEX
  8
0
 10
39160.35543914705
 20
-5506.124842343478
  0
VERTEX
  8
0
 10
39156.8135525543
 20
-5505.87150870286
  0
VERTEX
  8
0
 10
39153.26812807078
 20
-5505.629139528623
  0
VERTEX
  8
0
 10
39149.71939143031
 20
-5505.397454886712
  0
VERTEX
  8
0
 10
39146.16756836667
 20
-5505.17617484308
  0
VERTEX
  8
0
 10
39142.61288461363
 20
-5504.965019463673
  0
VERTEX
  8
0
 10
39139.05556590502
 20
-5504.763708814441
  0
VERTEX
  8
0
 10
39135.49583797458
 20
-5504.571962961331
  0
VERTEX
  8
0
 10
39131.93392655614
 20
-5504.389501970294
  0
VERTEX
  8
0
 10
39128.37005738346
 20
-5504.216045907278
  0
VERTEX
  8
0
 10
39124.80445619034
 20
-5504.051314838232
  0
VERTEX
  8
0
 10
39121.23734871057
 20
-5503.895028829103
  0
VERTEX
  8
0
 10
39117.66896067794
 20
-5503.746907945841
  0
VERTEX
  8
0
 10
39114.09951782623
 20
-5503.606672254395
  0
VERTEX
  8
0
 10
39110.52924588924
 20
-5503.474041820713
  0
VERTEX
  8
0
 10
39106.95837060076
 20
-5503.348736710744
  0
VERTEX
  8
0
 10
39103.38711769458
 20
-5503.230476990436
  0
VERTEX
  8
0
 10
39099.81571290448
 20
-5503.118982725739
  0
VERTEX
  8
0
 10
39096.24438196424
 20
-5503.013973982599
  0
VERTEX
  8
0
 10
39092.67335060767
 20
-5502.915170826968
  0
VERTEX
  8
0
 10
39089.10284455126
 20
-5502.822293326344
  0
VERTEX
  8
0
 10
39085.53303614706
 20
-5502.735066334994
  0
VERTEX
  8
0
 10
39081.96392643254
 20
-5502.653230074022
  0
VERTEX
  8
0
 10
39078.39548213677
 20
-5502.576527841981
  0
VERTEX
  8
0
 10
39074.82766998882
 20
-5502.504702937425
  0
VERTEX
  8
0
 10
39071.26045671774
 20
-5502.437498658907
  0
VERTEX
  8
0
 10
39067.69380905259
 20
-5502.37465830498
  0
VERTEX
  8
0
 10
39064.12769372246
 20
-5502.315925174199
  0
VERTEX
  8
0
 10
39060.56207745637
 20
-5502.261042565116
  0
VERTEX
  8
0
 10
39056.99692698342
 20
-5502.209753776284
  0
VERTEX
  8
0
 10
39053.43220903265
 20
-5502.161802106258
  0
VERTEX
  8
0
 10
39049.86789033313
 20
-5502.116930853591
  0
VERTEX
  8
0
 10
39046.30393761393
 20
-5502.074883316835
  0
VERTEX
  8
0
 10
39042.7403176041
 20
-5502.035402794546
  0
VERTEX
  8
0
 10
39039.17699703271
 20
-5501.998232585275
  0
VERTEX
  8
0
 10
39035.61394262881
 20
-5501.963115987576
  0
VERTEX
  8
0
 10
39032.05112112149
 20
-5501.929796300005
  0
VERTEX
  8
0
 10
39028.48849923979
 20
-5501.898016821111
  0
VERTEX
  8
0
 10
39024.92604371276
 20
-5501.867520849452
  0
VERTEX
  8
0
 10
39021.3637212695
 20
-5501.838051683578
  0
VERTEX
  8
0
 10
39017.80149863905
 20
-5501.809352622044
  0
VERTEX
  8
0
 10
39014.23934255046
 20
-5501.781166963402
  0
VERTEX
  8
0
 10
39010.67721973282
 20
-5501.753238006208
  0
VERTEX
  8
0
 10
39007.11509691519
 20
-5501.781166963402
  0
VERTEX
  8
0
 10
39003.55294082662
 20
-5501.809352622044
  0
VERTEX
  8
0
 10
38999.99071819617
 20
-5501.838051683578
  0
VERTEX
  8
0
 10
38996.42839575291
 20
-5501.867520849452
  0
VERTEX
  8
0
 10
38992.86594022589
 20
-5501.898016821111
  0
VERTEX
  8
0
 10
38989.30331834419
 20
-5501.929796300005
  0
VERTEX
  8
0
 10
38985.74049683687
 20
-5501.963115987576
  0
VERTEX
  8
0
 10
38982.17744243298
 20
-5501.998232585275
  0
VERTEX
  8
0
 10
38978.61412186159
 20
-5502.035402794546
  0
VERTEX
  8
0
 10
38975.05050185177
 20
-5502.074883316835
  0
VERTEX
  8
0
 10
38971.48654913257
 20
-5502.116930853591
  0
VERTEX
  8
0
 10
38967.92223043305
 20
-5502.161802106258
  0
VERTEX
  8
0
 10
38964.35751248228
 20
-5502.209753776284
  0
VERTEX
  8
0
 10
38960.79236200933
 20
-5502.261042565116
  0
VERTEX
  8
0
 10
38957.22674574325
 20
-5502.315925174199
  0
VERTEX
  8
0
 10
38953.66063041311
 20
-5502.37465830498
  0
VERTEX
  8
0
 10
38950.09398274797
 20
-5502.437498658907
  0
VERTEX
  8
0
 10
38946.52676947689
 20
-5502.504702937425
  0
VERTEX
  8
0
 10
38942.95895732893
 20
-5502.576527841981
  0
VERTEX
  8
0
 10
38939.39051303317
 20
-5502.653230074022
  0
VERTEX
  8
0
 10
38935.82140331865
 20
-5502.735066334994
  0
VERTEX
  8
0
 10
38932.25159491444
 20
-5502.822293326344
  0
VERTEX
  8
0
 10
38928.68108885804
 20
-5502.915170826969
  0
VERTEX
  8
0
 10
38925.11005750146
 20
-5503.0139739826
  0
VERTEX
  8
0
 10
38921.53872656123
 20
-5503.118982725739
  0
VERTEX
  8
0
 10
38917.96732177113
 20
-5503.230476990436
  0
VERTEX
  8
0
 10
38914.39606886494
 20
-5503.348736710744
  0
VERTEX
  8
0
 10
38910.82519357646
 20
-5503.474041820713
  0
VERTEX
  8
0
 10
38907.25492163948
 20
-5503.606672254395
  0
VERTEX
  8
0
 10
38903.68547878777
 20
-5503.746907945841
  0
VERTEX
  8
0
 10
38900.11709075513
 20
-5503.895028829103
  0
VERTEX
  8
0
 10
38896.54998327536
 20
-5504.051314838232
  0
VERTEX
  8
0
 10
38892.98438208225
 20
-5504.216045907278
  0
VERTEX
  8
0
 10
38889.42051290957
 20
-5504.389501970294
  0
VERTEX
  8
0
 10
38885.85860149113
 20
-5504.571962961331
  0
VERTEX
  8
0
 10
38882.29887356069
 20
-5504.763708814441
  0
VERTEX
  8
0
 10
38878.74155485207
 20
-5504.965019463673
  0
VERTEX
  8
0
 10
38875.18687109904
 20
-5505.17617484308
  0
VERTEX
  8
0
 10
38871.63504803539
 20
-5505.397454886712
  0
VERTEX
  8
0
 10
38868.08631139492
 20
-5505.629139528623
  0
VERTEX
  8
0
 10
38864.54088691141
 20
-5505.87150870286
  0
VERTEX
  8
0
 10
38860.99900031866
 20
-5506.124842343479
  0
VERTEX
  8
0
 10
38857.46087735044
 20
-5506.389420384528
  0
VERTEX
  8
0
 10
38853.92662900275
 20
-5506.665275226145
  0
VERTEX
  8
0
 10
38850.39497144325
 20
-5506.949430083221
  0
VERTEX
  8
0
 10
38846.86369111132
 20
-5507.236902386381
  0
VERTEX
  8
0
 10
38843.33055755334
 20
-5507.522673121596
  0
VERTEX
  8
0
 10
38839.79334031575
 20
-5507.801723274838
  0
VERTEX
  8
0
 10
38836.24980894495
 20
-5508.069033832076
  0
VERTEX
  8
0
 10
38832.69773298733
 20
-5508.319585779284
  0
VERTEX
  8
0
 10
38829.13488198934
 20
-5508.548360102431
  0
VERTEX
  8
0
 10
38825.55902549736
 20
-5508.750337787488
  0
VERTEX
  8
0
 10
38821.96793305781
 20
-5508.920499820427
  0
VERTEX
  8
0
 10
38818.35937421711
 20
-5509.053827187218
  0
VERTEX
  8
0
 10
38814.73223745079
 20
-5509.143128029723
  0
VERTEX
  8
0
 10
38811.0979593928
 20
-5509.1568432703
  0
VERTEX
  8
0
 10
38807.47585933314
 20
-5509.048106532452
  0
VERTEX
  8
0
 10
38803.88537869597
 20
-5508.769814267888
  0
VERTEX
  8
0
 10
38800.3459589054
 20
-5508.274862928317
  0
VERTEX
  8
0
 10
38796.87704138557
 20
-5507.516148965449
  0
VERTEX
  8
0
 10
38793.49806756061
 20
-5506.446568830992
  0
VERTEX
  8
0
 10
38790.22917210956
 20
-5505.024196068951
  0
VERTEX
  8
0
 10
38787.09694782782
 20
-5503.25533217765
  0
VERTEX
  8
0
 10
38784.13150157447
 20
-5501.172520997695
  0
VERTEX
  8
0
 10
38781.36297538474
 20
-5498.808569058419
  0
VERTEX
  8
0
 10
38778.82151129387
 20
-5496.196282889156
  0
VERTEX
  8
0
 10
38776.53725133708
 20
-5493.368469019239
  0
VERTEX
  8
0
 10
38774.54018560745
 20
-5490.3579261021
  0
VERTEX
  8
0
 10
38772.8428795444
 20
-5487.196549586732
  0
VERTEX
  8
0
 10
38771.42456192723
 20
-5483.914506921094
  0
VERTEX
  8
0
 10
38770.26070086311
 20
-5480.541770619243
  0
VERTEX
  8
0
 10
38769.32646488535
 20
-5477.107651095054
  0
VERTEX
  8
0
 10
38768.59177746707
 20
-5473.629866446076
  0
VERTEX
  8
0
 10
38768.02209501385
 20
-5470.116261925902
  0
VERTEX
  8
0
 10
38767.58273121429
 20
-5466.574367363745
  0
VERTEX
  8
0
 10
38767.23899975704
 20
-5463.011712588814
  0
VERTEX
  8
0
 10
38766.95621433072
 20
-5459.435827430319
  0
VERTEX
  8
0
 10
38766.76146159381
 20
-4990.58848303881
  0
VERTEX
  8
0
 10
38767.7456854559
 20
-4915.206752794389
  0
VERTEX
  8
0
 10
38768.91207848457
 20
-4911.830041302627
  0
VERTEX
  8
0
 10
38770.37338060618
 20
-4908.605749811093
  0
VERTEX
  8
0
 10
38772.2386433973
 20
-4905.595561665163
  0
VERTEX
  8
0
 10
38774.46835753058
 20
-4902.80355510121
  0
VERTEX
  8
0
 10
38776.98955992387
 20
-4900.220836522913
  0
VERTEX
  8
0
 10
38779.72928749504
 20
-4897.838512333949
  0
VERTEX
  8
0
 10
38782.61481904923
 20
-4895.647640029305
  0
VERTEX
  8
0
 10
38785.59440578264
 20
-4893.635036565965
  0
VERTEX
  8
0
 10
38788.65319188352
 20
-4891.780059277717
  0
VERTEX
  8
0
 10
38791.7800695744
 20
-4890.061307660027
  0
VERTEX
  8
0
 10
38794.96393107777
 20
-4888.457381208363
  0
VERTEX
  8
0
 10
38798.19366861615
 20
-4886.946879418186
  0
VERTEX
  8
0
 10
38801.45817441204
 20
-4885.508401784965
  0
VERTEX
  8
0
 10
38804.74634068795
 20
-4884.120547804164
  0
VERTEX
  8
0
 10
38808.04865099204
 20
-4882.765042828819
  0
VERTEX
  8
0
 10
38811.36277864053
 20
-4881.437735148721
  0
VERTEX
  8
0
 10
38814.68842652485
 20
-4880.138459769405
  0
VERTEX
  8
0
 10
38818.02529765666
 20
-4878.867051932578
  0
VERTEX
  8
0
 10
38821.37309504758
 20
-4877.623346879945
  0
VERTEX
  8
0
 10
38824.73152170928
 20
-4876.40717985321
  0
VERTEX
  8
0
 10
38828.10028065342
 20
-4875.21838609408
  0
VERTEX
  8
0
 10
38831.47907489163
 20
-4874.056800844261
  0
VERTEX
  8
0
 10
38834.86760743558
 20
-4872.92225934546
  0
VERTEX
  8
0
 10
38838.2655812969
 20
-4871.814596839378
  0
VERTEX
  8
0
 10
38841.67269948724
 20
-4870.733648567726
  0
VERTEX
  8
0
 10
38845.08866501825
 20
-4869.679249772205
  0
VERTEX
  8
0
 10
38848.51318090159
 20
-4868.651235694525
  0
VERTEX
  8
0
 10
38851.94595014891
 20
-4867.649441576388
  0
VERTEX
  8
0
 10
38855.38667577185
 20
-4866.673702659503
  0
VERTEX
  8
0
 10
38858.83506078207
 20
-4865.723854185572
  0
VERTEX
  8
0
 10
38862.2908081912
 20
-4864.799731396302
  0
VERTEX
  8
0
 10
38865.75362101091
 20
-4863.901169533401
  0
VERTEX
  8
0
 10
38869.22320225285
 20
-4863.028003838571
  0
VERTEX
  8
0
 10
38872.69925492865
 20
-4862.180069553521
  0
VERTEX
  8
0
 10
38876.18148204998
 20
-4861.357201919954
  0
VERTEX
  8
0
 10
38879.66958662848
 20
-4860.559236179576
  0
VERTEX
  8
0
 10
38883.1632716758
 20
-4859.786007574094
  0
VERTEX
  8
0
 10
38886.66224020359
 20
-4859.037351345212
  0
VERTEX
  8
0
 10
38890.1661952235
 20
-4858.313102734638
  0
VERTEX
  8
0
 10
38893.67483974718
 20
-4857.613096984075
  0
VERTEX
  8
0
 10
38897.18787678628
 20
-4856.93716933523
  0
VERTEX
  8
0
 10
38900.70500935244
 20
-4856.285155029809
  0
VERTEX
  8
0
 10
38904.22594045733
 20
-4855.656889309516
  0
VERTEX
  8
0
 10
38907.75037311258
 20
-4855.052207416058
  0
VERTEX
  8
0
 10
38911.27801032986
 20
-4854.470944591141
  0
VERTEX
  8
0
 10
38914.80855512079
 20
-4853.91293607647
  0
VERTEX
  8
0
 10
38918.34171049705
 20
-4853.37801711375
  0
VERTEX
  8
0
 10
38921.87717947026
 20
-4852.866022944688
  0
VERTEX
  8
0
 10
38925.41466563888
 20
-4852.376786788442
  0
VERTEX
  8
0
 10
38928.9539429978
 20
-4851.909899215841
  0
VERTEX
  8
0
 10
38932.49492193905
 20
-4851.464480653073
  0
VERTEX
  8
0
 10
38936.03752848081
 20
-4851.039597664929
  0
VERTEX
  8
0
 10
38939.58168864122
 20
-4850.634316816199
  0
VERTEX
  8
0
 10
38943.12732843846
 20
-4850.247704671673
  0
VERTEX
  8
0
 10
38946.67437389067
 20
-4849.878827796139
  0
VERTEX
  8
0
 10
38950.22275101602
 20
-4849.526752754389
  0
VERTEX
  8
0
 10
38953.77238583265
 20
-4849.19054611121
  0
VERTEX
  8
0
 10
38957.32320435875
 20
-4848.869274431395
  0
VERTEX
  8
0
 10
38960.87513261246
 20
-4848.562004279733
  0
VERTEX
  8
0
 10
38964.42809661194
 20
-4848.267802221012
  0
VERTEX
  8
0
 10
38967.98202237535
 20
-4847.985734820024
  0
VERTEX
  8
0
 10
38971.53683592085
 20
-4847.714868641558
  0
VERTEX
  8
0
 10
38975.09246326661
 20
-4847.454270250403
  0
VERTEX
  8
0
 10
38978.64883043076
 20
-4847.20300621135
  0
VERTEX
  8
0
 10
38982.20586343149
 20
-4846.960143089189
  0
VERTEX
  8
0
 10
38985.76348828695
 20
-4846.724747448709
  0
VERTEX
  8
0
 10
38989.32163101529
 20
-4846.4958858547
  0
VERTEX
  8
0
 10
38992.88021763467
 20
-4846.272624871953
  0
VERTEX
  8
0
 10
38996.43917416326
 20
-4846.054031065256
  0
VERTEX
  8
0
 10
38999.99842661922
 20
-4845.839170999398
  0
VERTEX
  8
0
 10
39003.5579010207
 20
-4845.627111239172
  0
VERTEX
  8
0
 10
39007.11752338585
 20
-4845.416918349367
  0
SEQEND
  8
0
  0
POLYLINE
  8
0
 66
     1
 70
     1
  0
VERTEX
  8
0
 10
38725.7178704465
 20
-5440.276687593931
  0
VERTEX
  8
0
 10
38758.50657463442
 20
-5446.728608646283
  0
VERTEX
  8
0
 10
38754.71204466709
 20
-4923.270855378996
  0
VERTEX
  8
0
 10
38725.50570035313
 20
-4937.573295756639
  0
VERTEX
  8
0
 10
38725.38858820099
 20
-4939.949647612685
  0
VERTEX
  8
0
 10
38725.27135537403
 20
-4942.325986359891
  0
VERTEX
  8
0
 10
38725.15388609003
 20
-4944.702299420907
  0
VERTEX
  8
0
 10
38725.03606456677
 20
-4947.078574218375
  0
VERTEX
  8
0
 10
38724.91777502203
 20
-4949.454798174937
  0
VERTEX
  8
0
 10
38724.79890167362
 20
-4951.830958713242
  0
VERTEX
  8
0
 10
38724.67932873929
 20
-4954.207043255931
  0
VERTEX
  8
0
 10
38724.55894043686
 20
-4956.58303922565
  0
VERTEX
  8
0
 10
38724.43762098408
 20
-4958.958934045042
  0
VERTEX
  8
0
 10
38724.31525459878
 20
-4961.334715136754
  0
VERTEX
  8
0
 10
38724.19172549872
 20
-4963.71036992343
  0
VERTEX
  8
0
 10
38724.06691790168
 20
-4966.085885827712
  0
VERTEX
  8
0
 10
38723.94071602547
 20
-4968.461250272248
  0
VERTEX
  8
0
 10
38723.81300408785
 20
-4970.83645067968
  0
VERTEX
  8
0
 10
38723.68366630661
 20
-4973.211474472654
  0
VERTEX
  8
0
 10
38723.55258689955
 20
-4975.586309073812
  0
VERTEX
  8
0
 10
38723.41965008444
 20
-4977.960941905802
  0
VERTEX
  8
0
 10
38723.28474007908
 20
-4980.335360391267
  0
VERTEX
  8
0
 10
38723.14774110125
 20
-4982.70955195285
  0
VERTEX
  8
0
 10
38723.00853736873
 20
-4985.083504013199
  0
VERTEX
  8
0
 10
38722.86701309931
 20
-4987.457203994955
  0
VERTEX
  8
0
 10
38722.72305251077
 20
-4989.830639320766
  0
VERTEX
  8
0
 10
38722.57653982091
 20
-4992.203797413272
  0
VERTEX
  8
0
 10
38722.4273592475
 20
-4994.576665695121
  0
VERTEX
  8
0
 10
38722.27539500834
 20
-4996.949231588957
  0
VERTEX
  8
0
 10
38722.12053132121
 20
-4999.321482517422
  0
VERTEX
  8
0
 10
38721.96265240389
 20
-5001.693405903165
  0
VERTEX
  8
0
 10
38721.80164247417
 20
-5004.064989168827
  0
VERTEX
  8
0
 10
38721.63738574984
 20
-5006.436219737054
  0
VERTEX
  8
0
 10
38721.46976644868
 20
-5008.807085030489
  0
VERTEX
  8
0
 10
38721.29866878848
 20
-5011.177572471779
  0
VERTEX
  8
0
 10
38721.12397698702
 20
-5013.547669483567
  0
VERTEX
  8
0
 10
38720.94557526209
 20
-5015.917363488496
  0
VERTEX
  8
0
 10
38720.76334783147
 20
-5018.286641909214
  0
VERTEX
  8
0
 10
38720.57717891296
 20
-5020.655492168364
  0
VERTEX
  8
0
 10
38720.38695272433
 20
-5023.023901688589
  0
VERTEX
  8
0
 10
38720.19255348337
 20
-5025.391857892535
  0
VERTEX
  8
0
 10
38719.99386540787
 20
-5027.759348202846
  0
VERTEX
  8
0
 10
38719.79077271562
 20
-5030.126360042168
  0
VERTEX
  8
0
 10
38719.58315962439
 20
-5032.492880833143
  0
VERTEX
  8
0
 10
38719.37091035198
 20
-5034.858897998418
  0
VERTEX
  8
0
 10
38719.15390911616
 20
-5037.224398960636
  0
VERTEX
  8
0
 10
38718.93204013474
 20
-5039.589371142441
  0
VERTEX
  8
0
 10
38718.70518762548
 20
-5041.953801966479
  0
VERTEX
  8
0
 10
38718.47323580619
 20
-5044.317678855393
  0
VERTEX
  8
0
 10
38718.23606889464
 20
-5046.680989231831
  0
VERTEX
  8
0
 10
38717.99357110861
 20
-5049.043720518432
  0
VERTEX
  8
0
 10
38717.74562666591
 20
-5051.405860137845
  0
VERTEX
  8
0
 10
38717.49211978429
 20
-5053.767395512712
  0
VERTEX
  8
0
 10
38717.23293468157
 20
-5056.12831406568
  0
VERTEX
  8
0
 10
38716.96795557552
 20
-5058.48860321939
  0
VERTEX
  8
0
 10
38716.69708059668
 20
-5060.848252000123
  0
VERTEX
  8
0
 10
38716.42041020447
 20
-5063.207272755312
  0
VERTEX
  8
0
 10
38716.13819767425
 20
-5065.565695446505
  0
VERTEX
  8
0
 10
38715.85070004633
 20
-5067.923550469212
  0
VERTEX
  8
0
 10
38715.55817436102
 20
-5070.280868218945
  0
VERTEX
  8
0
 10
38715.26087765866
 20
-5072.637679091215
  0
VERTEX
  8
0
 10
38714.95906697956
 20
-5074.994013481533
  0
VERTEX
  8
0
 10
38714.65299936404
 20
-5077.349901785411
  0
VERTEX
  8
0
 10
38714.34293185242
 20
-5079.705374398359
  0
VERTEX
  8
0
 10
38714.02912148501
 20
-5082.06046171589
  0
VERTEX
  8
0
 10
38713.71182530215
 20
-5084.415194133512
  0
VERTEX
  8
0
 10
38713.39130034414
 20
-5086.76960204674
  0
VERTEX
  8
0
 10
38713.06780365131
 20
-5089.123715851084
  0
VERTEX
  8
0
 10
38712.74159226396
 20
-5091.477565942054
  0
VERTEX
  8
0
 10
38712.41292322244
 20
-5093.831182715161
  0
VERTEX
  8
0
 10
38712.08205356705
 20
-5096.184596565918
  0
VERTEX
  8
0
 10
38711.74924033812
 20
-5098.537837889835
  0
VERTEX
  8
0
 10
38711.41474057596
 20
-5100.890937082424
  0
VERTEX
  8
0
 10
38711.07881132088
 20
-5103.243924539196
  0
VERTEX
  8
0
 10
38710.74170961322
 20
-5105.596830655662
  0
VERTEX
  8
0
 10
38710.40369249329
 20
-5107.949685827332
  0
VERTEX
  8
0
 10
38710.06501700141
 20
-5110.30252044972
  0
VERTEX
  8
0
 10
38709.72594017791
 20
-5112.655364918335
  0
VERTEX
  8
0
 10
38709.3867190631
 20
-5115.00824962869
  0
VERTEX
  8
0
 10
38709.04761069729
 20
-5117.361204976293
  0
VERTEX
  8
0
 10
38708.7088721208
 20
-5119.714261356658
  0
VERTEX
  8
0
 10
38708.37076037397
 20
-5122.067449165297
  0
VERTEX
  8
0
 10
38708.03353249709
 20
-5124.420798797719
  0
VERTEX
  8
0
 10
38707.69744553052
 20
-5126.774340649436
  0
VERTEX
  8
0
 10
38707.36275651454
 20
-5129.128105115959
  0
VERTEX
  8
0
 10
38707.0297224895
 20
-5131.4821225928
  0
VERTEX
  8
0
 10
38706.69860049569
 20
-5133.836423475469
  0
VERTEX
  8
0
 10
38706.36964757345
 20
-5136.191038159477
  0
VERTEX
  8
0
 10
38706.04312076308
 20
-5138.545997040338
  0
VERTEX
  8
0
 10
38705.71927710492
 20
-5140.90133051356
  0
VERTEX
  8
0
 10
38705.39837363928
 20
-5143.257068974657
  0
VERTEX
  8
0
 10
38705.08066740649
 20
-5145.613242819138
  0
VERTEX
  8
0
 10
38704.76641544685
 20
-5147.969882442513
  0
VERTEX
  8
0
 10
38704.4558748007
 20
-5150.327018240298
  0
VERTEX
  8
0
 10
38704.14930250835
 20
-5152.684680608
  0
VERTEX
  8
0
 10
38703.84695561011
 20
-5155.042899941132
  0
VERTEX
  8
0
 10
38703.54909114631
 20
-5157.401706635205
  0
VERTEX
  8
0
 10
38703.25596615727
 20
-5159.76113108573
  0
VERTEX
  8
0
 10
38702.9678376833
 20
-5162.121203688218
  0
VERTEX
  8
0
 10
38702.68496276473
 20
-5164.481954838181
  0
VERTEX
  8
0
 10
38702.40759844187
 20
-5166.84341493113
  0
VERTEX
  8
0
 10
38702.13600175505
 20
-5169.205614362574
  0
VERTEX
  8
0
 10
38701.87042974459
 20
-5171.568583528028
  0
VERTEX
  8
0
 10
38701.61113945555
 20
-5173.932352794298
  0
VERTEX
  8
0
 10
38701.35839020562
 20
-5176.296938786239
  0
VERTEX
  8
0
 10
38701.11244722071
 20
-5178.662322403672
  0
VERTEX
  8
0
 10
38700.87357667444
 20
-5181.028478815538
  0
VERTEX
  8
0
 10
38700.64204474049
 20
-5183.395383190776
  0
VERTEX
  8
0
 10
38700.41811759251
 20
-5185.763010698326
  0
VERTEX
  8
0
 10
38700.20206140414
 20
-5188.13133650713
  0
VERTEX
  8
0
 10
38699.99414234903
 20
-5190.500335786128
  0
VERTEX
  8
0
 10
38699.79462660086
 20
-5192.86998370426
  0
VERTEX
  8
0
 10
38699.60378033325
 20
-5195.240255430468
  0
VERTEX
  8
0
 10
38699.42186971987
 20
-5197.611126133691
  0
VERTEX
  8
0
 10
38699.24916093437
 20
-5199.98257098287
  0
VERTEX
  8
0
 10
38699.08592015041
 20
-5202.354565146945
  0
VERTEX
  8
0
 10
38698.93241354162
 20
-5204.727083794857
  0
VERTEX
  8
0
 10
38698.78890728168
 20
-5207.100102095547
  0
VERTEX
  8
0
 10
38698.65566754422
 20
-5209.473595217954
  0
VERTEX
  8
0
 10
38698.5329605029
 20
-5211.847538331021
  0
VERTEX
  8
0
 10
38698.4210523314
 20
-5214.221906603686
  0
VERTEX
  8
0
 10
38698.32020920332
 20
-5216.59667520489
  0
VERTEX
  8
0
 10
38698.23069729235
 20
-5218.971819303574
  0
VERTEX
  8
0
 10
38698.15278277214
 20
-5221.347314068678
  0
VERTEX
  8
0
 10
38698.08673181634
 20
-5223.723134669143
  0
VERTEX
  8
0
 10
38698.03281059859
 20
-5226.099256273911
  0
VERTEX
  8
0
 10
38697.99124902947
 20
-5228.475651307393
  0
VERTEX
  8
0
 10
38697.96200151883
 20
-5230.85227134308
  0
VERTEX
  8
0
 10
38697.9448960017
 20
-5233.229058382368
  0
VERTEX
  8
0
 10
38697.93975974945
 20
-5235.60595437643
  0
VERTEX
  8
0
 10
38697.94642003343
 20
-5237.982901276435
  0
VERTEX
  8
0
 10
38697.96470412504
 20
-5240.359841033554
  0
VERTEX
  8
0
 10
38697.99443929565
 20
-5242.736715598961
  0
VERTEX
  8
0
 10
38698.03545281664
 20
-5245.113466923825
  0
VERTEX
  8
0
 10
38698.08757195938
 20
-5247.490036959317
  0
VERTEX
  8
0
 10
38698.15062442923
 20
-5249.866367892897
  0
VERTEX
  8
0
 10
38698.22446019398
 20
-5252.242414032255
  0
VERTEX
  8
0
 10
38698.30896171482
 20
-5254.618147375405
  0
VERTEX
  8
0
 10
38698.40401402536
 20
-5256.993541320853
  0
VERTEX
  8
0
 10
38698.5095021592
 20
-5259.368569267101
  0
VERTEX
  8
0
 10
38698.62531114998
 20
-5261.743204612652
  0
VERTEX
  8
0
 10
38698.75132603128
 20
-5264.117420756009
  0
VERTEX
  8
0
 10
38698.88743183675
 20
-5266.491191095673
  0
VERTEX
  8
0
 10
38699.03351359998
 20
-5268.864489030149
  0
VERTEX
  8
0
 10
38699.18945635459
 20
-5271.237287957941
  0
VERTEX
  8
0
 10
38699.35514513418
 20
-5273.609561277549
  0
VERTEX
  8
0
 10
38699.53046497239
 20
-5275.981282387478
  0
VERTEX
  8
0
 10
38699.7153009028
 20
-5278.35242468623
  0
VERTEX
  8
0
 10
38699.90953795906
 20
-5280.722961572307
  0
VERTEX
  8
0
 10
38700.11306117476
 20
-5283.092866444214
  0
VERTEX
  8
0
 10
38700.32575558351
 20
-5285.462112700453
  0
VERTEX
  8
0
 10
38700.54750621893
 20
-5287.830673739527
  0
VERTEX
  8
0
 10
38700.77819811463
 20
-5290.198522959938
  0
VERTEX
  8
0
 10
38701.01771630422
 20
-5292.565633760189
  0
VERTEX
  8
0
 10
38701.26594582134
 20
-5294.931979538785
  0
VERTEX
  8
0
 10
38701.52277169957
 20
-5297.297533694226
  0
VERTEX
  8
0
 10
38701.78807897252
 20
-5299.662269625017
  0
VERTEX
  8
0
 10
38702.06175267384
 20
-5302.026160729661
  0
VERTEX
  8
0
 10
38702.3436778371
 20
-5304.389180406659
  0
VERTEX
  8
0
 10
38702.63373949594
 20
-5306.751302054516
  0
VERTEX
  8
0
 10
38702.93182268398
 20
-5309.112499071733
  0
VERTEX
  8
0
 10
38703.2378124348
 20
-5311.472744856814
  0
VERTEX
  8
0
 10
38703.55159378204
 20
-5313.832012808262
  0
VERTEX
  8
0
 10
38703.8730517593
 20
-5316.190276324581
  0
VERTEX
  8
0
 10
38704.20207140021
 20
-5318.54750880427
  0
VERTEX
  8
0
 10
38704.53853773836
 20
-5320.903683645836
  0
VERTEX
  8
0
 10
38704.88233580739
 20
-5323.25877424778
  0
VERTEX
  8
0
 10
38705.23335064088
 20
-5325.612754008605
  0
VERTEX
  8
0
 10
38705.59146727246
 20
-5327.965596326815
  0
VERTEX
  8
0
 10
38705.95657073575
 20
-5330.317274600912
  0
VERTEX
  8
0
 10
38706.32854606436
 20
-5332.667762229399
  0
VERTEX
  8
0
 10
38706.70727829189
 20
-5335.017032610779
  0
VERTEX
  8
0
 10
38707.09265245197
 20
-5337.365059143554
  0
VERTEX
  8
0
 10
38707.4845535782
 20
-5339.711815226229
  0
VERTEX
  8
0
 10
38707.8828667042
 20
-5342.057274257305
  0
VERTEX
  8
0
 10
38708.28747686358
 20
-5344.401409635285
  0
VERTEX
  8
0
 10
38708.69826908997
 20
-5346.744194758674
  0
VERTEX
  8
0
 10
38709.11508504448
 20
-5349.085618247683
  0
VERTEX
  8
0
 10
38709.53751608323
 20
-5351.425756567908
  0
VERTEX
  8
0
 10
38709.96506396496
 20
-5353.764717629429
  0
VERTEX
  8
0
 10
38710.39723033479
 20
-5356.102609382205
  0
VERTEX
  8
0
 10
38710.83351683782
 20
-5358.439539776201
  0
VERTEX
  8
0
 10
38711.27342511917
 20
-5360.775616761378
  0
VERTEX
  8
0
 10
38711.71645682391
 20
-5363.110948287701
  0
VERTEX
  8
0
 10
38712.16211359717
 20
-5365.44564230513
  0
VERTEX
  8
0
 10
38712.60989708407
 20
-5367.779806763629
  0
VERTEX
  8
0
 10
38713.05930892968
 20
-5370.113549613162
  0
VERTEX
  8
0
 10
38713.50985077913
 20
-5372.446978803689
  0
VERTEX
  8
0
 10
38713.96102427752
 20
-5374.780202285177
  0
VERTEX
  8
0
 10
38714.41233106997
 20
-5377.113328007585
  0
VERTEX
  8
0
 10
38714.86327280155
 20
-5379.446463920876
  0
VERTEX
  8
0
 10
38715.3133511174
 20
-5381.779717975015
  0
VERTEX
  8
0
 10
38715.7620676626
 20
-5384.113198119963
  0
VERTEX
  8
0
 10
38716.20892408228
 20
-5386.447012305684
  0
VERTEX
  8
0
 10
38716.65342202153
 20
-5388.78126848214
  0
VERTEX
  8
0
 10
38717.09506312545
 20
-5391.116074599294
  0
VERTEX
  8
0
 10
38717.53334903916
 20
-5393.451538607108
  0
VERTEX
  8
0
 10
38717.96781600908
 20
-5395.787761132928
  0
VERTEX
  8
0
 10
38718.39840348985
 20
-5398.124757473804
  0
VERTEX
  8
0
 10
38718.82531153081
 20
-5400.462487777563
  0
VERTEX
  8
0
 10
38719.24874454529
 20
-5402.800911268488
  0
VERTEX
  8
0
 10
38719.6689069466
 20
-5405.139987170864
  0
VERTEX
  8
0
 10
38720.08600314808
 20
-5407.479674708974
  0
VERTEX
  8
0
 10
38720.50023756304
 20
-5409.819933107104
  0
VERTEX
  8
0
 10
38720.91181460482
 20
-5412.160721589537
  0
VERTEX
  8
0
 10
38721.32093868672
 20
-5414.50199938056
  0
VERTEX
  8
0
 10
38721.72781422208
 20
-5416.843725704453
  0
VERTEX
  8
0
 10
38722.13264562421
 20
-5419.185859785504
  0
VERTEX
  8
0
 10
38722.53563730644
 20
-5421.528360847997
  0
VERTEX
  8
0
 10
38722.93699368209
 20
-5423.871188116214
  0
VERTEX
  8
0
 10
38723.33691916449
 20
-5426.214300814441
  0
VERTEX
  8
0
 10
38723.73561816695
 20
-5428.557658166963
  0
VERTEX
  8
0
 10
38724.13329510279
 20
-5430.901219398062
  0
VERTEX
  8
0
 10
38724.53015438536
 20
-5433.244943732024
  0
VERTEX
  8
0
 10
38724.92640042794
 20
-5435.588790393133
  0
VERTEX
  8
0
 10
38725.32223764389
 20
-5437.932718605675
  0
SEQEND
  8
0
  0
POLYLINE
  8
0
 66
     1
  0
VERTEX
  8
0
 10
38757.34862649749
 20
-4926.063259318016
 42
0.053313103794
  0
VERTEX
  8
0
 10
38755.29981856092
 20
-4821.214459192207
 42
0.880455082156
  0
VERTEX
  8
0
 10
38730.37799295617
 20
-4821.414909389957
 42
0.048292941085
  0
VERTEX
  8
0
 10
38729.17209633701
 20
-4926.330966723566
  0
SEQEND
  8
0
  0
POLYLINE
  8
0
 66
     1
  0
VERTEX
  8
0
 10
38727.78910335984
 20
-5445.932390919804
 42
0.146480882175
  0
VERTEX
  8
0
 10
38731.74971952426
 20
-5474.556952514555
 42
0.651602302191
  0
VERTEX
  8
0
 10
38754.68907687575
 20
-5474.563455239251
 42
0.140924310626
  0
VERTEX
  8
0
 10
38758.6214737543
 20
-5446.393117238829
  0
SEQEND
  8
0
  0
POLYLINE
  8
0
 66
     1
  0
VERTEX
  8
0
 10
39255.8756437573
 20
-6306.763946726425
  0
VERTEX
  8
0
 10
39258.84429007367
 20
-6307.365865300863
  0
VERTEX
  8
0
 10
39260.28321778091
 20
-6302.285010228637
  0
VERTEX
  8
0
 10
39259.79186598772
 20
-6270.070522932516
  0
VERTEX
  8
0
 10
39257.43615143877
 20
-6268.842990637856
  0
VERTEX
  8
0
 10
39256.01829326584
 20
-6269.428481643296
  0
VERTEX
  8
0
 10
39254.86220302001
 20
-6269.981934086848
  0
VERTEX
  8
0
 10
39253.70564172885
 20
-6270.533990641675
  0
VERTEX
  8
0
 10
39252.54835188399
 20
-6271.083888211302
  0
VERTEX
  8
0
 10
39251.39007597703
 20
-6271.630863699257
  0
VERTEX
  8
0
 10
39250.23055649961
 20
-6272.174154009069
  0
VERTEX
  8
0
 10
39249.06953594334
 20
-6272.712996044263
  0
VERTEX
  8
0
 10
39247.90675679987
 20
-6273.246626708371
  0
VERTEX
  8
0
 10
39246.74196156082
 20
-6273.774282904918
  0
VERTEX
  8
0
 10
39245.5748927178
 20
-6274.295201537431
  0
VERTEX
  8
0
 10
39244.40529276245
 20
-6274.80861950944
  0
VERTEX
  8
0
 10
39243.2329041864
 20
-6275.313773724472
  0
VERTEX
  8
0
 10
39242.05746948125
 20
-6275.809901086055
  0
VERTEX
  8
0
 10
39240.87873113865
 20
-6276.296238497715
  0
VERTEX
  8
0
 10
39239.69643165023
 20
-6276.772022862981
  0
VERTEX
  8
0
 10
39238.5103135076
 20
-6277.236491085382
  0
VERTEX
  8
0
 10
39237.32011920238
 20
-6277.688880068445
  0
VERTEX
  8
0
 10
39236.12559122622
 20
-6278.128426715696
  0
VERTEX
  8
0
 10
39234.92647207073
 20
-6278.554367930664
  0
VERTEX
  8
0
 10
39233.72250422752
 20
-6278.965940616877
  0
VERTEX
  8
0
 10
39232.51349694921
 20
-6279.362566396923
  0
VERTEX
  8
0
 10
39231.29958392199
 20
-6279.744564559881
  0
VERTEX
  8
0
 10
39230.08099724377
 20
-6280.112526687365
  0
VERTEX
  8
0
 10
39228.85796903455
 20
-6280.46704442223
  0
VERTEX
  8
0
 10
39227.63073141435
 20
-6280.808709407337
  0
VERTEX
  8
0
 10
39226.3995165032
 20
-6281.138113285544
  0
VERTEX
  8
0
 10
39225.16455642112
 20
-6281.455847699707
  0
VERTEX
  8
0
 10
39223.92608328813
 20
-6281.762504292686
  0
VERTEX
  8
0
 10
39222.68432922426
 20
-6282.058674707337
  0
VERTEX
  8
0
 10
39221.4395263495
 20
-6282.344950586519
  0
VERTEX
  8
0
 10
39220.1919067839
 20
-6282.621923573091
  0
VERTEX
  8
0
 10
39218.94170264748
 20
-6282.890185309911
  0
VERTEX
  8
0
 10
39217.68914606024
 20
-6283.150327439836
  0
VERTEX
  8
0
 10
39216.43446914222
 20
-6283.402941605726
  0
VERTEX
  8
0
 10
39215.17790401342
 20
-6283.648619450435
  0
VERTEX
  8
0
 10
39213.91968279389
 20
-6283.887952616825
  0
VERTEX
  8
0
 10
39212.66003760363
 20
-6284.121532747753
  0
VERTEX
  8
0
 10
39211.39920056266
 20
-6284.349951486076
  0
VERTEX
  8
0
 10
39210.13740379101
 20
-6284.573800474653
  0
VERTEX
  8
0
 10
39208.87487940869
 20
-6284.793671356341
  0
VERTEX
  8
0
 10
39207.61185953574
 20
-6285.010155774
  0
VERTEX
  8
0
 10
39206.34857629216
 20
-6285.223845370487
  0
VERTEX
  8
0
 10
39205.08526065107
 20
-6285.43532910954
  0
VERTEX
  8
0
 10
39203.82205855291
 20
-6285.644997321337
  0
VERTEX
  8
0
 10
39202.55897385449
 20
-6285.8529084335
  0
VERTEX
  8
0
 10
39201.29599690416
 20
-6286.059089318323
  0
VERTEX
  8
0
 10
39200.03311805028
 20
-6286.263566848092
  0
VERTEX
  8
0
 10
39198.77032764121
 20
-6286.466367895096
  0
VERTEX
  8
0
 10
39197.50761602529
 20
-6286.667519331625
  0
VERTEX
  8
0
 10
39196.24497355089
 20
-6286.867048029968
  0
VERTEX
  8
0
 10
39194.98239056635
 20
-6287.064980862415
  0
VERTEX
  8
0
 10
39193.71985742003
 20
-6287.261344701255
  0
VERTEX
  8
0
 10
39192.45736446029
 20
-6287.456166418776
  0
VERTEX
  8
0
 10
39191.19490203548
 20
-6287.649472887268
  0
VERTEX
  8
0
 10
39189.93246049395
 20
-6287.84129097902
  0
VERTEX
  8
0
 10
39188.67003018405
 20
-6288.031647566322
  0
VERTEX
  8
0
 10
39187.40760145415
 20
-6288.220569521462
  0
VERTEX
  8
0
 10
39186.14516465259
 20
-6288.40808371673
  0
VERTEX
  8
0
 10
39184.88271012773
 20
-6288.594217024415
  0
VERTEX
  8
0
 10
39183.62022822792
 20
-6288.778996316807
  0
VERTEX
  8
0
 10
39182.35770930152
 20
-6288.962448466192
  0
VERTEX
  8
0
 10
39181.09514369688
 20
-6289.144600344864
  0
VERTEX
  8
0
 10
39179.83252176236
 20
-6289.325478825108
  0
VERTEX
  8
0
 10
39178.56983384631
 20
-6289.505110779216
  0
VERTEX
  8
0
 10
39177.30707029708
 20
-6289.683523079476
  0
VERTEX
  8
0
 10
39176.04422146303
 20
-6289.860742598176
  0
VERTEX
  8
0
 10
39174.78127769251
 20
-6290.036796207607
  0
VERTEX
  8
0
 10
39173.51822933388
 20
-6290.211710780059
  0
VERTEX
  8
0
 10
39172.25506673548
 20
-6290.385513187818
  0
VERTEX
  8
0
 10
39170.99178024568
 20
-6290.558230303176
  0
VERTEX
  8
0
 10
39169.72836021284
 20
-6290.729888998422
  0
VERTEX
  8
0
 10
39168.46479698529
 20
-6290.900516145843
  0
VERTEX
  8
0
 10
39167.2010809114
 20
-6291.070138617731
  0
VERTEX
  8
0
 10
39165.93720233952
 20
-6291.238783286372
  0
VERTEX
  8
0
 10
39164.673151618
 20
-6291.406477024059
  0
VERTEX
  8
0
 10
39163.4089190952
 20
-6291.573246703078
  0
VERTEX
  8
0
 10
39162.14449511948
 20
-6291.739119195719
  0
VERTEX
  8
0
 10
39160.87987003919
 20
-6291.904121374273
  0
VERTEX
  8
0
 10
39159.61503426747
 20
-6292.06827985954
  0
VERTEX
  8
0
 10
39158.34998246673
 20
-6292.231604781839
  0
VERTEX
  8
0
 10
39157.08471610208
 20
-6292.394079871208
  0
VERTEX
  8
0
 10
39155.81923724993
 20
-6292.555686485595
  0
VERTEX
  8
0
 10
39154.55354798661
 20
-6292.716405982945
  0
VERTEX
  8
0
 10
39153.28765038853
 20
-6292.876219721205
  0
VERTEX
  8
0
 10
39152.02154653204
 20
-6293.035109058321
  0
VERTEX
  8
0
 10
39150.75523849352
 20
-6293.19305535224
  0
VERTEX
  8
0
 10
39149.48872834936
 20
-6293.350039960908
  0
VERTEX
  8
0
 10
39148.2220181759
 20
-6293.506044242273
  0
VERTEX
  8
0
 10
39146.95511004955
 20
-6293.66104955428
  0
VERTEX
  8
0
 10
39145.68800604666
 20
-6293.815037254876
  0
VERTEX
  8
0
 10
39144.42070824362
 20
-6293.967988702007
  0
VERTEX
  8
0
 10
39143.15321871678
 20
-6294.119885253622
  0
VERTEX
  8
0
 10
39141.88553954253
 20
-6294.270708267663
  0
VERTEX
  8
0
 10
39140.61767279725
 20
-6294.420439102079
  0
VERTEX
  8
0
 10
39139.3496205573
 20
-6294.569059114819
  0
VERTEX
  8
0
 10
39138.08138489905
 20
-6294.716549663825
  0
VERTEX
  8
0
 10
39136.81296789889
 20
-6294.862892107046
  0
VERTEX
  8
0
 10
39135.54437163318
 20
-6295.008067802428
  0
VERTEX
  8
0
 10
39134.2755981783
 20
-6295.152058107918
  0
VERTEX
  8
0
 10
39133.00664961063
 20
-6295.29484438146
  0
VERTEX
  8
0
 10
39131.73752800652
 20
-6295.436407981005
  0
VERTEX
  8
0
 10
39130.46823544236
 20
-6295.576730264495
  0
VERTEX
  8
0
 10
39129.19877399453
 20
-6295.71579258988
  0
VERTEX
  8
0
 10
39127.9291457394
 20
-6295.853576315104
  0
VERTEX
  8
0
 10
39126.65935275333
 20
-6295.990062798115
  0
VERTEX
  8
0
 10
39125.3893971127
 20
-6296.125233396859
  0
VERTEX
  8
0
 10
39124.1192808939
 20
-6296.259069469283
  0
VERTEX
  8
0
 10
39122.84900617329
 20
-6296.391552373333
  0
VERTEX
  8
0
 10
39121.57857502723
 20
-6296.522663466954
  0
VERTEX
  8
0
 10
39120.30798953211
 20
-6296.652384108095
  0
VERTEX
  8
0
 10
39119.0372517643
 20
-6296.780695654702
  0
VERTEX
  8
0
 10
39117.76636380018
 20
-6296.907579464721
  0
VERTEX
  8
0
 10
39116.49532771611
 20
-6297.033016896098
  0
VERTEX
  8
0
 10
39115.22414558849
 20
-6297.15698930678
  0
VERTEX
  8
0
 10
39113.95281949365
 20
-6297.279478054715
  0
VERTEX
  8
0
 10
39112.681351508
 20
-6297.400464497846
  0
VERTEX
  8
0
 10
39111.4097437079
 20
-6297.519929994122
  0
VERTEX
  8
0
 10
39110.13799816972
 20
-6297.63785590149
  0
VERTEX
  8
0
 10
39108.86611696984
 20
-6297.754223577896
  0
VERTEX
  8
0
 10
39107.59410218464
 20
-6297.869014381285
  0
VERTEX
  8
0
 10
39106.32195589048
 20
-6297.982209669604
  0
VERTEX
  8
0
 10
39105.04968016374
 20
-6298.093790800801
  0
VERTEX
  8
0
 10
39103.77727708079
 20
-6298.203739132821
  0
VERTEX
  8
0
 10
39102.50474871801
 20
-6298.312036023613
  0
VERTEX
  8
0
 10
39101.23209715177
 20
-6298.418662831119
  0
VERTEX
  8
0
 10
39099.95932445845
 20
-6298.52360091329
  0
VERTEX
  8
0
 10
39098.6864327144
 20
-6298.626831628068
  0
VERTEX
  8
0
 10
39097.41342399601
 20
-6298.728336333405
  0
VERTEX
  8
0
 10
39096.14030037967
 20
-6298.828096387243
  0
VERTEX
  8
0
 10
39094.86706394173
 20
-6298.926093147531
  0
VERTEX
  8
0
 10
39093.59371675856
 20
-6299.022307972215
  0
VERTEX
  8
0
 10
39092.32026090656
 20
-6299.11672221924
  0
VERTEX
  8
0
 10
39091.04669846207
 20
-6299.209317246553
  0
VERTEX
  8
0
 10
39089.77303150149
 20
-6299.300074412102
  0
VERTEX
  8
0
 10
39088.49926210119
 20
-6299.388975073834
  0
VERTEX
  8
0
 10
39087.22539233754
 20
-6299.476000589692
  0
VERTEX
  8
0
 10
39085.9514242869
 20
-6299.561132317624
  0
VERTEX
  8
0
 10
39084.67736002566
 20
-6299.64435161558
  0
VERTEX
  8
0
 10
39083.40320163019
 20
-6299.725639841502
  0
VERTEX
  8
0
 10
39082.12895117687
 20
-6299.804978353338
  0
VERTEX
  8
0
 10
39080.85461074206
 20
-6299.882348509036
  0
VERTEX
  8
0
 10
39079.58018240214
 20
-6299.957731666539
  0
VERTEX
  8
0
 10
39078.30566823348
 20
-6300.031109183798
  0
VERTEX
  8
0
 10
39077.03107031246
 20
-6300.102462418755
  0
VERTEX
  8
0
 10
39075.75639071545
 20
-6300.17177272936
  0
VERTEX
  8
0
 10
39074.48163151881
 20
-6300.239021473558
  0
VERTEX
  8
0
 10
39073.20679476069
 20
-6300.304194390599
  0
VERTEX
  8
0
 10
39071.93188215425
 20
-6300.367314445266
  0
VERTEX
  8
0
 10
39070.65689524866
 20
-6300.428423391315
  0
VERTEX
  8
0
 10
39069.38183559182
 20
-6300.487563126846
  0
VERTEX
  8
0
 10
39068.10670473162
 20
-6300.544775549954
  0
VERTEX
  8
0
 10
39066.83150421596
 20
-6300.600102558744
  0
VERTEX
  8
0
 10
39065.55623559274
 20
-6300.653586051312
  0
VERTEX
  8
0
 10
39064.28090040985
 20
-6300.705267925756
  0
VERTEX
  8
0
 10
39063.00550021521
 20
-6300.755190080176
  0
VERTEX
  8
0
 10
39061.73003655671
 20
-6300.803394412671
  0
VERTEX
  8
0
 10
39060.45451098224
 20
-6300.84992282134
  0
VERTEX
  8
0
 10
39059.17892503973
 20
-6300.894817204282
  0
VERTEX
  8
0
 10
39057.90328027703
 20
-6300.938119459596
  0
VERTEX
  8
0
 10
39056.62757824208
 20
-6300.97987148538
  0
VERTEX
  8
0
 10
39055.35182048276
 20
-6301.020115179735
  0
VERTEX
  8
0
 10
39054.07600854697
 20
-6301.058892440758
  0
VERTEX
  8
0
 10
39052.80014398261
 20
-6301.096245166548
  0
VERTEX
  8
0
 10
39051.52422833758
 20
-6301.132215255207
  0
VERTEX
  8
0
 10
39050.2482631598
 20
-6301.166844604829
  0
VERTEX
  8
0
 10
39048.97224999713
 20
-6301.200175113516
  0
VERTEX
  8
0
 10
39047.6961903975
 20
-6301.232248679367
  0
VERTEX
  8
0
 10
39046.4200859088
 20
-6301.263107200481
  0
VERTEX
  8
0
 10
39045.14393807893
 20
-6301.292792574955
  0
VERTEX
  8
0
 10
39043.86774845578
 20
-6301.321346700891
  0
VERTEX
  8
0
 10
39042.59151858727
 20
-6301.348811476386
  0
VERTEX
  8
0
 10
39041.31525002126
 20
-6301.375228799538
  0
VERTEX
  8
0
 10
39040.03894430568
 20
-6301.400640568449
  0
VERTEX
  8
0
 10
39038.76260298845
 20
-6301.425088681217
  0
VERTEX
  8
0
 10
39037.48622761742
 20
-6301.448615035938
  0
VERTEX
  8
0
 10
39036.20981974051
 20
-6301.471261530714
  0
VERTEX
  8
0
 10
39034.93338090563
 20
-6301.493070063645
  0
VERTEX
  8
0
 10
39033.65691266068
 20
-6301.514082532826
  0
VERTEX
  8
0
 10
39032.38041655353
 20
-6301.534340836359
  0
VERTEX
  8
0
 10
39031.10389413211
 20
-6301.553886872341
  0
VERTEX
  8
0
 10
39029.82734694431
 20
-6301.572762538873
  0
VERTEX
  8
0
 10
39028.55077653802
 20
-6301.591009734053
  0
VERTEX
  8
0
 10
39027.27418446114
 20
-6301.608670355979
  0
VERTEX
  8
0
 10
39025.9975722616
 20
-6301.625786302752
  0
VERTEX
  8
0
 10
39024.72094148726
 20
-6301.64239947247
  0
VERTEX
  8
0
 10
39023.44429368602
 20
-6301.658551763232
  0
VERTEX
  8
0
 10
39022.16763040582
 20
-6301.674285073136
  0
VERTEX
  8
0
 10
39020.89095319452
 20
-6301.689641300282
  0
VERTEX
  8
0
 10
39019.61426360002
 20
-6301.704662342768
  0
VERTEX
  8
0
 10
39018.33756317024
 20
-6301.719390098695
  0
VERTEX
  8
0
 10
39017.06085345308
 20
-6301.733866466161
  0
VERTEX
  8
0
 10
39015.78413599641
 20
-6301.748133343264
  0
VERTEX
  8
0
 10
39014.50741234816
 20
-6301.762232628104
  0
VERTEX
  8
0
 10
39013.23068405623
 20
-6301.776206218778
  0
VERTEX
  8
0
 10
39011.95395266848
 20
-6301.790096013387
  0
VERTEX
  8
0
 10
39010.67721973285
 20
-6301.803943910031
  0
VERTEX
  8
0
 10
39009.40048679723
 20
-6301.790096013387
  0
VERTEX
  8
0
 10
39008.12375540948
 20
-6301.776206218778
  0
VERTEX
  8
0
 10
39006.84702711755
 20
-6301.762232628104
  0
VERTEX
  8
0
 10
39005.57030346929
 20
-6301.748133343264
  0
VERTEX
  8
0
 10
39004.29358601262
 20
-6301.733866466161
  0
VERTEX
  8
0
 10
39003.01687629546
 20
-6301.719390098695
  0
VERTEX
  8
0
 10
39001.74017586569
 20
-6301.704662342768
  0
VERTEX
  8
0
 10
39000.46348627119
 20
-6301.689641300282
  0
VERTEX
  8
0
 10
38999.18680905989
 20
-6301.674285073136
  0
VERTEX
  8
0
 10
38997.91014577969
 20
-6301.658551763232
  0
VERTEX
  8
0
 10
38996.63349797845
 20
-6301.64239947247
  0
VERTEX
  8
0
 10
38995.35686720411
 20
-6301.625786302752
  0
VERTEX
  8
0
 10
38994.08025500456
 20
-6301.608670355979
  0
VERTEX
  8
0
 10
38992.80366292769
 20
-6301.591009734053
  0
VERTEX
  8
0
 10
38991.5270925214
 20
-6301.572762538873
  0
VERTEX
  8
0
 10
38990.2505453336
 20
-6301.553886872341
  0
VERTEX
  8
0
 10
38988.97402291217
 20
-6301.534340836359
  0
VERTEX
  8
0
 10
38987.69752680503
 20
-6301.514082532826
  0
VERTEX
  8
0
 10
38986.42105856007
 20
-6301.493070063645
  0
VERTEX
  8
0
 10
38985.14461972519
 20
-6301.471261530714
  0
VERTEX
  8
0
 10
38983.86821184829
 20
-6301.448615035938
  0
VERTEX
  8
0
 10
38982.59183647726
 20
-6301.425088681217
  0
VERTEX
  8
0
 10
38981.31549516002
 20
-6301.400640568449
  0
VERTEX
  8
0
 10
38980.03918944445
 20
-6301.375228799538
  0
VERTEX
  8
0
 10
38978.76292087844
 20
-6301.348811476386
  0
VERTEX
  8
0
 10
38977.48669100993
 20
-6301.321346700891
  0
VERTEX
  8
0
 10
38976.21050138678
 20
-6301.292792574955
  0
VERTEX
  8
0
 10
38974.93435355691
 20
-6301.263107200481
  0
VERTEX
  8
0
 10
38973.6582490682
 20
-6301.232248679367
  0
VERTEX
  8
0
 10
38972.38218946858
 20
-6301.200175113516
  0
VERTEX
  8
0
 10
38971.1061763059
 20
-6301.166844604829
  0
VERTEX
  8
0
 10
38969.83021112812
 20
-6301.132215255207
  0
VERTEX
  8
0
 10
38968.5542954831
 20
-6301.096245166548
  0
VERTEX
  8
0
 10
38967.27843091874
 20
-6301.058892440758
  0
VERTEX
  8
0
 10
38966.00261898295
 20
-6301.020115179735
  0
VERTEX
  8
0
 10
38964.72686122363
 20
-6300.97987148538
  0
VERTEX
  8
0
 10
38963.45115918868
 20
-6300.938119459596
  0
VERTEX
  8
0
 10
38962.17551442598
 20
-6300.894817204282
  0
VERTEX
  8
0
 10
38960.89992848346
 20
-6300.84992282134
  0
VERTEX
  8
0
 10
38959.62440290899
 20
-6300.803394412671
  0
VERTEX
  8
0
 10
38958.34893925049
 20
-6300.755190080176
  0
VERTEX
  8
0
 10
38957.07353905585
 20
-6300.705267925756
  0
VERTEX
  8
0
 10
38955.79820387297
 20
-6300.653586051312
  0
VERTEX
  8
0
 10
38954.52293524975
 20
-6300.600102558744
  0
VERTEX
  8
0
 10
38953.24773473409
 20
-6300.544775549954
  0
VERTEX
  8
0
 10
38951.97260387388
 20
-6300.487563126846
  0
VERTEX
  8
0
 10
38950.69754421704
 20
-6300.428423391315
  0
VERTEX
  8
0
 10
38949.42255731145
 20
-6300.367314445266
  0
VERTEX
  8
0
 10
38948.14764470502
 20
-6300.304194390599
  0
VERTEX
  8
0
 10
38946.8728079469
 20
-6300.239021473558
  0
VERTEX
  8
0
 10
38945.59804875026
 20
-6300.171772729359
  0
VERTEX
  8
0
 10
38944.32336915325
 20
-6300.102462418755
  0
VERTEX
  8
0
 10
38943.04877123223
 20
-6300.031109183797
  0
VERTEX
  8
0
 10
38941.77425706357
 20
-6299.957731666539
  0
VERTEX
  8
0
 10
38940.49982872365
 20
-6299.882348509036
  0
VERTEX
  8
0
 10
38939.22548828884
 20
-6299.804978353338
  0
VERTEX
  8
0
 10
38937.95123783551
 20
-6299.725639841502
  0
VERTEX
  8
0
 10
38936.67707944004
 20
-6299.64435161558
  0
VERTEX
  8
0
 10
38935.4030151788
 20
-6299.561132317624
  0
VERTEX
  8
0
 10
38934.12904712817
 20
-6299.476000589692
  0
VERTEX
  8
0
 10
38932.85517736452
 20
-6299.388975073833
  0
VERTEX
  8
0
 10
38931.58140796421
 20
-6299.300074412102
  0
VERTEX
  8
0
 10
38930.30774100363
 20
-6299.209317246553
  0
VERTEX
  8
0
 10
38929.03417855915
 20
-6299.11672221924
  0
VERTEX
  8
0
 10
38927.76072270715
 20
-6299.022307972215
  0
VERTEX
  8
0
 10
38926.48737552398
 20
-6298.926093147531
  0
VERTEX
  8
0
 10
38925.21413908604
 20
-6298.828096387243
  0
VERTEX
  8
0
 10
38923.94101546969
 20
-6298.728336333405
  0
VERTEX
  8
0
 10
38922.66800675131
 20
-6298.626831628068
  0
VERTEX
  8
0
 10
38921.39511500726
 20
-6298.52360091329
  0
VERTEX
  8
0
 10
38920.12234231394
 20
-6298.418662831119
  0
VERTEX
  8
0
 10
38918.84969074769
 20
-6298.312036023613
  0
VERTEX
  8
0
 10
38917.57716238491
 20
-6298.203739132821
  0
VERTEX
  8
0
 10
38916.30475930197
 20
-6298.093790800801
  0
VERTEX
  8
0
 10
38915.03248357523
 20
-6297.982209669604
  0
VERTEX
  8
0
 10
38913.76033728107
 20
-6297.869014381285
  0
VERTEX
  8
0
 10
38912.48832249586
 20
-6297.754223577896
  0
VERTEX
  8
0
 10
38911.21644129598
 20
-6297.637855901489
  0
VERTEX
  8
0
 10
38909.94469575781
 20
-6297.519929994122
  0
VERTEX
  8
0
 10
38908.67308795771
 20
-6297.400464497846
  0
VERTEX
  8
0
 10
38907.40161997205
 20
-6297.279478054715
  0
VERTEX
  8
0
 10
38906.13029387722
 20
-6297.15698930678
  0
VERTEX
  8
0
 10
38904.85911174959
 20
-6297.033016896098
  0
VERTEX
  8
0
 10
38903.58807566552
 20
-6296.907579464721
  0
VERTEX
  8
0
 10
38902.3171877014
 20
-6296.780695654702
  0
VERTEX
  8
0
 10
38901.04644993359
 20
-6296.652384108095
  0
VERTEX
  8
0
 10
38899.77586443847
 20
-6296.522663466954
  0
VERTEX
  8
0
 10
38898.50543329242
 20
-6296.391552373332
  0
VERTEX
  8
0
 10
38897.23515857181
 20
-6296.259069469283
  0
VERTEX
  8
0
 10
38895.965042353
 20
-6296.125233396859
  0
VERTEX
  8
0
 10
38894.69508671237
 20
-6295.990062798115
  0
VERTEX
  8
0
 10
38893.42529372631
 20
-6295.853576315104
  0
VERTEX
  8
0
 10
38892.15566547117
 20
-6295.715792589879
  0
VERTEX
  8
0
 10
38890.88620402334
 20
-6295.576730264495
  0
VERTEX
  8
0
 10
38889.61691145918
 20
-6295.436407981004
  0
VERTEX
  8
0
 10
38888.34778985508
 20
-6295.29484438146
  0
VERTEX
  8
0
 10
38887.0788412874
 20
-6295.152058107917
  0
VERTEX
  8
0
 10
38885.81006783253
 20
-6295.008067802428
  0
VERTEX
  8
0
 10
38884.54147156681
 20
-6294.862892107046
  0
VERTEX
  8
0
 10
38883.27305456666
 20
-6294.716549663824
  0
VERTEX
  8
0
 10
38882.0048189084
 20
-6294.569059114818
  0
VERTEX
  8
0
 10
38880.73676666846
 20
-6294.420439102079
  0
VERTEX
  8
0
 10
38879.46889992317
 20
-6294.270708267662
  0
VERTEX
  8
0
 10
38878.20122074892
 20
-6294.119885253621
  0
VERTEX
  8
0
 10
38876.93373122209
 20
-6293.967988702007
  0
VERTEX
  8
0
 10
38875.66643341904
 20
-6293.815037254876
  0
VERTEX
  8
0
 10
38874.39932941615
 20
-6293.66104955428
  0
VERTEX
  8
0
 10
38873.1324212898
 20
-6293.506044242273
  0
VERTEX
  8
0
 10
38871.86571111635
 20
-6293.350039960908
  0
VERTEX
  8
0
 10
38870.59920097218
 20
-6293.19305535224
  0
VERTEX
  8
0
 10
38869.33289293367
 20
-6293.03510905832
  0
VERTEX
  8
0
 10
38868.06678907718
 20
-6292.876219721205
  0
VERTEX
  8
0
 10
38866.80089147909
 20
-6292.716405982944
  0
VERTEX
  8
0
 10
38865.53520221578
 20
-6292.555686485594
  0
VERTEX
  8
0
 10
38864.26972336363
 20
-6292.394079871208
  0
VERTEX
  8
0
 10
38863.00445699898
 20
-6292.231604781839
  0
VERTEX
  8
0
 10
38861.73940519823
 20
-6292.068279859539
  0
VERTEX
  8
0
 10
38860.47456942652
 20
-6291.904121374272
  0
VERTEX
  8
0
 10
38859.20994434622
 20
-6291.739119195719
  0
VERTEX
  8
0
 10
38857.9455203705
 20
-6291.573246703078
  0
VERTEX
  8
0
 10
38856.6812878477
 20
-6291.406477024058
  0
VERTEX
  8
0
 10
38855.41723712619
 20
-6291.238783286372
  0
VERTEX
  8
0
 10
38854.15335855431
 20
-6291.07013861773
  0
VERTEX
  8
0
 10
38852.88964248042
 20
-6290.900516145843
  0
VERTEX
  8
0
 10
38851.62607925287
 20
-6290.729888998421
  0
VERTEX
  8
0
 10
38850.36265922002
 20
-6290.558230303176
  0
VERTEX
  8
0
 10
38849.09937273022
 20
-6290.385513187818
  0
VERTEX
  8
0
 10
38847.83621013183
 20
-6290.211710780058
  0
VERTEX
  8
0
 10
38846.57316177319
 20
-6290.036796207607
  0
VERTEX
  8
0
 10
38845.31021800267
 20
-6289.860742598175
  0
VERTEX
  8
0
 10
38844.04736916862
 20
-6289.683523079475
  0
VERTEX
  8
0
 10
38842.7846056194
 20
-6289.505110779216
  0
VERTEX
  8
0
 10
38841.52191770334
 20
-6289.325478825108
  0
VERTEX
  8
0
 10
38840.25929576882
 20
-6289.144600344863
  0
VERTEX
  8
0
 10
38838.99673016418
 20
-6288.962448466192
  0
VERTEX
  8
0
 10
38837.73421123779
 20
-6288.778996316805
  0
VERTEX
  8
0
 10
38836.47172933797
 20
-6288.594217024414
  0
VERTEX
  8
0
 10
38835.20927481312
 20
-6288.408083716729
  0
VERTEX
  8
0
 10
38833.94683801156
 20
-6288.220569521462
  0
VERTEX
  8
0
 10
38832.68440928165
 20
-6288.031647566321
  0
VERTEX
  8
0
 10
38831.42197897176
 20
-6287.84129097902
  0
VERTEX
  8
0
 10
38830.15953743023
 20
-6287.649472887268
  0
VERTEX
  8
0
 10
38828.89707500541
 20
-6287.456166418775
  0
VERTEX
  8
0
 10
38827.63458204567
 20
-6287.261344701254
  0
VERTEX
  8
0
 10
38826.37204889936
 20
-6287.064980862415
  0
VERTEX
  8
0
 10
38825.10946591481
 20
-6286.867048029967
  0
VERTEX
  8
0
 10
38823.84682344041
 20
-6286.667519331624
  0
VERTEX
  8
0
 10
38822.58411182449
 20
-6286.466367895095
  0
VERTEX
  8
0
 10
38821.32132141542
 20
-6286.263566848091
  0
VERTEX
  8
0
 10
38820.05844256155
 20
-6286.059089318323
  0
VERTEX
  8
0
 10
38818.79546561122
 20
-6285.8529084335
  0
VERTEX
  8
0
 10
38817.53238091279
 20
-6285.644997321336
  0
VERTEX
  8
0
 10
38816.26917881463
 20
-6285.43532910954
  0
VERTEX
  8
0
 10
38815.00586317354
 20
-6285.223845370487
  0
VERTEX
  8
0
 10
38813.74257992997
 20
-6285.010155774
  0
VERTEX
  8
0
 10
38812.47956005701
 20
-6284.79367135634
  0
VERTEX
  8
0
 10
38811.21703567469
 20
-6284.573800474652
  0
VERTEX
  8
0
 10
38809.95523890304
 20
-6284.349951486075
  0
VERTEX
  8
0
 10
38808.69440186208
 20
-6284.121532747752
  0
VERTEX
  8
0
 10
38807.43475667181
 20
-6283.887952616825
  0
VERTEX
  8
0
 10
38806.17653545228
 20
-6283.648619450435
  0
VERTEX
  8
0
 10
38804.91997032348
 20
-6283.402941605725
  0
VERTEX
  8
0
 10
38803.66529340546
 20
-6283.150327439836
  0
VERTEX
  8
0
 10
38802.41273681823
 20
-6282.890185309911
  0
VERTEX
  8
0
 10
38801.1625326818
 20
-6282.621923573091
  0
VERTEX
  8
0
 10
38799.9149131162
 20
-6282.344950586519
  0
VERTEX
  8
0
 10
38798.67011024145
 20
-6282.058674707336
  0
VERTEX
  8
0
 10
38797.42835617757
 20
-6281.762504292684
  0
VERTEX
  8
0
 10
38796.18988304458
 20
-6281.455847699705
  0
VERTEX
  8
0
 10
38794.9549229625
 20
-6281.138113285542
  0
VERTEX
  8
0
 10
38793.72370805135
 20
-6280.808709407336
  0
VERTEX
  8
0
 10
38792.49647043116
 20
-6280.467044422229
  0
VERTEX
  8
0
 10
38791.27344222193
 20
-6280.112526687363
  0
VERTEX
  8
0
 10
38790.05485554371
 20
-6279.74456455988
  0
VERTEX
  8
0
 10
38788.84094251649
 20
-6279.362566396921
  0
VERTEX
  8
0
 10
38787.63193523817
 20
-6278.965940616876
  0
VERTEX
  8
0
 10
38786.42796739498
 20
-6278.554367930662
  0
VERTEX
  8
0
 10
38785.22884823949
 20
-6278.128426715693
  0
VERTEX
  8
0
 10
38784.03432026332
 20
-6277.688880068442
  0
VERTEX
  8
0
 10
38782.84412595811
 20
-6277.23649108538
  0
VERTEX
  8
0
 10
38781.65800781547
 20
-6276.772022862981
  0
VERTEX
  8
0
 10
38780.47570832705
 20
-6276.296238497714
  0
VERTEX
  8
0
 10
38779.29696998445
 20
-6275.809901086053
  0
VERTEX
  8
0
 10
38778.12153527931
 20
-6275.313773724471
  0
VERTEX
  8
0
 10
38776.94914670325
 20
-6274.808619509438
  0
VERTEX
  8
0
 10
38775.7795467479
 20
-6274.295201537429
  0
VERTEX
  8
0
 10
38774.61247790489
 20
-6273.774282904916
  0
VERTEX
  8
0
 10
38773.44768266583
 20
-6273.246626708368
  0
VERTEX
  8
0
 10
38772.28490352236
 20
-6272.712996044261
  0
VERTEX
  8
0
 10
38771.12388296609
 20
-6272.174154009066
  0
VERTEX
  8
0
 10
38769.96436348867
 20
-6271.630863699254
  0
VERTEX
  8
0
 10
38768.80608758172
 20
-6271.083888211299
  0
VERTEX
  8
0
 10
38767.64879773684
 20
-6270.533990641673
  0
VERTEX
  8
0
 10
38766.49223644568
 20
-6269.981934086847
  0
VERTEX
  8
0
 10
38765.33614619986
 20
-6269.428481643293
  0
VERTEX
  8
0
 10
38763.91828802691
 20
-6268.842990637854
  0
VERTEX
  8
0
 10
38761.56257347798
 20
-6270.070522932527
  0
VERTEX
  8
0
 10
38761.0712216848
 20
-6302.285010228823
  0
VERTEX
  8
0
 10
38762.51014939205
 20
-6307.365865300869
  0
VERTEX
  8
0
 10
38765.47879570843
 20
-6306.763946726426
  0
SEQEND
  8
0
  0
POLYLINE
  8
0
 66
     1
  0
VERTEX
  8
0
 10
39255.64723306552
 20
-6275.428303750268
  0
VERTEX
  8
0
 10
39251.55436924495
 20
-6277.177732139245
  0
VERTEX
  8
0
 10
39247.45244140826
 20
-6278.895907838308
  0
VERTEX
  8
0
 10
39243.33520805441
 20
-6280.561310177671
  0
VERTEX
  8
0
 10
39239.1964276823
 20
-6282.152418487547
  0
VERTEX
  8
0
 10
39235.02985879088
 20
-6283.647712098149
  0
VERTEX
  8
0
 10
39230.82925987905
 20
-6285.02567033969
  0
VERTEX
  8
0
 10
39226.58851479234
 20
-6286.265190045513
  0
VERTEX
  8
0
 10
39222.30658820448
 20
-6287.362091222106
  0
VERTEX
  8
0
 10
39217.98916787051
 20
-6288.334587049377
  0
VERTEX
  8
0
 10
39213.64240344018
 20
-6289.202429181792
  0
VERTEX
  8
0
 10
39209.27244456328
 20
-6289.985369273813
  0
VERTEX
  8
0
 10
39204.88544088961
 20
-6290.703158979908
  0
VERTEX
  8
0
 10
39200.48754206891
 20
-6291.37554995454
  0
VERTEX
  8
0
 10
39196.08489775098
 20
-6292.022293852176
  0
VERTEX
  8
0
 10
39191.68317679262
 20
-6292.661599200143
  0
VERTEX
  8
0
 10
39187.28402616449
 20
-6293.298766097361
  0
VERTEX
  8
0
 10
39182.88708902896
 20
-6293.932663328076
  0
VERTEX
  8
0
 10
39178.49199388762
 20
-6294.562112621922
  0
VERTEX
  8
0
 10
39174.09836924201
 20
-6295.18593570853
  0
VERTEX
  8
0
 10
39169.70584359372
 20
-6295.802954317539
  0
VERTEX
  8
0
 10
39165.31404544429
 20
-6296.411990178578
  0
VERTEX
  8
0
 10
39160.92260329529
 20
-6297.011865021284
  0
VERTEX
  8
0
 10
39156.53114564829
 20
-6297.60140057529
  0
VERTEX
  8
0
 10
39152.13930100485
 20
-6298.179418570231
  0
VERTEX
  8
0
 10
39147.74669786653
 20
-6298.74474073574
  0
VERTEX
  8
0
 10
39143.3529647349
 20
-6299.296188801452
  0
VERTEX
  8
0
 10
39138.95773011151
 20
-6299.832584497
  0
VERTEX
  8
0
 10
39134.56062249793
 20
-6300.352749552017
  0
VERTEX
  8
0
 10
39130.16127039574
 20
-6300.855505696141
  0
VERTEX
  8
0
 10
39125.75930230648
 20
-6301.339674659002
  0
VERTEX
  8
0
 10
39121.35434696531
 20
-6301.804078631953
  0
VERTEX
  8
0
 10
39116.94617336568
 20
-6302.247817036774
  0
VERTEX
  8
0
 10
39112.53492789945
 20
-6302.670735249978
  0
VERTEX
  8
0
 10
39108.12081978781
 20
-6303.072802834686
  0
VERTEX
  8
0
 10
39103.70405825195
 20
-6303.45398935402
  0
VERTEX
  8
0
 10
39099.28485251306
 20
-6303.814264371103
  0
VERTEX
  8
0
 10
39094.86341179233
 20
-6304.153597449062
  0
VERTEX
  8
0
 10
39090.43994531095
 20
-6304.471958151013
  0
VERTEX
  8
0
 10
39086.01466229011
 20
-6304.769316040084
  0
VERTEX
  8
0
 10
39081.587771951
 20
-6305.045640679396
  0
VERTEX
  8
0
 10
39077.15948351481
 20
-6305.300901632073
  0
VERTEX
  8
0
 10
39072.73000620273
 20
-6305.535068461237
  0
VERTEX
  8
0
 10
39068.29954923595
 20
-6305.748110730008
  0
VERTEX
  8
0
 10
39063.86832183566
 20
-6305.939998001514
  0
VERTEX
  8
0
 10
39059.43653322304
 20
-6306.110699838875
  0
VERTEX
  8
0
 10
39055.0043926193
 20
-6306.260185805214
  0
VERTEX
  8
0
 10
39050.57207754218
 20
-6306.388775938552
  0
VERTEX
  8
0
 10
39046.13963545088
 20
-6306.498228047309
  0
VERTEX
  8
0
 10
39041.7070804581
 20
-6306.590668578464
  0
VERTEX
  8
0
 10
39037.27442667654
 20
-6306.668223979223
  0
VERTEX
  8
0
 10
39032.84168821886
 20
-6306.733020696781
  0
VERTEX
  8
0
 10
39028.40887919777
 20
-6306.78718517834
  0
VERTEX
  8
0
 10
39023.97601372594
 20
-6306.832843871101
  0
VERTEX
  8
0
 10
39019.54310591605
 20
-6306.872123222262
  0
VERTEX
  8
0
 10
39015.1101698808
 20
-6306.907149679023
  0
VERTEX
  8
0
 10
39010.67721973285
 20
-6306.940049688584
  0
VERTEX
  8
0
 10
39006.24426958491
 20
-6306.907149679023
  0
VERTEX
  8
0
 10
39001.81133354965
 20
-6306.872123222262
  0
VERTEX
  8
0
 10
38997.37842573977
 20
-6306.832843871101
  0
VERTEX
  8
0
 10
38992.94556026794
 20
-6306.78718517834
  0
VERTEX
  8
0
 10
38988.51275124685
 20
-6306.733020696781
  0
VERTEX
  8
0
 10
38984.08001278917
 20
-6306.668223979223
  0
VERTEX
  8
0
 10
38979.64735900761
 20
-6306.590668578464
  0
VERTEX
  8
0
 10
38975.21480401483
 20
-6306.498228047309
  0
VERTEX
  8
0
 10
38970.78236192353
 20
-6306.388775938552
  0
VERTEX
  8
0
 10
38966.3500468464
 20
-6306.260185805214
  0
VERTEX
  8
0
 10
38961.91790624266
 20
-6306.110699838875
  0
VERTEX
  8
0
 10
38957.48611763005
 20
-6305.939998001514
  0
VERTEX
  8
0
 10
38953.05489022976
 20
-6305.748110730008
  0
VERTEX
  8
0
 10
38948.62443326298
 20
-6305.535068461237
  0
VERTEX
  8
0
 10
38944.19495595089
 20
-6305.300901632073
  0
VERTEX
  8
0
 10
38939.7666675147
 20
-6305.045640679396
  0
VERTEX
  8
0
 10
38935.3397771756
 20
-6304.769316040084
  0
VERTEX
  8
0
 10
38930.91449415476
 20
-6304.471958151013
  0
VERTEX
  8
0
 10
38926.49102767338
 20
-6304.153597449062
  0
VERTEX
  8
0
 10
38922.06958695265
 20
-6303.814264371103
  0
VERTEX
  8
0
 10
38917.65038121376
 20
-6303.45398935402
  0
VERTEX
  8
0
 10
38913.2336196779
 20
-6303.072802834686
  0
VERTEX
  8
0
 10
38908.81951156626
 20
-6302.670735249978
  0
VERTEX
  8
0
 10
38904.40826610003
 20
-6302.247817036774
  0
VERTEX
  8
0
 10
38900.0000925004
 20
-6301.804078631953
  0
VERTEX
  8
0
 10
38895.59513715923
 20
-6301.339674659002
  0
VERTEX
  8
0
 10
38891.19316906997
 20
-6300.855505696141
  0
VERTEX
  8
0
 10
38886.79381696777
 20
-6300.352749552017
  0
VERTEX
  8
0
 10
38882.39670935419
 20
-6299.832584497
  0
VERTEX
  8
0
 10
38878.00147473081
 20
-6299.296188801452
  0
VERTEX
  8
0
 10
38873.60774159917
 20
-6298.74474073574
  0
VERTEX
  8
0
 10
38869.21513846086
 20
-6298.179418570231
  0
VERTEX
  8
0
 10
38864.82329381742
 20
-6297.60140057529
  0
VERTEX
  8
0
 10
38860.43183617041
 20
-6297.011865021284
  0
VERTEX
  8
0
 10
38856.04039402142
 20
-6296.411990178578
  0
VERTEX
  8
0
 10
38851.64859587199
 20
-6295.802954317538
  0
VERTEX
  8
0
 10
38847.2560702237
 20
-6295.18593570853
  0
VERTEX
  8
0
 10
38842.86244557809
 20
-6294.562112621921
  0
VERTEX
  8
0
 10
38838.46735043675
 20
-6293.932663328076
  0
VERTEX
  8
0
 10
38834.07041330122
 20
-6293.298766097361
  0
VERTEX
  8
0
 10
38829.67126267308
 20
-6292.661599200143
  0
VERTEX
  8
0
 10
38825.26954171473
 20
-6292.022293852176
  0
VERTEX
  8
0
 10
38820.86689739679
 20
-6291.37554995454
  0
VERTEX
  8
0
 10
38816.4689985761
 20
-6290.703158979907
  0
VERTEX
  8
0
 10
38812.08199490242
 20
-6289.985369273813
  0
VERTEX
  8
0
 10
38807.71203602552
 20
-6289.202429181792
  0
VERTEX
  8
0
 10
38803.3652715952
 20
-6288.334587049377
  0
VERTEX
  8
0
 10
38799.04785126122
 20
-6287.362091222106
  0
VERTEX
  8
0
 10
38794.76592467337
 20
-6286.265190045513
  0
VERTEX
  8
0
 10
38790.52517958666
 20
-6285.025670339689
  0
VERTEX
  8
0
 10
38786.32458067483
 20
-6283.647712098148
  0
VERTEX
  8
0
 10
38782.15801178341
 20
-6282.152418487547
  0
VERTEX
  8
0
 10
38778.0192314113
 20
-6280.561310177671
  0
VERTEX
  8
0
 10
38773.90199805744
 20
-6278.895907838308
  0
VERTEX
  8
0
 10
38769.80007022076
 20
-6277.177732139245
  0
VERTEX
  8
0
 10
38765.70720640018
 20
-6275.428303750268
  0
SEQEND
  8
0
  0
POLYLINE
  8
0
 66
     1
  0
VERTEX
  8
0
 10
38765.70720640018
 20
-6275.428303750268
  0
VERTEX
  8
0
 10
38765.47879570841
 20
-6306.763946726426
 42
0.050515697709
  0
VERTEX
  8
0
 10
38767.95804291673
 20
-6319.094863622696
  0
SEQEND
  8
0
  0
ARC
  8
0
 10
26349.85833140292
 20
-6371.843965148018
 40
12409.32106776467
 50
358.647127948107
 51
359.894598429062
  0
ARC
  8
0
 10
51570.05250175192
 20
-6379.620283480339
 40
12842.8846125152
 50
178.660544178653
 51
181.272491144029
  0
ARC
  8
0
 10
26245.41835095517
 20
-6376.230381846138
 40
12513.7794550589
 50
0.248326061841
 51
1.3591173148
  0
LINE
  8
0
 10
38730.33511488675
 20
-6664.826517304068
 11
38755.7202759435
 21
-6664.82651730409
  0
POLYLINE
  8
0
 66
     1
  0
VERTEX
  8
0
 10
38730.09098515709
 20
-6105.624987304896
  0
VERTEX
  8
0
 10
38729.75078305348
 20
-6105.214363212991
  0
VERTEX
  8
0
 10
38729.40676477188
 20
-6104.807574069881
  0
VERTEX
  8
0
 10
38729.05779666485
 20
-6104.405759099121
  0
VERTEX
  8
0
 10
38728.70274508496
 20
-6104.010057524269
  0
VERTEX
  8
0
 10
38728.34047638476
 20
-6103.621608568877
  0
VERTEX
  8
0
 10
38727.96985720632
 20
-6103.241551188459
  0
VERTEX
  8
0
 10
38727.59012259649
 20
-6102.870683219423
  0
VERTEX
  8
0
 10
38727.20159733879
 20
-6102.508793472313
  0
VERTEX
  8
0
 10
38726.80480674599
 20
-6102.155485080536
  0
VERTEX
  8
0
 10
38726.4002761308
 20
-6101.8103611775
  0
VERTEX
  8
0
 10
38725.988530806
 20
-6101.473024896615
  0
VERTEX
  8
0
 10
38725.57009608431
 20
-6101.143079371289
  0
VERTEX
  8
0
 10
38725.14549727849
 20
-6100.820127734929
  0
VERTEX
  8
0
 10
38724.71525970129
 20
-6100.503773120943
  0
VERTEX
  8
0
 10
38724.27990866546
 20
-6100.193618662742
  0
VERTEX
  8
0
 10
38723.83996948373
 20
-6099.889267493731
  0
VERTEX
  8
0
 10
38723.39596746886
 20
-6099.590322747322
  0
VERTEX
  8
0
 10
38722.9484279336
 20
-6099.296387556921
  0
VERTEX
  8
0
 10
38722.49787619068
 20
-6099.007065055936
  0
VERTEX
  8
0
 10
38722.04483755286
 20
-6098.721958377776
  0
VERTEX
  8
0
 10
38721.5898373329
 20
-6098.440670655851
  0
VERTEX
  8
0
 10
38721.13336480343
 20
-6098.16282377996
  0
VERTEX
  8
0
 10
38720.67560136945
 20
-6097.888199863933
  0
VERTEX
  8
0
 10
38720.2165723482
 20
-6097.616662254574
  0
VERTEX
  8
0
 10
38719.75630183775
 20
-6097.348074933177
  0
VERTEX
  8
0
 10
38719.29481393616
 20
-6097.082301881035
  0
VERTEX
  8
0
 10
38718.83213274151
 20
-6096.819207079441
  0
VERTEX
  8
0
 10
38718.36828235188
 20
-6096.55865450969
  0
VERTEX
  8
0
 10
38717.90328686533
 20
-6096.300508153072
  0
VERTEX
  8
0
 10
38717.43717037995
 20
-6096.044631990884
  0
VERTEX
  8
0
 10
38716.96995699379
 20
-6095.790890004418
  0
VERTEX
  8
0
 10
38716.50167080495
 20
-6095.539146174966
  0
VERTEX
  8
0
 10
38716.03233591148
 20
-6095.289264483823
  0
VERTEX
  8
0
 10
38715.56197641145
 20
-6095.041108912283
  0
VERTEX
  8
0
 10
38715.09061640296
 20
-6094.794543441637
  0
VERTEX
  8
0
 10
38714.61828720431
 20
-6094.549436682036
  0
VERTEX
  8
0
 10
38714.1450627423
 20
-6094.30568455967
  0
VERTEX
  8
0
 10
38713.67103251885
 20
-6094.063192985838
  0
VERTEX
  8
0
 10
38713.19628605896
 20
-6093.82186788664
  0
VERTEX
  8
0
 10
38712.72091288763
 20
-6093.581615188172
  0
VERTEX
  8
0
 10
38712.24500252986
 20
-6093.342340816534
  0
VERTEX
  8
0
 10
38711.76864451063
 20
-6093.103950697824
  0
VERTEX
  8
0
 10
38711.29192835496
 20
-6092.86635075814
  0
VERTEX
  8
0
 10
38710.81494358784
 20
-6092.629446923583
  0
VERTEX
  8
0
 10
38710.33777973426
 20
-6092.39314512025
  0
VERTEX
  8
0
 10
38709.86052631924
 20
-6092.157351274238
  0
VERTEX
  8
0
 10
38709.38327286775
 20
-6091.921971311647
  0
VERTEX
  8
0
 10
38708.90610890481
 20
-6091.686911158577
  0
VERTEX
  8
0
 10
38708.42912395542
 20
-6091.452076741124
  0
VERTEX
  8
0
 10
38707.95240754456
 20
-6091.217373985387
  0
VERTEX
  8
0
 10
38707.47605018193
 20
-6090.982697889243
  0
VERTEX
  8
0
 10
38707.00016381311
 20
-6090.747705553346
  0
VERTEX
  8
0
 10
38706.524881167
 20
-6090.511823422807
  0
VERTEX
  8
0
 10
38706.05033582667
 20
-6090.274468463274
  0
VERTEX
  8
0
 10
38705.5766613752
 20
-6090.0350576404
  0
VERTEX
  8
0
 10
38705.10399139565
 20
-6089.793007919834
  0
VERTEX
  8
0
 10
38704.6324594711
 20
-6089.54773626723
  0
VERTEX
  8
0
 10
38704.16219918462
 20
-6089.298659648236
  0
VERTEX
  8
0
 10
38703.69334411928
 20
-6089.045195028504
  0
VERTEX
  8
0
 10
38703.22602785815
 20
-6088.786759373686
  0
VERTEX
  8
0
 10
38702.7603839843
 20
-6088.522769649433
  0
VERTEX
  8
0
 10
38702.2965460808
 20
-6088.252642821394
  0
VERTEX
  8
0
 10
38701.83557051051
 20
-6087.975061182474
  0
VERTEX
  8
0
 10
38701.38402694923
 20
-6087.684317591753
  0
VERTEX
  8
0
 10
38700.95052386415
 20
-6087.373081720977
  0
VERTEX
  8
0
 10
38700.54367300254
 20
-6087.034020630427
  0
VERTEX
  8
0
 10
38700.17175109474
 20
-6086.660109802544
  0
VERTEX
  8
0
 10
38699.83441890922
 20
-6086.252256716884
  0
VERTEX
  8
0
 10
38699.52218279608
 20
-6085.819796562044
  0
VERTEX
  8
0
 10
38699.22510627314
 20
-6085.372472205387
  0
VERTEX
  8
0
 10
38698.82446387683
 20
-6083.952512679704
  0
VERTEX
  8
0
 10
38698.3033120333
 20
-6081.460362518795
  0
VERTEX
  8
0
 10
38698.1323917932
 20
-6080.137158697982
  0
VERTEX
  8
0
 10
38698.2118715149
 20
-6079.610768890264
  0
VERTEX
  8
0
 10
38698.32498929042
 20
-6079.092385105004
  0
VERTEX
  8
0
 10
38698.47887940615
 20
-6078.584293398637
  0
VERTEX
  8
0
 10
38698.66868698158
 20
-6078.086431819486
  0
VERTEX
  8
0
 10
38698.88915066454
 20
-6077.598658810768
  0
VERTEX
  8
0
 10
38699.13500910278
 20
-6077.120832815704
  0
VERTEX
  8
0
 10
38699.40100094413
 20
-6076.65281227751
  0
VERTEX
  8
0
 10
38699.68190855813
 20
-6076.194454558979
  0
VERTEX
  8
0
 10
38699.97446329134
 20
-6075.745568861131
  0
VERTEX
  8
0
 10
38700.27808275494
 20
-6075.305898003842
  0
VERTEX
  8
0
 10
38700.59238051438
 20
-6074.875179964712
  0
VERTEX
  8
0
 10
38700.91697013513
 20
-6074.453152721334
  0
VERTEX
  8
0
 10
38701.25146518266
 20
-6074.039554251303
  0
VERTEX
  8
0
 10
38701.59547922244
 20
-6073.634122532216
  0
VERTEX
  8
0
 10
38701.9486258199
 20
-6073.236595541666
  0
VERTEX
  8
0
 10
38702.31051854054
 20
-6072.84671125725
  0
VERTEX
  8
0
 10
38702.6807709498
 20
-6072.464207656561
  0
VERTEX
  8
0
 10
38703.05899661315
 20
-6072.088822717198
  0
VERTEX
  8
0
 10
38703.44480909604
 20
-6071.720294416753
  0
VERTEX
  8
0
 10
38703.83782196396
 20
-6071.358360732823
  0
VERTEX
  8
0
 10
38704.23764878234
 20
-6071.002759643002
  0
VERTEX
  8
0
 10
38704.64390311667
 20
-6070.653229124886
  0
VERTEX
  8
0
 10
38705.05619853239
 20
-6070.309507156071
  0
VERTEX
  8
0
 10
38705.47414859499
 20
-6069.97133171415
  0
VERTEX
  8
0
 10
38705.8973668699
 20
-6069.63844077672
  0
VERTEX
  8
0
 10
38706.32546692259
 20
-6069.310572321375
  0
VERTEX
  8
0
 10
38706.75806231856
 20
-6068.987464325711
  0
VERTEX
  8
0
 10
38707.19476662322
 20
-6068.668854767323
  0
VERTEX
  8
0
 10
38707.63519340207
 20
-6068.354481623807
  0
VERTEX
  8
0
 10
38708.07895622055
 20
-6068.044082872757
  0
VERTEX
  8
0
 10
38708.52566864414
 20
-6067.73739649177
  0
VERTEX
  8
0
 10
38708.97494423829
 20
-6067.434160458439
  0
VERTEX
  8
0
 10
38709.42639656847
 20
-6067.134112750361
  0
VERTEX
  8
0
 10
38709.87963920013
 20
-6066.836991345131
  0
VERTEX
  8
0
 10
38710.33428569874
 20
-6066.542534220343
  0
VERTEX
  8
0
 10
38710.78994962978
 20
-6066.250479353593
  0
VERTEX
  8
0
 10
38711.24625658122
 20
-6065.960571465
  0
VERTEX
  8
0
 10
38711.70302906003
 20
-6065.672665711517
  0
VERTEX
  8
0
 10
38712.16025037088
 20
-6065.386707429272
  0
VERTEX
  8
0
 10
38712.61790852359
 20
-6065.102644593153
  0
VERTEX
  8
0
 10
38713.07599152796
 20
-6064.820425178052
  0
VERTEX
  8
0
 10
38713.53448739382
 20
-6064.539997158855
  0
VERTEX
  8
0
 10
38713.99338413098
 20
-6064.261308510455
  0
VERTEX
  8
0
 10
38714.45266974926
 20
-6063.984307207739
  0
VERTEX
  8
0
 10
38714.91233225848
 20
-6063.708941225597
  0
VERTEX
  8
0
 10
38715.37235966846
 20
-6063.435158538919
  0
VERTEX
  8
0
 10
38715.83273998901
 20
-6063.162907122595
  0
VERTEX
  8
0
 10
38716.29346122994
 20
-6062.892134951514
  0
VERTEX
  8
0
 10
38716.75451140109
 20
-6062.622790000564
  0
VERTEX
  8
0
 10
38717.21587851226
 20
-6062.354820244636
  0
VERTEX
  8
0
 10
38717.67755057327
 20
-6062.088173658619
  0
VERTEX
  8
0
 10
38718.13951559394
 20
-6061.822798217403
  0
VERTEX
  8
0
 10
38718.60176158408
 20
-6061.558641895877
  0
VERTEX
  8
0
 10
38719.06427655352
 20
-6061.29565266893
  0
VERTEX
  8
0
 10
38719.52704851206
 20
-6061.033778511453
  0
VERTEX
  8
0
 10
38719.99006546954
 20
-6060.772967398335
  0
VERTEX
  8
0
 10
38720.45331543576
 20
-6060.513167304464
  0
VERTEX
  8
0
 10
38720.91678642054
 20
-6060.254326204731
  0
VERTEX
  8
0
 10
38721.38046643369
 20
-6059.996392074025
  0
VERTEX
  8
0
 10
38721.84434348504
 20
-6059.739312887235
  0
VERTEX
  8
0
 10
38722.30840558441
 20
-6059.483036619251
  0
VERTEX
  8
0
 10
38722.7726407416
 20
-6059.227511244962
  0
VERTEX
  8
0
 10
38723.23703696644
 20
-6058.972684739259
  0
VERTEX
  8
0
 10
38723.70158226874
 20
-6058.718505077029
  0
VERTEX
  8
0
 10
38724.16626465833
 20
-6058.464920233164
  0
VERTEX
  8
0
 10
38724.63107214501
 20
-6058.211878182551
  0
VERTEX
  8
0
 10
38725.09599273861
 20
-6057.959326900082
  0
VERTEX
  8
0
 10
38725.56101444894
 20
-6057.707214360646
  0
VERTEX
  8
0
 10
38726.02612528583
 20
-6057.455488539131
  0
VERTEX
  8
0
 10
38726.49131325907
 20
-6057.204097410427
  0
VERTEX
  8
0
 10
38726.9565663785
 20
-6056.952988949423
  0
VERTEX
  8
0
 10
38727.42187265393
 20
-6056.70211113101
  0
VERTEX
  8
0
 10
38727.88722009519
 20
-6056.451411930077
  0
VERTEX
  8
0
 10
38728.35259671207
 20
-6056.200839321512
  0
VERTEX
  8
0
 10
38728.81799051441
 20
-6055.950341280206
  0
VERTEX
  8
0
 10
38729.3131147563
 20
-6055.77020116316
  0
VERTEX
  8
0
 10
38729.83101814677
 20
-6055.644152244091
  0
VERTEX
  8
0
 10
38730.34906742068
 20
-6055.518987875292
  0
VERTEX
  8
0
 10
38730.86735569278
 20
-6055.395272649008
  0
VERTEX
  8
0
 10
38731.38597607779
 20
-6055.273571157479
  0
VERTEX
  8
0
 10
38731.90502169045
 20
-6055.154447992947
  0
VERTEX
  8
0
 10
38732.42458564551
 20
-6055.038467747655
  0
VERTEX
  8
0
 10
38732.94476105768
 20
-6054.926195013844
  0
VERTEX
  8
0
 10
38733.46564104172
 20
-6054.818194383757
  0
VERTEX
  8
0
 10
38733.98731871234
 20
-6054.715030449634
  0
VERTEX
  8
0
 10
38734.50988718429
 20
-6054.61726780372
  0
VERTEX
  8
0
 10
38735.03343935225
 20
-6054.525469901038
  0
VERTEX
  8
0
 10
38735.55802576074
 20
-6054.439981332122
  0
VERTEX
  8
0
 10
38736.08360449492
 20
-6054.36066885984
  0
VERTEX
  8
0
 10
38736.61012143816
 20
-6054.28733618867
  0
VERTEX
  8
0
 10
38737.13752247384
 20
-6054.219787023088
  0
VERTEX
  8
0
 10
38737.66575348536
 20
-6054.15782506757
  0
VERTEX
  8
0
 10
38738.19476035607
 20
-6054.101254026593
  0
VERTEX
  8
0
 10
38738.72448896937
 20
-6054.049877604631
  0
VERTEX
  8
0
 10
38739.25488520864
 20
-6054.00349950616
  0
VERTEX
  8
0
 10
38739.78589495725
 20
-6053.961923435657
  0
VERTEX
  8
0
 10
38740.31746409858
 20
-6053.924953097598
  0
VERTEX
  8
0
 10
38740.84953851603
 20
-6053.892392196459
  0
VERTEX
  8
0
 10
38741.38206409297
 20
-6053.864044436715
  0
VERTEX
  8
0
 10
38741.91498671278
 20
-6053.839713522843
  0
VERTEX
  8
0
 10
38742.44825225883
 20
-6053.81920315932
  0
VERTEX
  8
0
 10
38742.98180661452
 20
-6053.802317050621
  0
VERTEX
  8
0
 10
38743.51559566322
 20
-6053.788858901222
  0
VERTEX
  8
0
 10
38744.0495652883
 20
-6053.778632415597
  0
VERTEX
  8
0
 10
38744.58366137317
 20
-6053.771441298226
  0
VERTEX
  8
0
 10
38745.11782980119
 20
-6053.767089253583
  0
VERTEX
  8
0
 10
38745.65201645574
 20
-6053.765379986142
  0
VERTEX
  8
0
 10
38746.18614161833
 20
-6053.766200825744
  0
VERTEX
  8
0
 10
38746.71999417381
 20
-6053.769868293064
  0
VERTEX
  8
0
 10
38747.25332096895
 20
-6053.776836220918
  0
VERTEX
  8
0
 10
38747.78586883174
 20
-6053.787558503544
  0
VERTEX
  8
0
 10
38748.31738459013
 20
-6053.802489035184
  0
VERTEX
  8
0
 10
38748.84761507213
 20
-6053.822081710076
  0
VERTEX
  8
0
 10
38749.37630814816
 20
-6053.846789494147
  0
VERTEX
  8
0
 10
38749.90343009336
 20
-6053.876870864287
  0
VERTEX
  8
0
 10
38750.42943320267
 20
-6053.91215149751
  0
VERTEX
  8
0
 10
38750.95483533637
 20
-6053.952398685029
  0
VERTEX
  8
0
 10
38751.4801543547
 20
-6053.997379718055
  0
VERTEX
  8
0
 10
38752.00590811791
 20
-6054.0468618878
  0
VERTEX
  8
0
 10
38752.53261448628
 20
-6054.100612485478
  0
VERTEX
  8
0
 10
38753.06079132005
 20
-6054.158398802299
  0
VERTEX
  8
0
 10
38753.59095647949
 20
-6054.219988129475
  0
VERTEX
  8
0
 10
38754.12362782483
 20
-6054.285147758221
  0
VERTEX
  8
0
 10
38754.65932321636
 20
-6054.353644979747
  0
VERTEX
  8
0
 10
38755.19856051432
 20
-6054.425247085264
  0
VERTEX
  8
0
 10
38755.74155820759
 20
-6054.500123261652
  0
VERTEX
  8
0
 10
38756.28506018703
 20
-6054.583107222963
  0
VERTEX
  8
0
 10
38756.8235713208
 20
-6054.682038493444
  0
VERTEX
  8
0
 10
38757.35155927902
 20
-6054.804806534378
  0
VERTEX
  8
0
 10
38757.86349173185
 20
-6054.959300807052
  0
VERTEX
  8
0
 10
38758.35383634941
 20
-6055.153410772752
  0
VERTEX
  8
0
 10
38758.81706080186
 20
-6055.395025892762
  0
VERTEX
  8
0
 10
38759.2477637825
 20
-6055.691706523855
  0
VERTEX
  8
0
 10
38759.64401117044
 20
-6056.04230413151
  0
VERTEX
  8
0
 10
38760.00760851729
 20
-6056.436276856675
  0
VERTEX
  8
0
 10
38760.34054699301
 20
-6056.862616603477
  0
VERTEX
  8
0
 10
38760.64481781152
 20
-6057.310315442508
  0
VERTEX
  8
0
 10
38760.92287882383
 20
-6057.770129971979
  0
VERTEX
  8
0
 10
38761.17880618159
 20
-6058.238936185026
  0
VERTEX
  8
0
 10
38761.41702661571
 20
-6058.714935744933
  0
VERTEX
  8
0
 10
38761.64196685709
 20
-6059.196330314988
  0
VERTEX
  8
0
 10
38761.85805363666
 20
-6059.681321558473
  0
VERTEX
  8
0
 10
38762.06971368531
 20
-6060.168111138672
  0
SEQEND
  8
0
  0
POLYLINE
  8
0
 66
     1
  0
VERTEX
  8
0
 10
38699.07167245555
 20
-6085.134665073258
  0
VERTEX
  8
0
 10
38699.01353952439
 20
-6084.789828061652
  0
VERTEX
  8
0
 10
38699.02530115225
 20
-6084.440337319896
  0
VERTEX
  8
0
 10
38699.12978071484
 20
-6084.106920806831
  0
VERTEX
  8
0
 10
38699.31512912328
 20
-6083.81080003857
  0
VERTEX
  8
0
 10
38699.55633361894
 20
-6083.549999910198
  0
VERTEX
  8
0
 10
38699.82770384275
 20
-6083.320386300354
  0
VERTEX
  8
0
 10
38700.11528710856
 20
-6083.118458887555
  0
VERTEX
  8
0
 10
38700.41668644398
 20
-6082.941341324937
  0
VERTEX
  8
0
 10
38700.7299932848
 20
-6082.786183638235
  0
VERTEX
  8
0
 10
38701.05329906679
 20
-6082.65013585319
  0
VERTEX
  8
0
 10
38701.3846952257
 20
-6082.530347995536
  0
VERTEX
  8
0
 10
38701.7222731973
 20
-6082.423970091014
  0
VERTEX
  8
0
 10
38702.06412441737
 20
-6082.328152165361
  0
VERTEX
  8
0
 10
38702.40834032166
 20
-6082.240044244315
  0
VERTEX
  8
0
 10
38702.7531984485
 20
-6082.157059487595
  0
VERTEX
  8
0
 10
38703.09820052346
 20
-6082.078341956733
  0
VERTEX
  8
0
 10
38703.4433429057
 20
-6082.003735085203
  0
VERTEX
  8
0
 10
38703.78862333795
 20
-6081.933084262692
  0
VERTEX
  8
0
 10
38704.1340395629
 20
-6081.866234878896
  0
VERTEX
  8
0
 10
38704.47958932328
 20
-6081.803032323501
  0
VERTEX
  8
0
 10
38704.82527036181
 20
-6081.7433219862
  0
VERTEX
  8
0
 10
38705.17108042119
 20
-6081.686949256682
  0
VERTEX
  8
0
 10
38705.51701724414
 20
-6081.633759524639
  0
VERTEX
  8
0
 10
38705.86307857338
 20
-6081.583598179763
  0
VERTEX
  8
0
 10
38706.2092621516
 20
-6081.536310611743
  0
VERTEX
  8
0
 10
38706.55556572154
 20
-6081.491742210271
  0
VERTEX
  8
0
 10
38706.90198702591
 20
-6081.449738365036
  0
VERTEX
  8
0
 10
38707.24852380742
 20
-6081.41014446573
  0
VERTEX
  8
0
 10
38707.59517380878
 20
-6081.372805902042
  0
VERTEX
  8
0
 10
38707.9419347727
 20
-6081.337568063665
  0
VERTEX
  8
0
 10
38708.28880444191
 20
-6081.30427634029
  0
VERTEX
  8
0
 10
38708.6357805591
 20
-6081.272776121607
  0
VERTEX
  8
0
 10
38708.98286086701
 20
-6081.242912797304
  0
VERTEX
  8
0
 10
38709.33004310835
 20
-6081.214531757075
  0
VERTEX
  8
0
 10
38709.67732502581
 20
-6081.187478390609
  0
VERTEX
  8
0
 10
38710.02470436213
 20
-6081.161598087599
  0
VERTEX
  8
0
 10
38710.37217886001
 20
-6081.136736237733
  0
VERTEX
  8
0
 10
38710.71974626217
 20
-6081.112738230704
  0
VERTEX
  8
0
 10
38711.06740431132
 20
-6081.089449456201
  0
VERTEX
  8
0
 10
38711.41515075018
 20
-6081.066715303916
  0
VERTEX
  8
0
 10
38711.76298332145
 20
-6081.044381163539
  0
VERTEX
  8
0
 10
38712.11089976786
 20
-6081.02229242476
  0
VERTEX
  8
0
 10
38712.45889727707
 20
-6081.000315356928
  0
VERTEX
  8
0
 10
38712.80697078547
 20
-6080.978400914963
  0
VERTEX
  8
0
 10
38713.15511465882
 20
-6080.956521520974
  0
VERTEX
  8
0
 10
38713.50332326285
 20
-6080.934649597079
  0
VERTEX
  8
0
 10
38713.85159096329
 20
-6080.912757565388
  0
VERTEX
  8
0
 10
38714.19991212589
 20
-6080.890817848018
  0
VERTEX
  8
0
 10
38714.5482811164
 20
-6080.868802867083
  0
VERTEX
  8
0
 10
38714.89669230053
 20
-6080.846685044696
  0
VERTEX
  8
0
 10
38715.24514004403
 20
-6080.824436802972
  0
VERTEX
  8
0
 10
38715.59361871264
 20
-6080.802030564023
  0
VERTEX
  8
0
 10
38715.9421226721
 20
-6080.779438749966
  0
VERTEX
  8
0
 10
38716.29064628814
 20
-6080.756633782913
  0
VERTEX
  8
0
 10
38716.6391839265
 20
-6080.73358808498
  0
VERTEX
  8
0
 10
38716.98772995293
 20
-6080.710274078279
  0
VERTEX
  8
0
 10
38717.33627873316
 20
-6080.686664184926
  0
VERTEX
  8
0
 10
38717.68482463292
 20
-6080.662730827034
  0
VERTEX
  8
0
 10
38718.03336201796
 20
-6080.638446426718
  0
VERTEX
  8
0
 10
38718.38188525401
 20
-6080.613783406091
  0
VERTEX
  8
0
 10
38718.73038870681
 20
-6080.588714187268
  0
VERTEX
  8
0
 10
38719.0788667421
 20
-6080.563211192361
  0
VERTEX
  8
0
 10
38719.42731372562
 20
-6080.537246843488
  0
VERTEX
  8
0
 10
38719.77572402311
 20
-6080.510793562759
  0
VERTEX
  8
0
 10
38720.1240920003
 20
-6080.483823772293
  0
VERTEX
  8
0
 10
38720.47241202293
 20
-6080.4563098942
  0
VERTEX
  8
0
 10
38720.82067845674
 20
-6080.428224350594
  0
VERTEX
  8
0
 10
38721.16888566747
 20
-6080.399539563591
  0
VERTEX
  8
0
 10
38721.51702802085
 20
-6080.370227955304
  0
VERTEX
  8
0
 10
38721.86509988263
 20
-6080.34026194785
  0
VERTEX
  8
0
 10
38722.21309561854
 20
-6080.309613963339
  0
VERTEX
  8
0
 10
38722.56100976541
 20
-6080.278257502933
  0
VERTEX
  8
0
 10
38722.90884115498
 20
-6080.246193154462
  0
VERTEX
  8
0
 10
38723.25659312376
 20
-6080.213449916151
  0
VERTEX
  8
0
 10
38723.60426922138
 20
-6080.180058130199
  0
VERTEX
  8
0
 10
38723.95187299745
 20
-6080.146048138805
  0
VERTEX
  8
0
 10
38724.2994080016
 20
-6080.111450284167
  0
VERTEX
  8
0
 10
38724.64687778344
 20
-6080.076294908488
  0
VERTEX
  8
0
 10
38724.9942858926
 20
-6080.040612353965
  0
VERTEX
  8
0
 10
38725.34163587869
 20
-6080.004432962799
  0
VERTEX
  8
0
 10
38725.68893129134
 20
-6079.96778707719
  0
VERTEX
  8
0
 10
38726.03617568017
 20
-6079.930705039336
  0
VERTEX
  8
0
 10
38726.3833725948
 20
-6079.893217191439
  0
VERTEX
  8
0
 10
38726.73052558484
 20
-6079.855353875696
  0
VERTEX
  8
0
 10
38727.07763819992
 20
-6079.817145434308
  0
VERTEX
  8
0
 10
38727.42471398968
 20
-6079.778622209476
  0
VERTEX
  8
0
 10
38727.77175650369
 20
-6079.739814543396
  0
VERTEX
  8
0
 10
38728.11876929163
 20
-6079.700752778273
  0
VERTEX
  8
0
 10
38728.46575590307
 20
-6079.6614672563
  0
VERTEX
  8
0
 10
38728.81271988766
 20
-6079.621988319683
  0
VERTEX
  8
0
 10
38729.15966479502
 20
-6079.582346310616
  0
VERTEX
  8
0
 10
38729.50659417477
 20
-6079.542571571305
  0
VERTEX
  8
0
 10
38729.85351157651
 20
-6079.502694443943
  0
VERTEX
  8
0
 10
38730.20042054987
 20
-6079.462745270734
  0
VERTEX
  8
0
 10
38730.5473246445
 20
-6079.422754393877
  0
VERTEX
  8
0
 10
38755.67728644872
 20
-6079.417954952965
  0
SEQEND
  8
0
  0
POLYLINE
  8
0
 66
     1
  0
VERTEX
  8
0
 10
39255.73433462594
 20
-6269.53150854061
  0
VERTEX
  8
0
 10
39254.78667626264
 20
-5910.566248997794
 42
0.457132165724
  0
VERTEX
  8
0
 10
39209.80989017527
 20
-5871.453633591917
 42
-0.045801192315
  0
VERTEX
  8
0
 10
39010.67721973285
 20
-5890.60696733131
 42
-0.045801192315
  0
VERTEX
  8
0
 10
38811.54454929043
 20
-5871.453633591917
 42
0.457132165724
  0
VERTEX
  8
0
 10
38766.56776320306
 20
-5910.566248997794
  0
VERTEX
  8
0
 10
38765.62010483976
 20
-6269.53150854061
  0
SEQEND
  8
0
  0
POLYLINE
  8
0
 66
     1
  0
VERTEX
  8
0
 10
39255.02132942942
 20
-6269.921466077903
 42
0.326102070212
  0
VERTEX
  8
0
 10
39224.83928503015
 20
-6244.819738932011
 42
-0.057899411811
  0
VERTEX
  8
0
 10
39010.67721973285
 20
-6268.951480311533
 42
-0.057899411811
  0
VERTEX
  8
0
 10
38796.51515443556
 20
-6244.819738932011
 42
0.326102070212
  0
VERTEX
  8
0
 10
38766.33311003628
 20
-6269.921466077903
  0
SEQEND
  8
0
  0
POLYLINE
  8
0
 66
     1
  0
VERTEX
  8
0
 10
39259.2847257804
 20
-6269.40098313651
  0
VERTEX
  8
0
 10
39259.2847257804
 20
-5908.6427428411
 42
0.465675717368
  0
VERTEX
  8
0
 10
39211.08839226887
 20
-5868.533669322794
 42
-0.047450889985
  0
VERTEX
  8
0
 10
39010.67721973285
 20
-5887.578275475374
 42
-0.047450889985
  0
VERTEX
  8
0
 10
38810.26604719683
 20
-5868.533669322794
 42
0.465675717368
  0
VERTEX
  8
0
 10
38762.06971368531
 20
-5908.6427428411
  0
VERTEX
  8
0
 10
38762.06971368531
 20
-6269.40098313651
  0
SEQEND
  8
0
  0
POLYLINE
  8
0
 66
     1
 70
   128
  0
VERTEX
  8
0
 10
39265.06226482058
 20
-6104.483486533055
  0
VERTEX
  8
0
 10
39262.8796239099
 20
-6097.219835068338
  0
VERTEX
  8
0
 10
39259.2847257804
 20
-6085.354368565778
  0
SEQEND
  8
0
  0
POLYLINE
  8
0
 66
     1
  0
VERTEX
  8
0
 10
39255.64723306552
 20
-6275.428303750268
  0
VERTEX
  8
0
 10
39255.8756437573
 20
-6306.763946726426
 42
-0.050515697709
  0
VERTEX
  8
0
 10
39253.39639654898
 20
-6319.094863622696
  0
SEQEND
  8
0
  0
ARC
  8
0
 10
51671.49610806279
 20
-6371.843965148018
 40
12409.32106776467
 50
180.105401570938
 51
181.352872051893
  0
ARC
  8
0
 10
26451.30193771379
 20
-6379.620283480339
 40
12842.8846125152
 50
358.727508855971
 51
1.339455821347
  0
ARC
  8
0
 10
51775.93608851054
 20
-6376.230381846138
 40
12513.7794550589
 50
178.6408826852
 51
179.751673938159
  0
LINE
  8
0
 10
39291.01932457896
 20
-6664.826517304068
 11
39265.63416352221
 21
-6664.82651730409
  0
POLYLINE
  8
0
 66
     1
  0
VERTEX
  8
0
 10
39291.26345430862
 20
-6105.624987304896
  0
VERTEX
  8
0
 10
39291.60365641223
 20
-6105.214363212991
  0
VERTEX
  8
0
 10
39291.94767469382
 20
-6104.807574069881
  0
VERTEX
  8
0
 10
39292.29664280086
 20
-6104.405759099121
  0
VERTEX
  8
0
 10
39292.65169438075
 20
-6104.010057524269
  0
VERTEX
  8
0
 10
39293.01396308094
 20
-6103.621608568877
  0
VERTEX
  8
0
 10
39293.38458225939
 20
-6103.241551188459
  0
VERTEX
  8
0
 10
39293.76431686922
 20
-6102.870683219423
  0
VERTEX
  8
0
 10
39294.15284212692
 20
-6102.508793472313
  0
VERTEX
  8
0
 10
39294.54963271972
 20
-6102.155485080536
  0
VERTEX
  8
0
 10
39294.95416333491
 20
-6101.8103611775
  0
VERTEX
  8
0
 10
39295.36590865971
 20
-6101.473024896615
  0
VERTEX
  8
0
 10
39295.7843433814
 20
-6101.143079371289
  0
VERTEX
  8
0
 10
39296.20894218722
 20
-6100.820127734929
  0
VERTEX
  8
0
 10
39296.63917976442
 20
-6100.503773120943
  0
VERTEX
  8
0
 10
39297.07453080025
 20
-6100.193618662742
  0
VERTEX
  8
0
 10
39297.51446998198
 20
-6099.889267493731
  0
VERTEX
  8
0
 10
39297.95847199685
 20
-6099.590322747322
  0
VERTEX
  8
0
 10
39298.40601153211
 20
-6099.296387556921
  0
VERTEX
  8
0
 10
39298.85656327503
 20
-6099.007065055936
  0
VERTEX
  8
0
 10
39299.30960191284
 20
-6098.721958377776
  0
VERTEX
  8
0
 10
39299.76460213281
 20
-6098.440670655851
  0
VERTEX
  8
0
 10
39300.22107466228
 20
-6098.16282377996
  0
VERTEX
  8
0
 10
39300.67883809626
 20
-6097.888199863933
  0
VERTEX
  8
0
 10
39301.1378671175
 20
-6097.616662254574
  0
VERTEX
  8
0
 10
39301.59813762796
 20
-6097.348074933177
  0
VERTEX
  8
0
 10
39302.05962552955
 20
-6097.082301881035
  0
VERTEX
  8
0
 10
39302.5223067242
 20
-6096.819207079441
  0
VERTEX
  8
0
 10
39302.98615711383
 20
-6096.55865450969
  0
VERTEX
  8
0
 10
39303.45115260038
 20
-6096.300508153072
  0
VERTEX
  8
0
 10
39303.91726908576
 20
-6096.044631990884
  0
VERTEX
  8
0
 10
39304.38448247191
 20
-6095.790890004418
  0
VERTEX
  8
0
 10
39304.85276866076
 20
-6095.539146174966
  0
VERTEX
  8
0
 10
39305.32210355423
 20
-6095.289264483823
  0
VERTEX
  8
0
 10
39305.79246305425
 20
-6095.041108912283
  0
VERTEX
  8
0
 10
39306.26382306275
 20
-6094.794543441637
  0
VERTEX
  8
0
 10
39306.7361522614
 20
-6094.549436682036
  0
VERTEX
  8
0
 10
39307.20937672341
 20
-6094.30568455967
  0
VERTEX
  8
0
 10
39307.68340694685
 20
-6094.063192985838
  0
VERTEX
  8
0
 10
39308.15815340674
 20
-6093.82186788664
  0
VERTEX
  8
0
 10
39308.63352657808
 20
-6093.581615188172
  0
VERTEX
  8
0
 10
39309.10943693585
 20
-6093.342340816534
  0
VERTEX
  8
0
 10
39309.58579495508
 20
-6093.103950697824
  0
VERTEX
  8
0
 10
39310.06251111075
 20
-6092.86635075814
  0
VERTEX
  8
0
 10
39310.53949587787
 20
-6092.629446923583
  0
VERTEX
  8
0
 10
39311.01665973145
 20
-6092.39314512025
  0
VERTEX
  8
0
 10
39311.49391314647
 20
-6092.157351274238
  0
VERTEX
  8
0
 10
39311.97116659796
 20
-6091.921971311647
  0
VERTEX
  8
0
 10
39312.4483305609
 20
-6091.686911158577
  0
VERTEX
  8
0
 10
39312.92531551029
 20
-6091.452076741124
  0
VERTEX
  8
0
 10
39313.40203192115
 20
-6091.217373985387
  0
VERTEX
  8
0
 10
39313.87838928377
 20
-6090.982697889243
  0
VERTEX
  8
0
 10
39314.3542756526
 20
-6090.747705553346
  0
VERTEX
  8
0
 10
39314.82955829871
 20
-6090.511823422807
  0
VERTEX
  8
0
 10
39315.30410363904
 20
-6090.274468463274
  0
VERTEX
  8
0
 10
39315.77777809051
 20
-6090.0350576404
  0
VERTEX
  8
0
 10
39316.25044807006
 20
-6089.793007919834
  0
VERTEX
  8
0
 10
39316.72197999461
 20
-6089.54773626723
  0
VERTEX
  8
0
 10
39317.19224028109
 20
-6089.298659648236
  0
VERTEX
  8
0
 10
39317.66109534643
 20
-6089.045195028504
  0
VERTEX
  8
0
 10
39318.12841160756
 20
-6088.786759373686
  0
VERTEX
  8
0
 10
39318.59405548141
 20
-6088.522769649433
  0
VERTEX
  8
0
 10
39319.05789338491
 20
-6088.252642821394
  0
VERTEX
  8
0
 10
39319.5188689552
 20
-6087.975061182474
  0
VERTEX
  8
0
 10
39319.97041251648
 20
-6087.684317591753
  0
VERTEX
  8
0
 10
39320.40391560156
 20
-6087.373081720977
  0
VERTEX
  8
0
 10
39320.81076646317
 20
-6087.034020630427
  0
VERTEX
  8
0
 10
39321.18268837097
 20
-6086.660109802544
  0
VERTEX
  8
0
 10
39321.52002055649
 20
-6086.252256716884
  0
VERTEX
  8
0
 10
39321.83225666963
 20
-6085.819796562044
  0
VERTEX
  8
0
 10
39322.12933319256
 20
-6085.372472205387
  0
VERTEX
  8
0
 10
39322.52997558888
 20
-6083.952512679704
  0
VERTEX
  8
0
 10
39323.05112743241
 20
-6081.460362518795
  0
VERTEX
  8
0
 10
39323.22204767251
 20
-6080.137158697982
  0
VERTEX
  8
0
 10
39323.14256795081
 20
-6079.610768890264
  0
VERTEX
  8
0
 10
39323.02945017529
 20
-6079.092385105004
  0
VERTEX
  8
0
 10
39322.87556005956
 20
-6078.584293398637
  0
VERTEX
  8
0
 10
39322.68575248413
 20
-6078.086431819486
  0
VERTEX
  8
0
 10
39322.46528880117
 20
-6077.598658810768
  0
VERTEX
  8
0
 10
39322.21943036293
 20
-6077.120832815704
  0
VERTEX
  8
0
 10
39321.95343852158
 20
-6076.65281227751
  0
VERTEX
  8
0
 10
39321.67253090758
 20
-6076.194454558979
  0
VERTEX
  8
0
 10
39321.37997617436
 20
-6075.745568861131
  0
VERTEX
  8
0
 10
39321.07635671077
 20
-6075.305898003842
  0
VERTEX
  8
0
 10
39320.76205895133
 20
-6074.875179964712
  0
VERTEX
  8
0
 10
39320.43746933057
 20
-6074.453152721334
  0
VERTEX
  8
0
 10
39320.10297428304
 20
-6074.039554251303
  0
VERTEX
  8
0
 10
39319.75896024327
 20
-6073.634122532216
  0
VERTEX
  8
0
 10
39319.4058136458
 20
-6073.236595541666
  0
VERTEX
  8
0
 10
39319.04392092516
 20
-6072.84671125725
  0
VERTEX
  8
0
 10
39318.6736685159
 20
-6072.464207656561
  0
VERTEX
  8
0
 10
39318.29544285256
 20
-6072.088822717198
  0
VERTEX
  8
0
 10
39317.90963036966
 20
-6071.720294416753
  0
VERTEX
  8
0
 10
39317.51661750175
 20
-6071.358360732823
  0
VERTEX
  8
0
 10
39317.11679068337
 20
-6071.002759643002
  0
VERTEX
  8
0
 10
39316.71053634904
 20
-6070.653229124886
  0
VERTEX
  8
0
 10
39316.29824093331
 20
-6070.309507156071
  0
VERTEX
  8
0
 10
39315.88029087072
 20
-6069.97133171415
  0
VERTEX
  8
0
 10
39315.4570725958
 20
-6069.63844077672
  0
VERTEX
  8
0
 10
39315.02897254311
 20
-6069.310572321375
  0
VERTEX
  8
0
 10
39314.59637714715
 20
-6068.987464325711
  0
VERTEX
  8
0
 10
39314.15967284248
 20
-6068.668854767323
  0
VERTEX
  8
0
 10
39313.71924606364
 20
-6068.354481623807
  0
VERTEX
  8
0
 10
39313.27548324515
 20
-6068.044082872757
  0
VERTEX
  8
0
 10
39312.82877082156
 20
-6067.73739649177
  0
VERTEX
  8
0
 10
39312.37949522742
 20
-6067.434160458439
  0
VERTEX
  8
0
 10
39311.92804289724
 20
-6067.134112750361
  0
VERTEX
  8
0
 10
39311.47480026558
 20
-6066.836991345131
  0
VERTEX
  8
0
 10
39311.02015376696
 20
-6066.542534220343
  0
VERTEX
  8
0
 10
39310.56448983593
 20
-6066.250479353593
  0
VERTEX
  8
0
 10
39310.10818288449
 20
-6065.960571465
  0
VERTEX
  8
0
 10
39309.65141040568
 20
-6065.672665711517
  0
VERTEX
  8
0
 10
39309.19418909483
 20
-6065.386707429272
  0
VERTEX
  8
0
 10
39308.73653094212
 20
-6065.102644593153
  0
VERTEX
  8
0
 10
39308.27844793775
 20
-6064.820425178052
  0
VERTEX
  8
0
 10
39307.81995207189
 20
-6064.539997158855
  0
VERTEX
  8
0
 10
39307.36105533473
 20
-6064.261308510455
  0
VERTEX
  8
0
 10
39306.90176971645
 20
-6063.984307207739
  0
VERTEX
  8
0
 10
39306.44210720723
 20
-6063.708941225597
  0
VERTEX
  8
0
 10
39305.98207979725
 20
-6063.435158538919
  0
VERTEX
  8
0
 10
39305.5216994767
 20
-6063.162907122595
  0
VERTEX
  8
0
 10
39305.06097823576
 20
-6062.892134951514
  0
VERTEX
  8
0
 10
39304.59992806461
 20
-6062.622790000564
  0
VERTEX
  8
0
 10
39304.13856095345
 20
-6062.354820244636
  0
VERTEX
  8
0
 10
39303.67688889243
 20
-6062.088173658619
  0
VERTEX
  8
0
 10
39303.21492387177
 20
-6061.822798217403
  0
VERTEX
  8
0
 10
39302.75267788162
 20
-6061.558641895877
  0
VERTEX
  8
0
 10
39302.29016291218
 20
-6061.29565266893
  0
VERTEX
  8
0
 10
39301.82739095364
 20
-6061.033778511453
  0
VERTEX
  8
0
 10
39301.36437399616
 20
-6060.772967398335
  0
VERTEX
  8
0
 10
39300.90112402995
 20
-6060.513167304464
  0
VERTEX
  8
0
 10
39300.43765304517
 20
-6060.254326204731
  0
VERTEX
  8
0
 10
39299.97397303202
 20
-6059.996392074025
  0
VERTEX
  8
0
 10
39299.51009598067
 20
-6059.739312887235
  0
VERTEX
  8
0
 10
39299.0460338813
 20
-6059.483036619251
  0
VERTEX
  8
0
 10
39298.58179872411
 20
-6059.227511244962
  0
VERTEX
  8
0
 10
39298.11740249927
 20
-6058.972684739259
  0
VERTEX
  8
0
 10
39297.65285719697
 20
-6058.718505077029
  0
VERTEX
  8
0
 10
39297.18817480738
 20
-6058.464920233164
  0
VERTEX
  8
0
 10
39296.72336732069
 20
-6058.211878182551
  0
VERTEX
  8
0
 10
39296.2584467271
 20
-6057.959326900082
  0
VERTEX
  8
0
 10
39295.79342501677
 20
-6057.707214360646
  0
VERTEX
  8
0
 10
39295.32831417988
 20
-6057.455488539131
  0
VERTEX
  8
0
 10
39294.86312620663
 20
-6057.204097410427
  0
VERTEX
  8
0
 10
39294.39787308721
 20
-6056.952988949423
  0
VERTEX
  8
0
 10
39293.93256681177
 20
-6056.70211113101
  0
VERTEX
  8
0
 10
39293.46721937052
 20
-6056.451411930077
  0
VERTEX
  8
0
 10
39293.00184275363
 20
-6056.200839321512
  0
VERTEX
  8
0
 10
39292.5364489513
 20
-6055.950341280206
  0
VERTEX
  8
0
 10
39292.0413247094
 20
-6055.77020116316
  0
VERTEX
  8
0
 10
39291.52342131894
 20
-6055.644152244091
  0
VERTEX
  8
0
 10
39291.00537204502
 20
-6055.518987875292
  0
VERTEX
  8
0
 10
39290.48708377293
 20
-6055.395272649008
  0
VERTEX
  8
0
 10
39289.96846338792
 20
-6055.273571157479
  0
VERTEX
  8
0
 10
39289.44941777526
 20
-6055.154447992947
  0
VERTEX
  8
0
 10
39288.9298538202
 20
-6055.038467747655
  0
VERTEX
  8
0
 10
39288.40967840802
 20
-6054.926195013844
  0
VERTEX
  8
0
 10
39287.88879842399
 20
-6054.818194383757
  0
VERTEX
  8
0
 10
39287.36712075337
 20
-6054.715030449634
  0
VERTEX
  8
0
 10
39286.84455228141
 20
-6054.61726780372
  0
VERTEX
  8
0
 10
39286.32100011346
 20
-6054.525469901038
  0
VERTEX
  8
0
 10
39285.79641370496
 20
-6054.439981332122
  0
VERTEX
  8
0
 10
39285.27083497078
 20
-6054.36066885984
  0
VERTEX
  8
0
 10
39284.74431802754
 20
-6054.28733618867
  0
VERTEX
  8
0
 10
39284.21691699186
 20
-6054.219787023088
  0
VERTEX
  8
0
 10
39283.68868598035
 20
-6054.15782506757
  0
VERTEX
  8
0
 10
39283.15967910964
 20
-6054.101254026593
  0
VERTEX
  8
0
 10
39282.62995049634
 20
-6054.049877604631
  0
VERTEX
  8
0
 10
39282.09955425707
 20
-6054.00349950616
  0
VERTEX
  8
0
 10
39281.56854450846
 20
-6053.961923435657
  0
VERTEX
  8
0
 10
39281.03697536713
 20
-6053.924953097598
  0
VERTEX
  8
0
 10
39280.50490094968
 20
-6053.892392196459
  0
VERTEX
  8
0
 10
39279.97237537274
 20
-6053.864044436715
  0
VERTEX
  8
0
 10
39279.43945275293
 20
-6053.839713522843
  0
VERTEX
  8
0
 10
39278.90618720688
 20
-6053.81920315932
  0
VERTEX
  8
0
 10
39278.37263285119
 20
-6053.802317050621
  0
VERTEX
  8
0
 10
39277.83884380249
 20
-6053.788858901222
  0
VERTEX
  8
0
 10
39277.3048741774
 20
-6053.778632415597
  0
VERTEX
  8
0
 10
39276.77077809253
 20
-6053.771441298226
  0
VERTEX
  8
0
 10
39276.23660966452
 20
-6053.767089253583
  0
VERTEX
  8
0
 10
39275.70242300997
 20
-6053.765379986142
  0
VERTEX
  8
0
 10
39275.16829784738
 20
-6053.766200825744
  0
VERTEX
  8
0
 10
39274.6344452919
 20
-6053.769868293064
  0
VERTEX
  8
0
 10
39274.10111849676
 20
-6053.776836220918
  0
VERTEX
  8
0
 10
39273.56857063397
 20
-6053.787558503544
  0
VERTEX
  8
0
 10
39273.03705487557
 20
-6053.802489035184
  0
VERTEX
  8
0
 10
39272.50682439357
 20
-6053.822081710076
  0
VERTEX
  8
0
 10
39271.97813131755
 20
-6053.846789494147
  0
VERTEX
  8
0
 10
39271.45100937235
 20
-6053.876870864287
  0
VERTEX
  8
0
 10
39270.92500626304
 20
-6053.91215149751
  0
VERTEX
  8
0
 10
39270.39960412934
 20
-6053.952398685029
  0
VERTEX
  8
0
 10
39269.87428511101
 20
-6053.997379718055
  0
VERTEX
  8
0
 10
39269.34853134779
 20
-6054.0468618878
  0
VERTEX
  8
0
 10
39268.82182497942
 20
-6054.100612485478
  0
VERTEX
  8
0
 10
39268.29364814566
 20
-6054.158398802299
  0
VERTEX
  8
0
 10
39267.76348298622
 20
-6054.219988129475
  0
VERTEX
  8
0
 10
39267.23081164087
 20
-6054.285147758221
  0
VERTEX
  8
0
 10
39266.69511624935
 20
-6054.353644979747
  0
VERTEX
  8
0
 10
39266.15587895139
 20
-6054.425247085264
  0
VERTEX
  8
0
 10
39265.61288125812
 20
-6054.500123261652
  0
VERTEX
  8
0
 10
39265.06937927868
 20
-6054.583107222963
  0
VERTEX
  8
0
 10
39264.53086814491
 20
-6054.682038493444
  0
VERTEX
  8
0
 10
39264.00288018669
 20
-6054.804806534378
  0
VERTEX
  8
0
 10
39263.49094773386
 20
-6054.959300807052
  0
VERTEX
  8
0
 10
39263.0006031163
 20
-6055.153410772752
  0
VERTEX
  8
0
 10
39262.53737866384
 20
-6055.395025892762
  0
VERTEX
  8
0
 10
39262.10667568321
 20
-6055.691706523855
  0
VERTEX
  8
0
 10
39261.71042829527
 20
-6056.04230413151
  0
VERTEX
  8
0
 10
39261.34683094842
 20
-6056.436276856675
  0
VERTEX
  8
0
 10
39261.0138924727
 20
-6056.862616603477
  0
VERTEX
  8
0
 10
39260.70962165418
 20
-6057.310315442508
  0
VERTEX
  8
0
 10
39260.43156064187
 20
-6057.770129971979
  0
VERTEX
  8
0
 10
39260.17563328412
 20
-6058.238936185026
  0
VERTEX
  8
0
 10
39259.93741285
 20
-6058.714935744933
  0
VERTEX
  8
0
 10
39259.71247260862
 20
-6059.196330314988
  0
VERTEX
  8
0
 10
39259.49638582905
 20
-6059.681321558473
  0
VERTEX
  8
0
 10
39259.2847257804
 20
-6060.168111138672
  0
SEQEND
  8
0
  0
POLYLINE
  8
0
 66
     1
  0
VERTEX
  8
0
 10
39322.28276701015
 20
-6085.134665073258
  0
VERTEX
  8
0
 10
39322.34089994132
 20
-6084.789828061652
  0
VERTEX
  8
0
 10
39322.32913831346
 20
-6084.440337319896
  0
VERTEX
  8
0
 10
39322.22465875086
 20
-6084.106920806831
  0
VERTEX
  8
0
 10
39322.03931034243
 20
-6083.81080003857
  0
VERTEX
  8
0
 10
39321.79810584676
 20
-6083.549999910198
  0
VERTEX
  8
0
 10
39321.52673562295
 20
-6083.320386300354
  0
VERTEX
  8
0
 10
39321.23915235715
 20
-6083.118458887555
  0
VERTEX
  8
0
 10
39320.93775302173
 20
-6082.941341324937
  0
VERTEX
  8
0
 10
39320.62444618091
 20
-6082.786183638235
  0
VERTEX
  8
0
 10
39320.30114039892
 20
-6082.65013585319
  0
VERTEX
  8
0
 10
39319.96974424001
 20
-6082.530347995536
  0
VERTEX
  8
0
 10
39319.63216626841
 20
-6082.423970091014
  0
VERTEX
  8
0
 10
39319.29031504833
 20
-6082.328152165361
  0
VERTEX
  8
0
 10
39318.94609914404
 20
-6082.240044244315
  0
VERTEX
  8
0
 10
39318.6012410172
 20
-6082.157059487595
  0
VERTEX
  8
0
 10
39318.25623894225
 20
-6082.078341956733
  0
VERTEX
  8
0
 10
39317.91109656
 20
-6082.003735085203
  0
VERTEX
  8
0
 10
39317.56581612776
 20
-6081.933084262692
  0
VERTEX
  8
0
 10
39317.22039990281
 20
-6081.866234878896
  0
VERTEX
  8
0
 10
39316.87485014243
 20
-6081.803032323501
  0
VERTEX
  8
0
 10
39316.52916910389
 20
-6081.7433219862
  0
VERTEX
  8
0
 10
39316.18335904452
 20
-6081.686949256682
  0
VERTEX
  8
0
 10
39315.83742222157
 20
-6081.633759524639
  0
VERTEX
  8
0
 10
39315.49136089233
 20
-6081.583598179763
  0
VERTEX
  8
0
 10
39315.14517731411
 20
-6081.536310611743
  0
VERTEX
  8
0
 10
39314.79887374416
 20
-6081.491742210271
  0
VERTEX
  8
0
 10
39314.45245243979
 20
-6081.449738365036
  0
VERTEX
  8
0
 10
39314.10591565829
 20
-6081.41014446573
  0
VERTEX
  8
0
 10
39313.75926565693
 20
-6081.372805902042
  0
VERTEX
  8
0
 10
39313.41250469301
 20
-6081.337568063665
  0
VERTEX
  8
0
 10
39313.0656350238
 20
-6081.30427634029
  0
VERTEX
  8
0
 10
39312.7186589066
 20
-6081.272776121607
  0
VERTEX
  8
0
 10
39312.37157859869
 20
-6081.242912797304
  0
VERTEX
  8
0
 10
39312.02439635736
 20
-6081.214531757075
  0
VERTEX
  8
0
 10
39311.6771144399
 20
-6081.187478390609
  0
VERTEX
  8
0
 10
39311.32973510358
 20
-6081.161598087599
  0
VERTEX
  8
0
 10
39310.9822606057
 20
-6081.136736237733
  0
VERTEX
  8
0
 10
39310.63469320354
 20
-6081.112738230704
  0
VERTEX
  8
0
 10
39310.28703515439
 20
-6081.089449456201
  0
VERTEX
  8
0
 10
39309.93928871553
 20
-6081.066715303916
  0
VERTEX
  8
0
 10
39309.59145614426
 20
-6081.044381163539
  0
VERTEX
  8
0
 10
39309.24353969785
 20
-6081.02229242476
  0
VERTEX
  8
0
 10
39308.89554218864
 20
-6081.000315356928
  0
VERTEX
  8
0
 10
39308.54746868024
 20
-6080.978400914963
  0
VERTEX
  8
0
 10
39308.19932480689
 20
-6080.956521520974
  0
VERTEX
  8
0
 10
39307.85111620286
 20
-6080.934649597079
  0
VERTEX
  8
0
 10
39307.50284850242
 20
-6080.912757565388
  0
VERTEX
  8
0
 10
39307.15452733982
 20
-6080.890817848018
  0
VERTEX
  8
0
 10
39306.80615834931
 20
-6080.868802867083
  0
VERTEX
  8
0
 10
39306.45774716518
 20
-6080.846685044696
  0
VERTEX
  8
0
 10
39306.10929942168
 20
-6080.824436802972
  0
VERTEX
  8
0
 10
39305.76082075307
 20
-6080.802030564023
  0
VERTEX
  8
0
 10
39305.41231679361
 20
-6080.779438749966
  0
VERTEX
  8
0
 10
39305.06379317757
 20
-6080.756633782913
  0
VERTEX
  8
0
 10
39304.71525553921
 20
-6080.73358808498
  0
VERTEX
  8
0
 10
39304.36670951278
 20
-6080.710274078279
  0
VERTEX
  8
0
 10
39304.01816073255
 20
-6080.686664184926
  0
VERTEX
  8
0
 10
39303.66961483279
 20
-6080.662730827034
  0
VERTEX
  8
0
 10
39303.32107744775
 20
-6080.638446426718
  0
VERTEX
  8
0
 10
39302.9725542117
 20
-6080.613783406091
  0
VERTEX
  8
0
 10
39302.6240507589
 20
-6080.588714187268
  0
VERTEX
  8
0
 10
39302.27557272361
 20
-6080.563211192361
  0
VERTEX
  8
0
 10
39301.92712574009
 20
-6080.537246843488
  0
VERTEX
  8
0
 10
39301.5787154426
 20
-6080.510793562759
  0
VERTEX
  8
0
 10
39301.23034746541
 20
-6080.483823772293
  0
VERTEX
  8
0
 10
39300.88202744278
 20
-6080.4563098942
  0
VERTEX
  8
0
 10
39300.53376100897
 20
-6080.428224350594
  0
VERTEX
  8
0
 10
39300.18555379824
 20
-6080.399539563591
  0
VERTEX
  8
0
 10
39299.83741144485
 20
-6080.370227955304
  0
VERTEX
  8
0
 10
39299.48933958308
 20
-6080.34026194785
  0
VERTEX
  8
0
 10
39299.14134384717
 20
-6080.309613963339
  0
VERTEX
  8
0
 10
39298.79342970029
 20
-6080.278257502933
  0
VERTEX
  8
0
 10
39298.44559831073
 20
-6080.246193154462
  0
VERTEX
  8
0
 10
39298.09784634195
 20
-6080.213449916151
  0
VERTEX
  8
0
 10
39297.75017024433
 20
-6080.180058130199
  0
VERTEX
  8
0
 10
39297.40256646826
 20
-6080.146048138805
  0
VERTEX
  8
0
 10
39297.05503146411
 20
-6080.111450284167
  0
VERTEX
  8
0
 10
39296.70756168227
 20
-6080.076294908488
  0
VERTEX
  8
0
 10
39296.36015357311
 20
-6080.040612353965
  0
VERTEX
  8
0
 10
39296.01280358701
 20
-6080.004432962799
  0
VERTEX
  8
0
 10
39295.66550817437
 20
-6079.96778707719
  0
VERTEX
  8
0
 10
39295.31826378554
 20
-6079.930705039336
  0
VERTEX
  8
0
 10
39294.97106687091
 20
-6079.893217191439
  0
VERTEX
  8
0
 10
39294.62391388087
 20
-6079.855353875696
  0
VERTEX
  8
0
 10
39294.27680126578
 20
-6079.817145434308
  0
VERTEX
  8
0
 10
39293.92972547603
 20
-6079.778622209476
  0
VERTEX
  8
0
 10
39293.58268296201
 20
-6079.739814543396
  0
VERTEX
  8
0
 10
39293.23567017408
 20
-6079.700752778273
  0
VERTEX
  8
0
 10
39292.88868356263
 20
-6079.6614672563
  0
VERTEX
  8
0
 10
39292.54171957805
 20
-6079.621988319683
  0
VERTEX
  8
0
 10
39292.19477467069
 20
-6079.582346310616
  0
VERTEX
  8
0
 10
39291.84784529094
 20
-6079.542571571305
  0
VERTEX
  8
0
 10
39291.5009278892
 20
-6079.502694443943
  0
VERTEX
  8
0
 10
39291.15401891583
 20
-6079.462745270734
  0
VERTEX
  8
0
 10
39290.8071148212
 20
-6079.422754393877
  0
VERTEX
  8
0
 10
39265.67715301699
 20
-6079.417954952965
  0
SEQEND
  8
0
  0
POLYLINE
  8
0
 66
     1
 70
     1
  0
VERTEX
  8
0
 10
39295.63656901921
 20
-5440.276687593931
  0
VERTEX
  8
0
 10
39262.84786483127
 20
-5446.728608646283
  0
VERTEX
  8
0
 10
39266.64239479863
 20
-4923.270855378996
  0
VERTEX
  8
0
 10
39295.84873911258
 20
-4937.573295756639
  0
VERTEX
  8
0
 10
39295.96585126471
 20
-4939.949647612685
  0
VERTEX
  8
0
 10
39296.08308409168
 20
-4942.325986359891
  0
VERTEX
  8
0
 10
39296.20055337567
 20
-4944.702299420907
  0
VERTEX
  8
0
 10
39296.31837489894
 20
-4947.078574218375
  0
VERTEX
  8
0
 10
39296.43666444367
 20
-4949.454798174937
  0
VERTEX
  8
0
 10
39296.55553779209
 20
-4951.830958713242
  0
VERTEX
  8
0
 10
39296.67511072641
 20
-4954.207043255931
  0
VERTEX
  8
0
 10
39296.79549902885
 20
-4956.58303922565
  0
VERTEX
  8
0
 10
39296.91681848162
 20
-4958.958934045042
  0
VERTEX
  8
0
 10
39297.03918486692
 20
-4961.334715136754
  0
VERTEX
  8
0
 10
39297.16271396699
 20
-4963.71036992343
  0
VERTEX
  8
0
 10
39297.28752156402
 20
-4966.085885827712
  0
VERTEX
  8
0
 10
39297.41372344024
 20
-4968.461250272248
  0
VERTEX
  8
0
 10
39297.54143537786
 20
-4970.83645067968
  0
VERTEX
  8
0
 10
39297.67077315909
 20
-4973.211474472654
  0
VERTEX
  8
0
 10
39297.80185256616
 20
-4975.586309073812
  0
VERTEX
  8
0
 10
39297.93478938127
 20
-4977.960941905802
  0
VERTEX
  8
0
 10
39298.06969938663
 20
-4980.335360391267
  0
VERTEX
  8
0
 10
39298.20669836446
 20
-4982.70955195285
  0
VERTEX
  8
0
 10
39298.34590209698
 20
-4985.083504013199
  0
VERTEX
  8
0
 10
39298.4874263664
 20
-4987.457203994955
  0
VERTEX
  8
0
 10
39298.63138695493
 20
-4989.830639320766
  0
VERTEX
  8
0
 10
39298.7778996448
 20
-4992.203797413272
  0
VERTEX
  8
0
 10
39298.92708021821
 20
-4994.576665695121
  0
VERTEX
  8
0
 10
39299.07904445736
 20
-4996.949231588957
  0
VERTEX
  8
0
 10
39299.2339081445
 20
-4999.321482517422
  0
VERTEX
  8
0
 10
39299.39178706182
 20
-5001.693405903165
  0
VERTEX
  8
0
 10
39299.55279699153
 20
-5004.064989168827
  0
VERTEX
  8
0
 10
39299.71705371587
 20
-5006.436219737054
  0
VERTEX
  8
0
 10
39299.88467301703
 20
-5008.807085030489
  0
VERTEX
  8
0
 10
39300.05577067723
 20
-5011.177572471779
  0
VERTEX
  8
0
 10
39300.23046247868
 20
-5013.547669483567
  0
VERTEX
  8
0
 10
39300.40886420362
 20
-5015.917363488496
  0
VERTEX
  8
0
 10
39300.59109163423
 20
-5018.286641909214
  0
VERTEX
  8
0
 10
39300.77726055275
 20
-5020.655492168364
  0
VERTEX
  8
0
 10
39300.96748674138
 20
-5023.023901688589
  0
VERTEX
  8
0
 10
39301.16188598234
 20
-5025.391857892535
  0
VERTEX
  8
0
 10
39301.36057405784
 20
-5027.759348202846
  0
VERTEX
  8
0
 10
39301.56366675009
 20
-5030.126360042168
  0
VERTEX
  8
0
 10
39301.77127984132
 20
-5032.492880833143
  0
VERTEX
  8
0
 10
39301.98352911373
 20
-5034.858897998418
  0
VERTEX
  8
0
 10
39302.20053034955
 20
-5037.224398960636
  0
VERTEX
  8
0
 10
39302.42239933097
 20
-5039.589371142441
  0
VERTEX
  8
0
 10
39302.64925184022
 20
-5041.953801966479
  0
VERTEX
  8
0
 10
39302.88120365952
 20
-5044.317678855393
  0
VERTEX
  8
0
 10
39303.11837057107
 20
-5046.680989231831
  0
VERTEX
  8
0
 10
39303.3608683571
 20
-5049.043720518432
  0
VERTEX
  8
0
 10
39303.6088127998
 20
-5051.405860137845
  0
VERTEX
  8
0
 10
39303.86231968142
 20
-5053.767395512712
  0
VERTEX
  8
0
 10
39304.12150478413
 20
-5056.12831406568
  0
VERTEX
  8
0
 10
39304.38648389019
 20
-5058.48860321939
  0
VERTEX
  8
0
 10
39304.65735886903
 20
-5060.848252000123
  0
VERTEX
  8
0
 10
39304.93402926124
 20
-5063.207272755312
  0
VERTEX
  8
0
 10
39305.21624179146
 20
-5065.565695446505
  0
VERTEX
  8
0
 10
39305.50373941938
 20
-5067.923550469212
  0
VERTEX
  8
0
 10
39305.79626510468
 20
-5070.280868218945
  0
VERTEX
  8
0
 10
39306.09356180704
 20
-5072.637679091215
  0
VERTEX
  8
0
 10
39306.39537248615
 20
-5074.994013481533
  0
VERTEX
  8
0
 10
39306.70144010167
 20
-5077.349901785411
  0
VERTEX
  8
0
 10
39307.01150761329
 20
-5079.705374398359
  0
VERTEX
  8
0
 10
39307.32531798069
 20
-5082.06046171589
  0
VERTEX
  8
0
 10
39307.64261416356
 20
-5084.415194133512
  0
VERTEX
  8
0
 10
39307.96313912157
 20
-5086.76960204674
  0
VERTEX
  8
0
 10
39308.2866358144
 20
-5089.123715851084
  0
VERTEX
  8
0
 10
39308.61284720174
 20
-5091.477565942054
  0
VERTEX
  8
0
 10
39308.94151624327
 20
-5093.831182715161
  0
VERTEX
  8
0
 10
39309.27238589866
 20
-5096.184596565918
  0
VERTEX
  8
0
 10
39309.60519912759
 20
-5098.537837889835
  0
VERTEX
  8
0
 10
39309.93969888975
 20
-5100.890937082424
  0
VERTEX
  8
0
 10
39310.27562814482
 20
-5103.243924539196
  0
VERTEX
  8
0
 10
39310.61272985249
 20
-5105.596830655662
  0
VERTEX
  8
0
 10
39310.95074697242
 20
-5107.949685827332
  0
VERTEX
  8
0
 10
39311.2894224643
 20
-5110.30252044972
  0
VERTEX
  8
0
 10
39311.6284992878
 20
-5112.655364918335
  0
VERTEX
  8
0
 10
39311.96772040261
 20
-5115.00824962869
  0
VERTEX
  8
0
 10
39312.30682876842
 20
-5117.361204976293
  0
VERTEX
  8
0
 10
39312.64556734491
 20
-5119.714261356658
  0
VERTEX
  8
0
 10
39312.98367909174
 20
-5122.067449165297
  0
VERTEX
  8
0
 10
39313.32090696861
 20
-5124.420798797719
  0
VERTEX
  8
0
 10
39313.65699393519
 20
-5126.774340649436
  0
VERTEX
  8
0
 10
39313.99168295116
 20
-5129.128105115959
  0
VERTEX
  8
0
 10
39314.32471697621
 20
-5131.4821225928
  0
VERTEX
  8
0
 10
39314.65583897002
 20
-5133.836423475469
  0
VERTEX
  8
0
 10
39314.98479189226
 20
-5136.191038159477
  0
VERTEX
  8
0
 10
39315.31131870263
 20
-5138.545997040338
  0
VERTEX
  8
0
 10
39315.63516236079
 20
-5140.90133051356
  0
VERTEX
  8
0
 10
39315.95606582642
 20
-5143.257068974657
  0
VERTEX
  8
0
 10
39316.27377205922
 20
-5145.613242819138
  0
VERTEX
  8
0
 10
39316.58802401886
 20
-5147.969882442513
  0
VERTEX
  8
0
 10
39316.898564665
 20
-5150.327018240298
  0
VERTEX
  8
0
 10
39317.20513695736
 20
-5152.684680608
  0
VERTEX
  8
0
 10
39317.5074838556
 20
-5155.042899941132
  0
VERTEX
  8
0
 10
39317.8053483194
 20
-5157.401706635205
  0
VERTEX
  8
0
 10
39318.09847330844
 20
-5159.76113108573
  0
VERTEX
  8
0
 10
39318.3866017824
 20
-5162.121203688218
  0
VERTEX
  8
0
 10
39318.66947670098
 20
-5164.481954838181
  0
VERTEX
  8
0
 10
39318.94684102383
 20
-5166.84341493113
  0
VERTEX
  8
0
 10
39319.21843771065
 20
-5169.205614362574
  0
VERTEX
  8
0
 10
39319.48400972112
 20
-5171.568583528028
  0
VERTEX
  8
0
 10
39319.74330001016
 20
-5173.932352794298
  0
VERTEX
  8
0
 10
39319.99604926009
 20
-5176.296938786239
  0
VERTEX
  8
0
 10
39320.241992245
 20
-5178.662322403672
  0
VERTEX
  8
0
 10
39320.48086279126
 20
-5181.028478815538
  0
VERTEX
  8
0
 10
39320.71239472522
 20
-5183.395383190776
  0
VERTEX
  8
0
 10
39320.9363218732
 20
-5185.763010698326
  0
VERTEX
  8
0
 10
39321.15237806157
 20
-5188.13133650713
  0
VERTEX
  8
0
 10
39321.36029711668
 20
-5190.500335786128
  0
VERTEX
  8
0
 10
39321.55981286485
 20
-5192.86998370426
  0
VERTEX
  8
0
 10
39321.75065913246
 20
-5195.240255430468
  0
VERTEX
  8
0
 10
39321.93256974584
 20
-5197.611126133691
  0
VERTEX
  8
0
 10
39322.10527853134
 20
-5199.98257098287
  0
VERTEX
  8
0
 10
39322.2685193153
 20
-5202.354565146945
  0
VERTEX
  8
0
 10
39322.42202592409
 20
-5204.727083794857
  0
VERTEX
  8
0
 10
39322.56553218403
 20
-5207.100102095547
  0
VERTEX
  8
0
 10
39322.69877192149
 20
-5209.473595217954
  0
VERTEX
  8
0
 10
39322.8214789628
 20
-5211.847538331021
  0
VERTEX
  8
0
 10
39322.93338713431
 20
-5214.221906603686
  0
VERTEX
  8
0
 10
39323.03423026238
 20
-5216.59667520489
  0
VERTEX
  8
0
 10
39323.12374217335
 20
-5218.971819303574
  0
VERTEX
  8
0
 10
39323.20165669357
 20
-5221.347314068678
  0
VERTEX
  8
0
 10
39323.26770764937
 20
-5223.723134669143
  0
VERTEX
  8
0
 10
39323.32162886712
 20
-5226.099256273911
  0
VERTEX
  8
0
 10
39323.36319043624
 20
-5228.475651307393
  0
VERTEX
  8
0
 10
39323.39243794687
 20
-5230.85227134308
  0
VERTEX
  8
0
 10
39323.409543464
 20
-5233.229058382368
  0
VERTEX
  8
0
 10
39323.41467971626
 20
-5235.60595437643
  0
VERTEX
  8
0
 10
39323.40801943228
 20
-5237.982901276435
  0
VERTEX
  8
0
 10
39323.38973534066
 20
-5240.359841033554
  0
VERTEX
  8
0
 10
39323.36000017005
 20
-5242.736715598961
  0
VERTEX
  8
0
 10
39323.31898664907
 20
-5245.113466923825
  0
VERTEX
  8
0
 10
39323.26686750633
 20
-5247.490036959317
  0
VERTEX
  8
0
 10
39323.20381503648
 20
-5249.866367892897
  0
VERTEX
  8
0
 10
39323.12997927173
 20
-5252.242414032255
  0
VERTEX
  8
0
 10
39323.04547775089
 20
-5254.618147375405
  0
VERTEX
  8
0
 10
39322.95042544035
 20
-5256.993541320853
  0
VERTEX
  8
0
 10
39322.84493730651
 20
-5259.368569267101
  0
VERTEX
  8
0
 10
39322.72912831573
 20
-5261.743204612652
  0
VERTEX
  8
0
 10
39322.60311343443
 20
-5264.117420756009
  0
VERTEX
  8
0
 10
39322.46700762896
 20
-5266.491191095673
  0
VERTEX
  8
0
 10
39322.32092586573
 20
-5268.864489030149
  0
VERTEX
  8
0
 10
39322.16498311112
 20
-5271.237287957941
  0
VERTEX
  8
0
 10
39321.99929433152
 20
-5273.609561277549
  0
VERTEX
  8
0
 10
39321.82397449332
 20
-5275.981282387478
  0
VERTEX
  8
0
 10
39321.6391385629
 20
-5278.35242468623
  0
VERTEX
  8
0
 10
39321.44490150665
 20
-5280.722961572307
  0
VERTEX
  8
0
 10
39321.24137829095
 20
-5283.092866444214
  0
VERTEX
  8
0
 10
39321.0286838822
 20
-5285.462112700453
  0
VERTEX
  8
0
 10
39320.80693324678
 20
-5287.830673739527
  0
VERTEX
  8
0
 10
39320.57624135108
 20
-5290.198522959938
  0
VERTEX
  8
0
 10
39320.33672316148
 20
-5292.565633760189
  0
VERTEX
  8
0
 10
39320.08849364437
 20
-5294.931979538785
  0
VERTEX
  8
0
 10
39319.83166776614
 20
-5297.297533694226
  0
VERTEX
  8
0
 10
39319.56636049318
 20
-5299.662269625017
  0
VERTEX
  8
0
 10
39319.29268679187
 20
-5302.026160729661
  0
VERTEX
  8
0
 10
39319.01076162861
 20
-5304.389180406659
  0
VERTEX
  8
0
 10
39318.72069996977
 20
-5306.751302054516
  0
VERTEX
  8
0
 10
39318.42261678173
 20
-5309.112499071733
  0
VERTEX
  8
0
 10
39318.11662703091
 20
-5311.472744856814
  0
VERTEX
  8
0
 10
39317.80284568367
 20
-5313.832012808262
  0
VERTEX
  8
0
 10
39317.48138770641
 20
-5316.190276324581
  0
VERTEX
  8
0
 10
39317.1523680655
 20
-5318.54750880427
  0
VERTEX
  8
0
 10
39316.81590172734
 20
-5320.903683645836
  0
VERTEX
  8
0
 10
39316.47210365832
 20
-5323.25877424778
  0
VERTEX
  8
0
 10
39316.12108882483
 20
-5325.612754008605
  0
VERTEX
  8
0
 10
39315.76297219325
 20
-5327.965596326815
  0
VERTEX
  8
0
 10
39315.39786872995
 20
-5330.317274600912
  0
VERTEX
  8
0
 10
39315.02589340135
 20
-5332.667762229399
  0
VERTEX
  8
0
 10
39314.64716117382
 20
-5335.017032610779
  0
VERTEX
  8
0
 10
39314.26178701374
 20
-5337.365059143554
  0
VERTEX
  8
0
 10
39313.86988588751
 20
-5339.711815226229
  0
VERTEX
  8
0
 10
39313.4715727615
 20
-5342.057274257305
  0
VERTEX
  8
0
 10
39313.06696260213
 20
-5344.401409635285
  0
VERTEX
  8
0
 10
39312.65617037574
 20
-5346.744194758674
  0
VERTEX
  8
0
 10
39312.23935442122
 20
-5349.085618247683
  0
VERTEX
  8
0
 10
39311.81692338248
 20
-5351.425756567908
  0
VERTEX
  8
0
 10
39311.38937550074
 20
-5353.764717629429
  0
VERTEX
  8
0
 10
39310.95720913092
 20
-5356.102609382205
  0
VERTEX
  8
0
 10
39310.52092262789
 20
-5358.439539776201
  0
VERTEX
  8
0
 10
39310.08101434654
 20
-5360.775616761378
  0
VERTEX
  8
0
 10
39309.6379826418
 20
-5363.110948287701
  0
VERTEX
  8
0
 10
39309.19232586853
 20
-5365.44564230513
  0
VERTEX
  8
0
 10
39308.74454238164
 20
-5367.779806763629
  0
VERTEX
  8
0
 10
39308.29513053603
 20
-5370.113549613162
  0
VERTEX
  8
0
 10
39307.84458868657
 20
-5372.446978803689
  0
VERTEX
  8
0
 10
39307.39341518818
 20
-5374.780202285177
  0
VERTEX
  8
0
 10
39306.94210839574
 20
-5377.113328007585
  0
VERTEX
  8
0
 10
39306.49116666416
 20
-5379.446463920876
  0
VERTEX
  8
0
 10
39306.04108834831
 20
-5381.779717975015
  0
VERTEX
  8
0
 10
39305.5923718031
 20
-5384.113198119963
  0
VERTEX
  8
0
 10
39305.14551538343
 20
-5386.447012305684
  0
VERTEX
  8
0
 10
39304.70101744418
 20
-5388.78126848214
  0
VERTEX
  8
0
 10
39304.25937634025
 20
-5391.116074599294
  0
VERTEX
  8
0
 10
39303.82109042654
 20
-5393.451538607108
  0
VERTEX
  8
0
 10
39303.38662345662
 20
-5395.787761132928
  0
VERTEX
  8
0
 10
39302.95603597586
 20
-5398.124757473804
  0
VERTEX
  8
0
 10
39302.5291279349
 20
-5400.462487777563
  0
VERTEX
  8
0
 10
39302.10569492042
 20
-5402.800911268488
  0
VERTEX
  8
0
 10
39301.68553251911
 20
-5405.139987170864
  0
VERTEX
  8
0
 10
39301.26843631763
 20
-5407.479674708974
  0
VERTEX
  8
0
 10
39300.85420190266
 20
-5409.819933107104
  0
VERTEX
  8
0
 10
39300.44262486089
 20
-5412.160721589537
  0
VERTEX
  8
0
 10
39300.03350077898
 20
-5414.50199938056
  0
VERTEX
  8
0
 10
39299.62662524363
 20
-5416.843725704453
  0
VERTEX
  8
0
 10
39299.2217938415
 20
-5419.185859785504
  0
VERTEX
  8
0
 10
39298.81880215927
 20
-5421.528360847997
  0
VERTEX
  8
0
 10
39298.41744578361
 20
-5423.871188116214
  0
VERTEX
  8
0
 10
39298.01752030122
 20
-5426.214300814441
  0
VERTEX
  8
0
 10
39297.61882129876
 20
-5428.557658166963
  0
VERTEX
  8
0
 10
39297.22114436291
 20
-5430.901219398062
  0
VERTEX
  8
0
 10
39296.82428508035
 20
-5433.244943732024
  0
VERTEX
  8
0
 10
39296.42803903777
 20
-5435.588790393133
  0
VERTEX
  8
0
 10
39296.03220182182
 20
-5437.932718605675
  0
SEQEND
  8
0
  0
POLYLINE
  8
0
 66
     1
  0
VERTEX
  8
0
 10
39264.00581296822
 20
-4926.063259318016
 42
-0.053313103794
  0
VERTEX
  8
0
 10
39266.05462090479
 20
-4821.214459192207
 42
-0.880455082156
  0
VERTEX
  8
0
 10
39290.97644650954
 20
-4821.414909389957
 42
-0.048292941085
  0
VERTEX
  8
0
 10
39292.1823431287
 20
-4926.330966723566
  0
SEQEND
  8
0
  0
POLYLINE
  8
0
 66
     1
  0
VERTEX
  8
0
 10
39293.56533610587
 20
-5445.932390919804
 42
-0.146480882175
  0
VERTEX
  8
0
 10
39289.60471994145
 20
-5474.556952514555
 42
-0.651602302191
  0
VERTEX
  8
0
 10
39266.66536258996
 20
-5474.563455239251
 42
-0.140924310626
  0
VERTEX
  8
0
 10
39262.73296571141
 20
-5446.393117238829
  0
SEQEND
  8
0
  0
ARC
  8
0
 10
51847.65565590808
 20
-3982.607495489062
 40
11657.48962512337
 50
190.493875273258
 51
191.772109775569
  0
POLYLINE
  8
0
 66
     1
  0
VERTEX
  8
0
 10
40244.94480810906
 20
-6340.637207356361
  0
VERTEX
  8
0
 10
40249.35048909121
 20
-6339.494918651068
  0
VERTEX
  8
0
 10
40253.74460473816
 20
-6338.32270600729
  0
VERTEX
  8
0
 10
40258.11558971471
 20
-6337.09064548654
  0
VERTEX
  8
0
 10
40262.45187868566
 20
-6335.76881315033
  0
VERTEX
  8
0
 10
40266.7419063158
 20
-6334.327285060176
  0
VERTEX
  8
0
 10
40270.97411270616
 20
-6332.736156250119
  0
VERTEX
  8
0
 10
40275.13961708761
 20
-6330.974871975629
  0
VERTEX
  8
0
 10
40279.23653557209
 20
-6329.047296759271
  0
VERTEX
  8
0
 10
40283.26411226029
 20
-6326.961231828901
  0
VERTEX
  8
0
 10
40287.22159125293
 20
-6324.724478412371
  0
VERTEX
  8
0
 10
40291.10821665068
 20
-6322.344837737538
  0
VERTEX
  8
0
 10
40294.92323255426
 20
-6319.830111032255
  0
VERTEX
  8
0
 10
40298.6655108086
 20
-6317.187882117585
  0
VERTEX
  8
0
 10
40302.32695003059
 20
-6314.421662273011
  0
VERTEX
  8
0
 10
40305.89325837296
 20
-6311.531347390326
  0
VERTEX
  8
0
 10
40309.34992898153
 20
-6308.516707791839
  0
VERTEX
  8
0
 10
40312.68245500209
 20
-6305.377513799857
  0
VERTEX
  8
0
 10
40315.87632958047
 20
-6302.113535736691
  0
VERTEX
  8
0
 10
40318.91704586246
 20
-6298.724543924649
  0
VERTEX
  8
0
 10
40321.79009699387
 20
-6295.21030868604
  0
VERTEX
  8
0
 10
40324.48097612053
 20
-6291.570600343173
  0
VERTEX
  8
0
 10
40326.97519727853
 20
-6287.805198044941
  0
VERTEX
  8
0
 10
40329.26671034154
 20
-6283.917445250954
  0
VERTEX
  8
0
 10
40331.37079081733
 20
-6279.91969592946
  0
VERTEX
  8
0
 10
40333.30603253895
 20
-6275.825706107751
  0
VERTEX
  8
0
 10
40335.09102933946
 20
-6271.649231813127
  0
VERTEX
  8
0
 10
40336.74437505193
 20
-6267.404029072884
  0
VERTEX
  8
0
 10
40338.2846635094
 20
-6263.103853914319
  0
VERTEX
  8
0
 10
40339.73048854493
 20
-6258.76246236473
  0
VERTEX
  8
0
 10
40341.10044399157
 20
-6254.39361045141
  0
VERTEX
  8
0
 10
40342.41310051044
 20
-6250.011032920811
  0
VERTEX
  8
0
 10
40343.68280198943
 20
-6245.624582699534
  0
VERTEX
  8
0
 10
40344.91477818591
 20
-6241.235742401668
  0
VERTEX
  8
0
 10
40346.1130732413
 20
-6236.84490578526
  0
VERTEX
  8
0
 10
40347.28173129701
 20
-6232.452466608354
  0
VERTEX
  8
0
 10
40348.42479649444
 20
-6228.058818628998
  0
VERTEX
  8
0
 10
40349.54631297504
 20
-6223.664355605234
  0
VERTEX
  8
0
 10
40350.65032488018
 20
-6219.269471295111
  0
VERTEX
  8
0
 10
40351.74087635129
 20
-6214.874559456671
  0
VERTEX
  8
0
 10
40352.8220115298
 20
-6210.480013847961
  0
VERTEX
  8
0
 10
40353.8977745571
 20
-6206.086228227027
  0
VERTEX
  8
0
 10
40354.97220957462
 20
-6201.693596351914
  0
VERTEX
  8
0
 10
40356.04936072376
 20
-6197.302511980666
  0
VERTEX
  8
0
 10
40357.13327214593
 20
-6192.913368871331
  0
VERTEX
  8
0
 10
40358.22798798257
 20
-6188.526560781953
  0
VERTEX
  8
0
 10
40359.33755237506
 20
-6184.142481470577
  0
VERTEX
  8
0
 10
40360.46516987397
 20
-6179.761431199422
  0
VERTEX
  8
0
 10
40361.61064856841
 20
-6175.383332004854
  0
VERTEX
  8
0
 10
40362.77293779986
 20
-6171.008010294139
  0
VERTEX
  8
0
 10
40363.95098690977
 20
-6166.635292474534
  0
VERTEX
  8
0
 10
40365.14374523955
 20
-6162.2650049533
  0
VERTEX
  8
0
 10
40366.35016213068
 20
-6157.896974137695
  0
VERTEX
  8
0
 10
40367.56918692456
 20
-6153.531026434979
  0
VERTEX
  8
0
 10
40368.79976896264
 20
-6149.166988252412
  0
VERTEX
  8
0
 10
40370.04085758635
 20
-6144.804685997251
  0
VERTEX
  8
0
 10
40371.29140213713
 20
-6140.443946076758
  0
VERTEX
  8
0
 10
40372.55035195642
 20
-6136.084594898191
  0
VERTEX
  8
0
 10
40373.81665638566
 20
-6131.726458868809
  0
VERTEX
  8
0
 10
40375.08926476628
 20
-6127.36936439587
  0
VERTEX
  8
0
 10
40376.36712643971
 20
-6123.013137886634
  0
VERTEX
  8
0
 10
40377.6491907474
 20
-6118.657605748364
  0
VERTEX
  8
0
 10
40378.93440703078
 20
-6114.302594388314
  0
VERTEX
  8
0
 10
40380.22172463128
 20
-6109.947930213748
  0
VERTEX
  8
0
 10
40381.51009289036
 20
-6105.593439631921
  0
SEQEND
  8
0
  0
POLYLINE
  8
0
 66
     1
  0
VERTEX
  8
0
 10
40317.47086925804
 20
-6347.908743551982
  0
VERTEX
  8
0
 10
40320.16297926466
 20
-6346.014153745737
  0
VERTEX
  8
0
 10
40322.843708621
 20
-6344.10426103359
  0
VERTEX
  8
0
 10
40325.50167667679
 20
-6342.16376250964
  0
VERTEX
  8
0
 10
40328.12550278175
 20
-6340.177355267987
  0
VERTEX
  8
0
 10
40330.70443195698
 20
-6338.130819463267
  0
VERTEX
  8
0
 10
40333.23359348597
 20
-6336.020121128229
  0
VERTEX
  8
0
 10
40335.7113429633
 20
-6333.846811160738
  0
VERTEX
  8
0
 10
40338.13606910653
 20
-6331.61249779572
  0
VERTEX
  8
0
 10
40340.50616063318
 20
-6329.318789268099
  0
VERTEX
  8
0
 10
40342.82000626081
 20
-6326.967293812802
  0
VERTEX
  8
0
 10
40345.07599470695
 20
-6324.559619664757
  0
VERTEX
  8
0
 10
40347.27251468915
 20
-6322.097375058887
  0
VERTEX
  8
0
 10
40349.40795492494
 20
-6319.582168230119
  0
VERTEX
  8
0
 10
40351.4808849763
 20
-6317.015669027563
  0
VERTEX
  8
0
 10
40353.49128304082
 20
-6314.400027226293
  0
VERTEX
  8
0
 10
40355.4397880229
 20
-6311.737617705963
  0
VERTEX
  8
0
 10
40357.32704262679
 20
-6309.030816640859
  0
VERTEX
  8
0
 10
40359.15368955673
 20
-6306.28200020526
  0
VERTEX
  8
0
 10
40360.920371517
 20
-6303.49354457345
  0
VERTEX
  8
0
 10
40362.62773121185
 20
-6300.66782591971
  0
VERTEX
  8
0
 10
40364.27641134552
 20
-6297.807220418324
  0
VERTEX
  8
0
 10
40365.86705462228
 20
-6294.914104243573
  0
VERTEX
  8
0
 10
40367.40030374638
 20
-6291.99085356974
  0
VERTEX
  8
0
 10
40368.87680142207
 20
-6289.039844571109
  0
VERTEX
  8
0
 10
40370.29719035361
 20
-6286.063453421959
  0
VERTEX
  8
0
 10
40371.6621970226
 20
-6283.064027287536
  0
VERTEX
  8
0
 10
40372.97395481763
 20
-6280.043426172458
  0
VERTEX
  8
0
 10
40374.23576438027
 20
-6277.003105904178
  0
VERTEX
  8
0
 10
40375.45096167407
 20
-6273.944510079442
  0
VERTEX
  8
0
 10
40376.62288266256
 20
-6270.869082294992
  0
VERTEX
  8
0
 10
40377.75486330927
 20
-6267.778266147574
  0
VERTEX
  8
0
 10
40378.85023957773
 20
-6264.673505233933
  0
VERTEX
  8
0
 10
40379.91234743148
 20
-6261.556243150812
  0
VERTEX
  8
0
 10
40380.94452283406
 20
-6258.427923494959
  0
VERTEX
  8
0
 10
40381.950101749
 20
-6255.289989863116
  0
VERTEX
  8
0
 10
40382.93242013985
 20
-6252.143885852028
  0
VERTEX
  8
0
 10
40383.89481397012
 20
-6248.991055058439
  0
VERTEX
  8
0
 10
40384.84061920337
 20
-6245.832941079096
  0
VERTEX
  8
0
 10
40385.77317180311
 20
-6242.670987510741
  0
VERTEX
  8
0
 10
40386.69580773253
 20
-6239.506637949947
  0
VERTEX
  8
0
 10
40387.61136132215
 20
-6236.34109895165
  0
VERTEX
  8
0
 10
40388.52071429018
 20
-6233.174654382753
  0
VERTEX
  8
0
 10
40389.42427332099
 20
-6230.00736363753
  0
VERTEX
  8
0
 10
40390.32244509893
 20
-6226.839286110251
  0
VERTEX
  8
0
 10
40391.21563630838
 20
-6223.670481195189
  0
VERTEX
  8
0
 10
40392.10425363369
 20
-6220.501008286614
  0
VERTEX
  8
0
 10
40392.98870375923
 20
-6217.330926778797
  0
VERTEX
  8
0
 10
40393.86939336936
 20
-6214.160296066014
  0
VERTEX
  8
0
 10
40394.74672914846
 20
-6210.989175542532
  0
VERTEX
  8
0
 10
40395.62111778087
 20
-6207.817624602624
  0
VERTEX
  8
0
 10
40396.49296595097
 20
-6204.645702640563
  0
VERTEX
  8
0
 10
40397.36268034313
 20
-6201.473469050619
  0
VERTEX
  8
0
 10
40398.23066764169
 20
-6198.300983227065
  0
VERTEX
  8
0
 10
40399.09733453103
 20
-6195.128304564172
  0
VERTEX
  8
0
 10
40399.96308769551
 20
-6191.955492456211
  0
VERTEX
  8
0
 10
40400.82833381951
 20
-6188.782606297454
  0
SEQEND
  8
0
  0
ARC
  8
0
 10
27792.49371236347
 20
-5714.443656900437
 40
12125.13826992821
 50
355.504477013149
 51
356.851536384625
  0
ARC
  8
0
 10
27792.49371236347
 20
-5714.443656900437
 40
12125.13826992821
 50
357.164126266493
 51
358.271942023865
  0
ARC
  8
0
 10
52089.16356635134
 20
-7035.590632273583
 40
12239.45879364418
 50
175.516135778938
 51
178.264100593759
  0
LINE
  8
0
 10
39855.32175225367
 20
-6664.826517304069
 11
39880.32852607303
 21
-6664.826517304075
  0
POLYLINE
  8
0
 66
     1
  0
VERTEX
  8
0
 10
40413.12069471909
 20
-6082.28372794899
  0
VERTEX
  8
0
 10
39888.18058755183
 20
-6053.765782835478
 42
0.50779273314
  0
VERTEX
  8
0
 10
39882.62047368153
 20
-6059.972210668529
  0
VERTEX
  8
0
 10
39887.16498214957
 20
-6078.730082114016
  0
VERTEX
  8
0
 10
40411.31384783609
 20
-6107.213014514097
  0
VERTEX
  8
0
 10
40417.92093689147
 20
-6089.061084045307
 42
0.523134906168
  0
VERTEX
  8
0
 10
40413.0247255273
 20
-6082.284632997058
  0
SEQEND
  8
0
  0
POLYLINE
  8
0
 66
     1
  0
VERTEX
  8
0
 10
39828.32560463364
 20
-6286.5929258345
  0
VERTEX
  8
0
 10
39835.6624863472
 20
-6304.366023331339
 42
0.283298734772
  0
VERTEX
  8
0
 10
39870.0387507452
 20
-6330.339629754896
  0
SEQEND
  8
0
  0
POLYLINE
  8
0
 66
     1
  0
VERTEX
  8
0
 10
39904.65335568833
 20
-6275.058931493381
  0
VERTEX
  8
0
 10
39910.22973390907
 20
-6275.422235614597
  0
VERTEX
  8
0
 10
39915.80603854649
 20
-6275.786853139858
  0
VERTEX
  8
0
 10
39921.38219601724
 20
-6276.154097473205
  0
VERTEX
  8
0
 10
39926.958132738
 20
-6276.525282018682
  0
VERTEX
  8
0
 10
39932.53377512544
 20
-6276.901720180334
  0
VERTEX
  8
0
 10
39938.10904959623
 20
-6277.284725362203
  0
VERTEX
  8
0
 10
39943.68388256705
 20
-6277.675610968333
  0
VERTEX
  8
0
 10
39949.25820009145
 20
-6278.075621664609
  0
VERTEX
  8
0
 10
39954.83192524306
 20
-6278.48543798943
  0
VERTEX
  8
0
 10
39960.40497963437
 20
-6278.905463881209
  0
VERTEX
  8
0
 10
39965.97728486783
 20
-6279.336101375422
  0
VERTEX
  8
0
 10
39971.54876254589
 20
-6279.777752507543
  0
VERTEX
  8
0
 10
39977.119334271
 20
-6280.230819313051
  0
VERTEX
  8
0
 10
39982.6889216456
 20
-6280.695703827418
  0
VERTEX
  8
0
 10
39988.25744627215
 20
-6281.172808086122
  0
VERTEX
  8
0
 10
39993.82482975308
 20
-6281.662534124636
  0
VERTEX
  8
0
 10
39999.39099369087
 20
-6282.165283978439
  0
VERTEX
  8
0
 10
40004.95585968793
 20
-6282.681459683005
  0
VERTEX
  8
0
 10
40010.51934934673
 20
-6283.211463273809
  0
VERTEX
  8
0
 10
40016.08138426971
 20
-6283.755696786328
  0
VERTEX
  8
0
 10
40021.64188605933
 20
-6284.314562256036
  0
VERTEX
  8
0
 10
40027.20077631803
 20
-6284.888461718411
  0
VERTEX
  8
0
 10
40032.75797664825
 20
-6285.477797208925
  0
VERTEX
  8
0
 10
40038.31340865245
 20
-6286.082970763058
  0
VERTEX
  8
0
 10
40043.86699412683
 20
-6286.704382938376
  0
VERTEX
  8
0
 10
40049.41868404598
 20
-6287.342211730396
  0
VERTEX
  8
0
 10
40054.96848943357
 20
-6287.996177102344
  0
VERTEX
  8
0
 10
40060.5164287089
 20
-6288.665942605964
  0
VERTEX
  8
0
 10
40066.06252029131
 20
-6289.351171793014
  0
VERTEX
  8
0
 10
40071.60678260012
 20
-6290.051528215243
  0
VERTEX
  8
0
 10
40077.14923405467
 20
-6290.766675424406
  0
VERTEX
  8
0
 10
40082.68989307428
 20
-6291.496276972252
  0
VERTEX
  8
0
 10
40088.22877807826
 20
-6292.239996410533
  0
VERTEX
  8
0
 10
40093.76590748596
 20
-6292.997497291004
  0
VERTEX
  8
0
 10
40099.3012997167
 20
-6293.768443165414
  0
VERTEX
  8
0
 10
40104.83497318979
 20
-6294.552497585518
  0
VERTEX
  8
0
 10
40110.36694632458
 20
-6295.349324103066
  0
VERTEX
  8
0
 10
40115.89723754037
 20
-6296.158586269809
  0
VERTEX
  8
0
 10
40121.4258652565
 20
-6296.979947637502
  0
VERTEX
  8
0
 10
40126.95290491881
 20
-6297.812651430055
  0
VERTEX
  8
0
 10
40132.47884754508
 20
-6298.652877797141
  0
VERTEX
  8
0
 10
40138.00436813368
 20
-6299.495450814341
  0
VERTEX
  8
0
 10
40143.53014250311
 20
-6300.335188512648
  0
VERTEX
  8
0
 10
40149.05684647182
 20
-6301.166908923055
  0
VERTEX
  8
0
 10
40154.58515585832
 20
-6301.985430076555
  0
VERTEX
  8
0
 10
40160.11574648105
 20
-6302.785570004138
  0
VERTEX
  8
0
 10
40165.64929415849
 20
-6303.562146736802
  0
VERTEX
  8
0
 10
40171.18647470914
 20
-6304.309978305537
  0
VERTEX
  8
0
 10
40176.72796395143
 20
-6305.023882741335
  0
VERTEX
  8
0
 10
40182.2744642906
 20
-6305.698167867381
  0
VERTEX
  8
0
 10
40187.82698071573
 20
-6306.321334823198
  0
VERTEX
  8
0
 10
40193.38671039473
 20
-6306.878196774942
  0
VERTEX
  8
0
 10
40198.95485356476
 20
-6307.353507988417
  0
VERTEX
  8
0
 10
40204.53261046298
 20
-6307.732022729423
  0
VERTEX
  8
0
 10
40210.12118132657
 20
-6307.998495263764
  0
VERTEX
  8
0
 10
40215.72171570394
 20
-6308.13764500806
  0
VERTEX
  8
0
 10
40221.33124793352
 20
-6308.131362118248
  0
VERTEX
  8
0
 10
40226.93972503979
 20
-6307.956664129219
  0
VERTEX
  8
0
 10
40232.53639329788
 20
-6307.590086801517
  0
VERTEX
  8
0
 10
40238.11049898292
 20
-6307.008165895694
  0
VERTEX
  8
0
 10
40243.65128837003
 20
-6306.187437172299
  0
VERTEX
  8
0
 10
40249.14800773435
 20
-6305.10443639188
  0
VERTEX
  8
0
 10
40254.58982071727
 20
-6303.735660368511
  0
VERTEX
  8
0
 10
40259.95152750811
 20
-6302.050836212554
  0
VERTEX
  8
0
 10
40265.17730755883
 20
-6300.005259035869
  0
VERTEX
  8
0
 10
40270.20740949831
 20
-6297.552371296279
  0
VERTEX
  8
0
 10
40274.98277417584
 20
-6294.647014973406
  0
VERTEX
  8
0
 10
40279.46721973496
 20
-6291.290285050401
  0
VERTEX
  8
0
 10
40283.65213986955
 20
-6287.539028384456
  0
VERTEX
  8
0
 10
40287.53057043382
 20
-6283.453411930205
  0
VERTEX
  8
0
 10
40291.09554728196
 20
-6279.093602642279
  0
VERTEX
  8
0
 10
40294.34458750569
 20
-6274.515353924233
  0
VERTEX
  8
0
 10
40297.29731428847
 20
-6269.752646987418
  0
VERTEX
  8
0
 10
40299.98015554502
 20
-6264.832761093358
  0
VERTEX
  8
0
 10
40302.41954107396
 20
-6259.782973648171
  0
VERTEX
  8
0
 10
40304.64190067391
 20
-6254.630562057969
  0
VERTEX
  8
0
 10
40306.67366414345
 20
-6249.402803728872
  0
VERTEX
  8
0
 10
40308.5402883093
 20
-6244.124143163426
  0
VERTEX
  8
0
 10
40310.26225592869
 20
-6238.804542370472
  0
VERTEX
  8
0
 10
40311.85846443159
 20
-6233.449347522343
  0
VERTEX
  8
0
 10
40313.34781056911
 20
-6228.063902814701
  0
VERTEX
  8
0
 10
40314.74919109233
 20
-6222.653552443207
  0
VERTEX
  8
0
 10
40316.08150275235
 20
-6217.22364060352
  0
VERTEX
  8
0
 10
40317.36364230027
 20
-6211.779511491302
  0
VERTEX
  8
0
 10
40318.61450648716
 20
-6206.326509302216
  0
VERTEX
  8
0
 10
40319.85299206413
 20
-6200.869978231918
  0
VERTEX
  8
0
 10
40321.09799578228
 20
-6195.415262476071
  0
VERTEX
  8
0
 10
40322.36770195077
 20
-6189.967504802151
  0
VERTEX
  8
0
 10
40323.6691656865
 20
-6184.528701429095
  0
VERTEX
  8
0
 10
40325.00062846961
 20
-6179.098356702689
  0
VERTEX
  8
0
 10
40326.36009036364
 20
-6173.675906713153
  0
VERTEX
  8
0
 10
40327.74555143207
 20
-6168.260787550714
  0
VERTEX
  8
0
 10
40329.1550117384
 20
-6162.852435305592
  0
VERTEX
  8
0
 10
40330.58647134617
 20
-6157.450286068013
  0
VERTEX
  8
0
 10
40332.03793031886
 20
-6152.053775928199
  0
VERTEX
  8
0
 10
40333.50738871998
 20
-6146.662340976374
  0
VERTEX
  8
0
 10
40334.99284661306
 20
-6141.275417302762
  0
VERTEX
  8
0
 10
40336.49230406158
 20
-6135.892440997585
  0
VERTEX
  8
0
 10
40338.00376112905
 20
-6130.512848151068
  0
VERTEX
  8
0
 10
40339.525217879
 20
-6125.136074853434
  0
VERTEX
  8
0
 10
40341.05467437491
 20
-6119.761557194906
  0
VERTEX
  8
0
 10
40342.59013068031
 20
-6114.388731265709
  0
VERTEX
  8
0
 10
40344.12958685867
 20
-6109.017033156063
  0
VERTEX
  8
0
 10
40345.67104297355
 20
-6103.645898956194
  0
SEQEND
  8
0
  0
LINE
  8
0
 10
40494.83106688566
 20
-5887.882265569513
 11
40494.50968414747
 21
-5887.703553580474
  0
ARC
  8
0
 10
39872.92131971751
 20
-6361.407011884597
 40
87.09721738008182
 50
89.692204691513
 51
120.798626355934
  0
POLYLINE
  8
0
 66
     1
  0
VERTEX
  8
0
 10
39873.71067822062
 20
-6269.158760123732
  0
VERTEX
  8
0
 10
39863.59069491905
 20
-6269.516081764116
  0
VERTEX
  8
0
 10
39853.49125087276
 20
-6271.011568947141
  0
VERTEX
  8
0
 10
39843.60386988783
 20
-6273.634295142502
  0
VERTEX
  8
0
 10
39834.11357851917
 20
-6277.330885375401
  0
VERTEX
  8
0
 10
39828.52262543838
 20
-6280.116957165467
  0
VERTEX
  8
0
 10
39828.42941843038
 20
-6280.178645110519
  0
VERTEX
  8
0
 10
39828.33623115262
 20
-6280.240362619739
  0
VERTEX
  8
0
 10
39828.24307783803
 20
-6280.302131020011
  0
VERTEX
  8
0
 10
39828.14997271951
 20
-6280.363971638219
  0
VERTEX
  8
0
 10
39828.05693003
 20
-6280.425905801245
  0
VERTEX
  8
0
 10
39827.9639640024
 20
-6280.487954835975
  0
VERTEX
  8
0
 10
39827.87108886964
 20
-6280.55014006929
  0
VERTEX
  8
0
 10
39827.77831886465
 20
-6280.612482828074
  0
VERTEX
  8
0
 10
39827.68566822034
 20
-6280.675004439212
  0
VERTEX
  8
0
 10
39827.59315116964
 20
-6280.737726229586
  0
VERTEX
  8
0
 10
39827.50078194546
 20
-6280.800669526079
  0
VERTEX
  8
0
 10
39827.40857478073
 20
-6280.863855655576
  0
VERTEX
  8
0
 10
39827.31654390837
 20
-6280.927305944961
  0
VERTEX
  8
0
 10
39827.2247035613
 20
-6280.991041721115
  0
VERTEX
  8
0
 10
39827.13306797243
 20
-6281.055084310923
  0
VERTEX
  8
0
 10
39827.0416513747
 20
-6281.119455041269
  0
VERTEX
  8
0
 10
39826.95046800102
 20
-6281.184175239036
  0
VERTEX
  8
0
 10
39826.85953208431
 20
-6281.249266231107
  0
VERTEX
  8
0
 10
39826.76885785749
 20
-6281.314749344367
  0
VERTEX
  8
0
 10
39826.67845955349
 20
-6281.380645905697
  0
VERTEX
  8
0
 10
39826.58835140522
 20
-6281.446977241982
  0
VERTEX
  8
0
 10
39826.49854764561
 20
-6281.513764680106
  0
VERTEX
  8
0
 10
39826.40906250758
 20
-6281.581029546951
  0
VERTEX
  8
0
 10
39826.31991022405
 20
-6281.648793169402
  0
VERTEX
  8
0
 10
39826.23110502793
 20
-6281.717076874342
  0
VERTEX
  8
0
 10
39826.14266115216
 20
-6281.785901988655
  0
VERTEX
  8
0
 10
39826.05459282964
 20
-6281.855289839223
  0
VERTEX
  8
0
 10
39825.96691507843
 20
-6281.925261912651
  0
VERTEX
  8
0
 10
39825.87965968186
 20
-6281.995843106145
  0
VERTEX
  8
0
 10
39825.79287450025
 20
-6282.067061587514
  0
VERTEX
  8
0
 10
39825.70660804144
 20
-6282.13894565627
  0
VERTEX
  8
0
 10
39825.62090881319
 20
-6282.211523611924
  0
VERTEX
  8
0
 10
39825.5358253233
 20
-6282.284823753992
  0
VERTEX
  8
0
 10
39825.45140607954
 20
-6282.358874381986
  0
VERTEX
  8
0
 10
39825.36769958973
 20
-6282.433703795416
  0
VERTEX
  8
0
 10
39825.28475436163
 20
-6282.509340293797
  0
VERTEX
  8
0
 10
39825.20261890304
 20
-6282.585812176643
  0
VERTEX
  8
0
 10
39825.12134172174
 20
-6282.663147743465
  0
VERTEX
  8
0
 10
39825.04097132554
 20
-6282.741375293775
  0
VERTEX
  8
0
 10
39824.9615562222
 20
-6282.820523127089
  0
VERTEX
  8
0
 10
39824.88314491951
 20
-6282.900619542918
  0
VERTEX
  8
0
 10
39824.80578592528
 20
-6282.981692840774
  0
VERTEX
  8
0
 10
39824.72952774728
 20
-6283.06377132017
  0
VERTEX
  8
0
 10
39824.65441889331
 20
-6283.146883280621
  0
VERTEX
  8
0
 10
39824.58050787115
 20
-6283.231057021637
  0
VERTEX
  8
0
 10
39824.50784318859
 20
-6283.316320842733
  0
VERTEX
  8
0
 10
39824.43647335342
 20
-6283.40270304342
  0
VERTEX
  8
0
 10
39824.36644687342
 20
-6283.490231923212
  0
VERTEX
  8
0
 10
39824.29781225639
 20
-6283.578935781622
  0
VERTEX
  8
0
 10
39824.23061801011
 20
-6283.668842918161
  0
VERTEX
  8
0
 10
39824.16491268272
 20
-6283.75998159863
  0
VERTEX
  8
0
 10
39824.10076096285
 20
-6283.85236660459
  0
VERTEX
  8
0
 10
39824.03826827486
 20
-6283.945978685728
  0
VERTEX
  8
0
 10
39823.97754637035
 20
-6284.040793305794
  0
VERTEX
  8
0
 10
39823.91870700086
 20
-6284.136785928537
  0
VERTEX
  8
0
 10
39823.86186191801
 20
-6284.23393201771
  0
VERTEX
  8
0
 10
39823.80712287334
 20
-6284.332207037058
  0
VERTEX
  8
0
 10
39823.75460161844
 20
-6284.431586450337
  0
VERTEX
  8
0
 10
39823.70440990491
 20
-6284.532045721294
  0
VERTEX
  8
0
 10
39823.6566594843
 20
-6284.633560313679
  0
VERTEX
  8
0
 10
39823.61146210819
 20
-6284.736105691245
  0
VERTEX
  8
0
 10
39823.56892952818
 20
-6284.839657317739
  0
VERTEX
  8
0
 10
39823.52917349583
 20
-6284.944190656914
  0
VERTEX
  8
0
 10
39823.49230576271
 20
-6285.049681172517
  0
VERTEX
  8
0
 10
39823.45843597394
 20
-6285.156103897885
  0
VERTEX
  8
0
 10
39823.42759091851
 20
-6285.263416936336
  0
VERTEX
  8
0
 10
39823.39968918967
 20
-6285.37155628352
  0
VERTEX
  8
0
 10
39823.37464209285
 20
-6285.48045644597
  0
VERTEX
  8
0
 10
39823.35236093353
 20
-6285.590051930216
  0
VERTEX
  8
0
 10
39823.33275701715
 20
-6285.70027724279
  0
VERTEX
  8
0
 10
39823.31574164916
 20
-6285.811066890225
  0
VERTEX
  8
0
 10
39823.301226135
 20
-6285.922355379053
  0
VERTEX
  8
0
 10
39823.28912178014
 20
-6286.034077215805
  0
VERTEX
  8
0
 10
39823.27933989003
 20
-6286.146166907014
  0
VERTEX
  8
0
 10
39823.27179177011
 20
-6286.258558959211
  0
VERTEX
  8
0
 10
39823.26638872583
 20
-6286.371187878929
  0
VERTEX
  8
0
 10
39823.26304206265
 20
-6286.483988172698
  0
VERTEX
  8
0
 10
39823.2616644407
 20
-6286.596894161085
  0
VERTEX
  8
0
 10
39823.26225272661
 20
-6286.709828604869
  0
VERTEX
  8
0
 10
39823.26493601785
 20
-6286.82269611233
  0
VERTEX
  8
0
 10
39823.26985498887
 20
-6286.935399702466
  0
VERTEX
  8
0
 10
39823.27715031416
 20
-6287.047842394275
  0
VERTEX
  8
0
 10
39823.28696266815
 20
-6287.159927206757
  0
VERTEX
  8
0
 10
39823.29943272533
 20
-6287.271557158907
  0
VERTEX
  8
0
 10
39823.31470116018
 20
-6287.382635269725
  0
VERTEX
  8
0
 10
39823.33290864716
 20
-6287.493064558209
  0
VERTEX
  8
0
 10
39823.35419586072
 20
-6287.602748043359
  0
VERTEX
  8
0
 10
39823.37870347534
 20
-6287.711588744168
  0
VERTEX
  8
0
 10
39823.40657216548
 20
-6287.819489679639
  0
VERTEX
  8
0
 10
39823.43794054176
 20
-6287.926354696357
  0
VERTEX
  8
0
 10
39823.47275587669
 20
-6288.032164365709
  0
VERTEX
  8
0
 10
39823.51062171127
 20
-6288.137037092226
  0
VERTEX
  8
0
 10
39823.55110572493
 20
-6288.241105660604
  0
VERTEX
  8
0
 10
39823.5937755971
 20
-6288.344502855539
  0
VERTEX
  8
0
 10
39823.63819900719
 20
-6288.447361461725
  0
VERTEX
  8
0
 10
39823.68394363462
 20
-6288.549814263859
  0
VERTEX
  8
0
 10
39823.73057715883
 20
-6288.651994046634
  0
VERTEX
  8
0
 10
39823.77766725923
 20
-6288.754033594747
  0
VERTEX
  8
0
 10
39824.52913795684
 20
-6290.509010918252
  0
VERTEX
  8
0
 10
39825.32247240593
 20
-6292.362241345838
  0
VERTEX
  8
0
 10
39826.11580685504
 20
-6294.215471773423
  0
VERTEX
  8
0
 10
39826.90914130413
 20
-6296.068702201007
  0
VERTEX
  8
0
 10
39827.70247575323
 20
-6297.921932628593
  0
VERTEX
  8
0
 10
39828.49581020233
 20
-6299.775163056178
  0
VERTEX
  8
0
 10
39829.28914465143
 20
-6301.628393483764
  0
VERTEX
  8
0
 10
39830.08247910053
 20
-6303.481623911348
  0
VERTEX
  8
0
 10
39830.87581354962
 20
-6305.334854338934
  0
SEQEND
  8
0
  0
ARC
  8
0
 10
39833.16745775582
 20
-6304.348011427068
 40
2.495093605565439
 50
203.297996264217
 51
359.586382227425
  0
POLYLINE
  8
0
 66
     1
  0
VERTEX
  8
0
 10
39828.55862791832
 20
-6280.093134217321
  0
VERTEX
  8
0
 10
39828.79606969426
 20
-6278.757672255608
  0
VERTEX
  8
0
 10
39829.04115798495
 20
-6277.42336519744
  0
VERTEX
  8
0
 10
39829.30153930514
 20
-6276.091367946364
  0
VERTEX
  8
0
 10
39829.58486016955
 20
-6274.762835405923
  0
VERTEX
  8
0
 10
39829.89876709296
 20
-6273.438922479664
  0
VERTEX
  8
0
 10
39830.25087557714
 20
-6272.120789412105
  0
VERTEX
  8
0
 10
39830.64615152573
 20
-6270.810052755062
  0
VERTEX
  8
0
 10
39831.08492172756
 20
-6269.509127997305
  0
VERTEX
  8
0
 10
39831.56704448791
 20
-6268.220511308693
  0
VERTEX
  8
0
 10
39832.09237811209
 20
-6266.946698859088
  0
VERTEX
  8
0
 10
39832.66078090536
 20
-6265.690186818349
  0
VERTEX
  8
0
 10
39833.27211117301
 20
-6264.453471356334
  0
VERTEX
  8
0
 10
39833.92622722033
 20
-6263.239048642908
  0
VERTEX
  8
0
 10
39834.62298735261
 20
-6262.049414847927
  0
VERTEX
  8
0
 10
39835.36224987512
 20
-6260.887066141254
  0
VERTEX
  8
0
 10
39836.14387309315
 20
-6259.754498692746
  0
VERTEX
  8
0
 10
39836.96771531199
 20
-6258.654208672265
  0
VERTEX
  8
0
 10
39837.83363483692
 20
-6257.58869224967
  0
VERTEX
  8
0
 10
39838.74148997322
 20
-6256.560445594822
  0
VERTEX
  8
0
 10
39839.6911390262
 20
-6255.571964877582
  0
VERTEX
  8
0
 10
39840.68243016119
 20
-6254.625737292004
  0
VERTEX
  8
0
 10
39841.71435617092
 20
-6253.723492860572
  0
VERTEX
  8
0
 10
39842.7844182879
 20
-6252.865641284149
  0
VERTEX
  8
0
 10
39843.88996790032
 20
-6252.052459622178
  0
VERTEX
  8
0
 10
39845.02835639634
 20
-6251.284224934097
  0
VERTEX
  8
0
 10
39846.19693516417
 20
-6250.56121427935
  0
VERTEX
  8
0
 10
39847.39305559202
 20
-6249.883704717376
  0
VERTEX
  8
0
 10
39848.61406906805
 20
-6249.251973307616
  0
VERTEX
  8
0
 10
39849.85732698048
 20
-6248.666297109511
  0
VERTEX
  8
0
 10
39851.12018071747
 20
-6248.126953182501
  0
VERTEX
  8
0
 10
39852.39998166723
 20
-6247.634218586029
  0
VERTEX
  8
0
 10
39853.69408121795
 20
-6247.188370379535
  0
VERTEX
  8
0
 10
39854.99983075783
 20
-6246.789685622459
  0
VERTEX
  8
0
 10
39856.314624149
 20
-6246.438373590484
  0
VERTEX
  8
0
 10
39857.63687101781
 20
-6246.133022512035
  0
VERTEX
  8
0
 10
39858.9660188261
 20
-6245.870564344772
  0
VERTEX
  8
0
 10
39860.30156192463
 20
-6245.647856216872
  0
VERTEX
  8
0
 10
39861.64299466415
 20
-6245.461755256515
  0
VERTEX
  8
0
 10
39862.98981139542
 20
-6245.309118591877
  0
VERTEX
  8
0
 10
39864.34150646919
 20
-6245.186803351138
  0
VERTEX
  8
0
 10
39865.6975742362
 20
-6245.091666662476
  0
VERTEX
  8
0
 10
39867.05750904723
 20
-6245.020565654069
  0
VERTEX
  8
0
 10
39868.420805253
 20
-6244.970357454095
  0
VERTEX
  8
0
 10
39869.78695720429
 20
-6244.937899190734
  0
VERTEX
  8
0
 10
39871.15545925184
 20
-6244.920047992163
  0
VERTEX
  8
0
 10
39872.5258057464
 20
-6244.91366098656
  0
VERTEX
  8
0
 10
39873.89749103873
 20
-6244.915595302105
  0
VERTEX
  8
0
 10
39875.27000947957
 20
-6244.922708066973
  0
SEQEND
  8
0
  0
POLYLINE
  8
0
 66
     1
  0
VERTEX
  8
0
 10
39905.93790185256
 20
-6246.813587952317
  0
VERTEX
  8
0
 10
39913.42205562721
 20
-6247.303956776705
  0
VERTEX
  8
0
 10
39920.90652624187
 20
-6247.796830883673
  0
VERTEX
  8
0
 10
39928.39163053653
 20
-6248.294715555799
  0
VERTEX
  8
0
 10
39935.87768535121
 20
-6248.80011607566
  0
VERTEX
  8
0
 10
39943.36500752592
 20
-6249.315537725837
  0
VERTEX
  8
0
 10
39950.85391390065
 20
-6249.84348578891
  0
VERTEX
  8
0
 10
39958.34472131541
 20
-6250.386465547455
  0
VERTEX
  8
0
 10
39965.83774661021
 20
-6250.946982284052
  0
VERTEX
  8
0
 10
39973.33330662505
 20
-6251.527541281282
  0
VERTEX
  8
0
 10
39980.83171819995
 20
-6252.130647821719
  0
VERTEX
  8
0
 10
39988.33329817488
 20
-6252.758807187947
  0
VERTEX
  8
0
 10
39995.83836338989
 20
-6253.414524662542
  0
VERTEX
  8
0
 10
40003.34723068497
 20
-6254.100305528083
  0
VERTEX
  8
0
 10
40010.8602169001
 20
-6254.818655067151
  0
VERTEX
  8
0
 10
40018.37728880839
 20
-6255.571730191378
  0
VERTEX
  8
0
 10
40025.89617932585
 20
-6256.35946477774
  0
VERTEX
  8
0
 10
40033.41374342901
 20
-6257.180919017113
  0
VERTEX
  8
0
 10
40040.92683400233
 20
-6258.035151018431
  0
VERTEX
  8
0
 10
40048.43230393026
 20
-6258.92121889063
  0
VERTEX
  8
0
 10
40055.92700609729
 20
-6259.838180742641
  0
VERTEX
  8
0
 10
40063.40779338787
 20
-6260.785094683402
  0
VERTEX
  8
0
 10
40070.87151868644
 20
-6261.761018821844
  0
VERTEX
  8
0
 10
40078.31503487748
 20
-6262.765011266903
  0
VERTEX
  8
0
 10
40085.73519484545
 20
-6263.796130127514
  0
VERTEX
  8
0
 10
40093.1288514748
 20
-6264.853433512608
  0
VERTEX
  8
0
 10
40100.49285765002
 20
-6265.935979531123
  0
VERTEX
  8
0
 10
40107.82406625553
 20
-6267.04282629199
  0
VERTEX
  8
0
 10
40115.121274636
 20
-6268.172103818286
  0
VERTEX
  8
0
 10
40122.39340580487
 20
-6269.317109177328
  0
VERTEX
  8
0
 10
40129.65266825417
 20
-6270.469571285935
  0
VERTEX
  8
0
 10
40136.91127219325
 20
-6271.621218241244
  0
VERTEX
  8
0
 10
40144.18142783147
 20
-6272.763778140395
  0
VERTEX
  8
0
 10
40151.47534537819
 20
-6273.888979080526
  0
VERTEX
  8
0
 10
40158.80523504277
 20
-6274.988549158777
  0
VERTEX
  8
0
 10
40166.18330703457
 20
-6276.054216472286
  0
VERTEX
  8
0
 10
40173.62177156296
 20
-6277.077709118191
  0
VERTEX
  8
0
 10
40181.13283883728
 20
-6278.050755193632
  0
VERTEX
  8
0
 10
40188.72871906689
 20
-6278.965082795748
  0
VERTEX
  8
0
 10
40196.42162246117
 20
-6279.812420021675
  0
VERTEX
  8
0
 10
40204.22375922945
 20
-6280.584494968555
  0
VERTEX
  8
0
 10
40212.14727148791
 20
-6281.272954205443
  0
VERTEX
  8
0
 10
40220.16883096728
 20
-6281.826975554922
  0
VERTEX
  8
0
 10
40228.17167314595
 20
-6282.083865472458
  0
VERTEX
  8
0
 10
40236.02382953942
 20
-6281.8627266856
  0
VERTEX
  8
0
 10
40243.5933316632
 20
-6280.982661921902
  0
VERTEX
  8
0
 10
40250.74821103279
 20
-6279.262773908912
  0
VERTEX
  8
0
 10
40257.35649916369
 20
-6276.522165374183
  0
VERTEX
  8
0
 10
40263.29272236008
 20
-6272.594159504072
  0
VERTEX
  8
0
 10
40268.53095208481
 20
-6267.530035433796
  0
VERTEX
  8
0
 10
40273.12311714628
 20
-6261.551542383028
  0
VERTEX
  8
0
 10
40277.12322130648
 20
-6254.884972720505
  0
VERTEX
  8
0
 10
40280.58526832743
 20
-6247.756618814964
  0
VERTEX
  8
0
 10
40283.56326197115
 20
-6240.392773035135
  0
VERTEX
  8
0
 10
40286.1127179113
 20
-6233.004058316002
  0
VERTEX
  8
0
 10
40288.30286755732
 20
-6225.658947872702
  0
VERTEX
  8
0
 10
40290.21024750989
 20
-6218.350204007161
  0
VERTEX
  8
0
 10
40291.91146238585
 20
-6211.06988410299
  0
VERTEX
  8
0
 10
40293.48311680197
 20
-6203.810045543803
  0
VERTEX
  8
0
 10
40295.00181537509
 20
-6196.562745713212
  0
VERTEX
  8
0
 10
40296.54416177006
 20
-6189.320042086948
  0
VERTEX
  8
0
 10
40298.17085700291
 20
-6182.075531040622
  0
VERTEX
  8
0
 10
40299.88629165082
 20
-6174.828258112936
  0
VERTEX
  8
0
 10
40301.68239849424
 20
-6167.578474384015
  0
VERTEX
  8
0
 10
40303.55111031362
 20
-6160.326430933981
  0
VERTEX
  8
0
 10
40305.48435988942
 20
-6153.07237884296
  0
VERTEX
  8
0
 10
40307.47408000208
 20
-6145.816569191073
  0
VERTEX
  8
0
 10
40309.51220343205
 20
-6138.559253058444
  0
VERTEX
  8
0
 10
40311.59066295977
 20
-6131.300681525198
  0
VERTEX
  8
0
 10
40313.7013913657
 20
-6124.041105671457
  0
VERTEX
  8
0
 10
40315.83632143029
 20
-6116.780776577346
  0
VERTEX
  8
0
 10
40317.98738593397
 20
-6109.519945322989
  0
VERTEX
  8
0
 10
40320.14651765721
 20
-6102.258862988506
  0
SEQEND
  8
0
  0
POLYLINE
  8
0
 66
     1
  0
VERTEX
  8
0
 10
40327.94277247059
 20
-6077.661140164731
  0
VERTEX
  8
0
 10
40329.04570297941
 20
-6074.422014685319
  0
VERTEX
  8
0
 10
40330.14925937868
 20
-6071.183137210207
  0
VERTEX
  8
0
 10
40331.25406755885
 20
-6067.944755743689
  0
VERTEX
  8
0
 10
40332.3607534104
 20
-6064.707118290064
  0
VERTEX
  8
0
 10
40333.46994282376
 20
-6061.470472853633
  0
VERTEX
  8
0
 10
40334.58226168939
 20
-6058.235067438687
  0
VERTEX
  8
0
 10
40335.69833589774
 20
-6055.001150049528
  0
VERTEX
  8
0
 10
40336.81879133927
 20
-6051.768968690454
  0
VERTEX
  8
0
 10
40337.94425390444
 20
-6048.538771365761
  0
VERTEX
  8
0
 10
40339.0753494837
 20
-6045.310806079747
  0
VERTEX
  8
0
 10
40340.21270396749
 20
-6042.085320836711
  0
VERTEX
  8
0
 10
40341.35694324628
 20
-6038.862563640949
  0
VERTEX
  8
0
 10
40342.50869321051
 20
-6035.64278249676
  0
VERTEX
  8
0
 10
40343.66857975066
 20
-6032.426225408441
  0
VERTEX
  8
0
 10
40344.83722875716
 20
-6029.21314038029
  0
VERTEX
  8
0
 10
40346.01526612047
 20
-6026.003775416606
  0
VERTEX
  8
0
 10
40347.20331773105
 20
-6022.798378521684
  0
VERTEX
  8
0
 10
40348.40200947935
 20
-6019.597197699823
  0
VERTEX
  8
0
 10
40349.61196725582
 20
-6016.400480955322
  0
VERTEX
  8
0
 10
40350.8338161797
 20
-6013.208475986887
  0
VERTEX
  8
0
 10
40352.06792607335
 20
-6010.021329333794
  0
VERTEX
  8
0
 10
40353.31404366258
 20
-6006.83894063809
  0
VERTEX
  8
0
 10
40354.57182239696
 20
-6003.661172581821
  0
VERTEX
  8
0
 10
40355.84091572606
 20
-6000.487887847029
  0
VERTEX
  8
0
 10
40357.12097709943
 20
-5997.318949115759
  0
VERTEX
  8
0
 10
40358.41165996664
 20
-5994.154219070054
  0
VERTEX
  8
0
 10
40359.71261777724
 20
-5990.993560391958
  0
VERTEX
  8
0
 10
40361.02350398081
 20
-5987.836835763515
  0
VERTEX
  8
0
 10
40362.34397202691
 20
-5984.683907866769
  0
VERTEX
  8
0
 10
40363.67367536508
 20
-5981.534639383764
  0
VERTEX
  8
0
 10
40365.01226744492
 20
-5978.388892996544
  0
VERTEX
  8
0
 10
40366.35940171596
 20
-5975.246531387153
  0
VERTEX
  8
0
 10
40367.71473162778
 20
-5972.107417237636
  0
VERTEX
  8
0
 10
40369.07791062993
 20
-5968.971413230034
  0
VERTEX
  8
0
 10
40370.44859217198
 20
-5965.838382046392
  0
VERTEX
  8
0
 10
40371.8264297035
 20
-5962.708186368756
  0
VERTEX
  8
0
 10
40373.21107667404
 20
-5959.580688879168
  0
VERTEX
  8
0
 10
40374.60218653315
 20
-5956.455752259671
  0
VERTEX
  8
0
 10
40375.99941273042
 20
-5953.333239192312
  0
VERTEX
  8
0
 10
40377.40240871541
 20
-5950.213012359132
  0
VERTEX
  8
0
 10
40378.81082793767
 20
-5947.094934442177
  0
VERTEX
  8
0
 10
40380.22432384676
 20
-5943.97886812349
  0
VERTEX
  8
0
 10
40381.64254989224
 20
-5940.864676085112
  0
VERTEX
  8
0
 10
40383.0651595237
 20
-5937.752221009093
  0
VERTEX
  8
0
 10
40384.49180619066
 20
-5934.641365577472
  0
VERTEX
  8
0
 10
40385.92214334272
 20
-5931.531972472295
  0
VERTEX
  8
0
 10
40387.35582442943
 20
-5928.423904375605
  0
VERTEX
  8
0
 10
40388.79250290035
 20
-5925.317023969447
  0
VERTEX
  8
0
 10
40390.23183220504
 20
-5922.211193935865
  0
VERTEX
  8
0
 10
40391.67346579306
 20
-5919.106276956902
  0
VERTEX
  8
0
 10
40393.11705711399
 20
-5916.002135714599
  0
VERTEX
  8
0
 10
40394.56225961737
 20
-5912.898632891006
  0
VERTEX
  8
0
 10
40396.00872675277
 20
-5909.795631168163
  0
VERTEX
  8
0
 10
40397.45611196975
 20
-5906.692993228115
  0
VERTEX
  8
0
 10
40398.9040687179
 20
-5903.590581752906
  0
VERTEX
  8
0
 10
40447.15333442825
 20
-5871.368903241399
  0
SEQEND
  8
0
  0
POLYLINE
  8
0
 66
     1
  0
VERTEX
  8
0
 10
39904.97822355493
 20
-6270.069496568538
  0
VERTEX
  8
0
 10
39906.27656816237
 20
-6270.15403772374
  0
VERTEX
  8
0
 10
39907.56883133629
 20
-6270.238201357822
  0
VERTEX
  8
0
 10
39908.85528575327
 20
-6270.322019579216
  0
VERTEX
  8
0
 10
39910.13620408993
 20
-6270.405524496356
  0
VERTEX
  8
0
 10
39911.41185902286
 20
-6270.488748217674
  0
VERTEX
  8
0
 10
39912.68252322867
 20
-6270.5717228516
  0
VERTEX
  8
0
 10
39913.94846938397
 20
-6270.65448050657
  0
VERTEX
  8
0
 10
39915.20997016534
 20
-6270.737053291014
  0
VERTEX
  8
0
 10
39916.46729824941
 20
-6270.819473313364
  0
VERTEX
  8
0
 10
39917.72072631276
 20
-6270.901772682053
  0
VERTEX
  8
0
 10
39918.970527032
 20
-6270.983983505515
  0
VERTEX
  8
0
 10
39920.21697308373
 20
-6271.066137892179
  0
VERTEX
  8
0
 10
39921.46033714457
 20
-6271.14826795048
  0
VERTEX
  8
0
 10
39922.70089189111
 20
-6271.23040578885
  0
VERTEX
  8
0
 10
39923.93890999994
 20
-6271.312583515721
  0
VERTEX
  8
0
 10
39925.17466414767
 20
-6271.394833239524
  0
VERTEX
  8
0
 10
39926.40842701092
 20
-6271.477187068694
  0
VERTEX
  8
0
 10
39927.64047126626
 20
-6271.559677111661
  0
VERTEX
  8
0
 10
39928.87106959034
 20
-6271.642335476858
  0
VERTEX
  8
0
 10
39930.10049465971
 20
-6271.725194272718
  0
VERTEX
  8
0
 10
39931.32901915101
 20
-6271.808285607673
  0
VERTEX
  8
0
 10
39932.55691574082
 20
-6271.891641590155
  0
VERTEX
  8
0
 10
39933.78445710575
 20
-6271.975294328597
  0
VERTEX
  8
0
 10
39935.01191592241
 20
-6272.05927593143
  0
VERTEX
  8
0
 10
39936.23956486739
 20
-6272.143618507088
  0
VERTEX
  8
0
 10
39937.46767661731
 20
-6272.228354164003
  0
VERTEX
  8
0
 10
39938.69652384875
 20
-6272.313515010605
  0
VERTEX
  8
0
 10
39939.92637923833
 20
-6272.39913315533
  0
VERTEX
  8
0
 10
39941.15751546264
 20
-6272.485240706608
  0
VERTEX
  8
0
 10
39942.3902051983
 20
-6272.571869772873
  0
VERTEX
  8
0
 10
39943.62472112189
 20
-6272.659052462554
  0
VERTEX
  8
0
 10
39944.86133591003
 20
-6272.746820884087
  0
VERTEX
  8
0
 10
39946.10032223932
 20
-6272.835207145904
  0
VERTEX
  8
0
 10
39947.34195278635
 20
-6272.924243356435
  0
VERTEX
  8
0
 10
39948.58650022774
 20
-6273.013961624113
  0
VERTEX
  8
0
 10
39949.83423724008
 20
-6273.104394057372
  0
VERTEX
  8
0
 10
39951.08543649997
 20
-6273.195572764644
  0
VERTEX
  8
0
 10
39952.34037068403
 20
-6273.287529854359
  0
VERTEX
  8
0
 10
39953.59931246885
 20
-6273.380297434953
  0
VERTEX
  8
0
 10
39954.86253453103
 20
-6273.473907614854
  0
VERTEX
  8
0
 10
39956.13029928011
 20
-6273.56839171255
  0
VERTEX
  8
0
 10
39957.40011842103
 20
-6273.663568216343
  0
VERTEX
  8
0
 10
39958.66992036437
 20
-6273.75928348416
  0
VERTEX
  8
0
 10
39959.93970407091
 20
-6273.855542263885
  0
VERTEX
  8
0
 10
39961.20946850147
 20
-6273.952349303405
  0
VERTEX
  8
0
 10
39962.47921261685
 20
-6274.049709350604
  0
VERTEX
  8
0
 10
39963.74893537784
 20
-6274.147627153368
  0
VERTEX
  8
0
 10
39965.01863574523
 20
-6274.246107459585
  0
VERTEX
  8
0
 10
39966.28831267984
 20
-6274.345155017139
  0
VERTEX
  8
0
 10
39967.55796514246
 20
-6274.444774573915
  0
VERTEX
  8
0
 10
39968.82759209389
 20
-6274.544970877801
  0
VERTEX
  8
0
 10
39970.09719249492
 20
-6274.645748676679
  0
VERTEX
  8
0
 10
39971.36676530636
 20
-6274.747112718438
  0
VERTEX
  8
0
 10
39972.636309489
 20
-6274.849067750963
  0
VERTEX
  8
0
 10
39973.90582400365
 20
-6274.951618522139
  0
VERTEX
  8
0
 10
39975.1753078111
 20
-6275.054769779851
  0
VERTEX
  8
0
 10
39976.44475987216
 20
-6275.158526271986
  0
VERTEX
  8
0
 10
39977.71417914762
 20
-6275.26289274643
  0
VERTEX
  8
0
 10
39978.98356459829
 20
-6275.367873951068
  0
VERTEX
  8
0
 10
39980.25291518495
 20
-6275.473474633784
  0
VERTEX
  8
0
 10
39981.52222986842
 20
-6275.579699542467
  0
VERTEX
  8
0
 10
39982.79150760948
 20
-6275.686553425
  0
VERTEX
  8
0
 10
39984.06074736895
 20
-6275.79404102927
  0
VERTEX
  8
0
 10
39985.32994810761
 20
-6275.902167103163
  0
VERTEX
  8
0
 10
39986.59909985288
 20
-6276.010935534034
  0
VERTEX
  8
0
 10
39987.86813243683
 20
-6276.120344396388
  0
VERTEX
  8
0
 10
39989.13703205896
 20
-6276.230397165276
  0
VERTEX
  8
0
 10
39990.40580137966
 20
-6276.341098898076
  0
VERTEX
  8
0
 10
39991.67444305927
 20
-6276.452454652164
  0
VERTEX
  8
0
 10
39992.94295975813
 20
-6276.564469484923
  0
VERTEX
  8
0
 10
39994.21135413663
 20
-6276.67714845373
  0
VERTEX
  8
0
 10
39995.4796288551
 20
-6276.790496615965
  0
VERTEX
  8
0
 10
39996.74778657391
 20
-6276.904519029007
  0
VERTEX
  8
0
 10
39998.01582995342
 20
-6277.019220750235
  0
VERTEX
  8
0
 10
39999.28376165397
 20
-6277.134606837028
  0
VERTEX
  8
0
 10
40000.55158433593
 20
-6277.250682346765
  0
VERTEX
  8
0
 10
40001.81930065966
 20
-6277.367452336825
  0
VERTEX
  8
0
 10
40003.0869132855
 20
-6277.484921864589
  0
VERTEX
  8
0
 10
40004.35442487383
 20
-6277.603095987433
  0
VERTEX
  8
0
 10
40005.62183808498
 20
-6277.721979762739
  0
VERTEX
  8
0
 10
40006.88915557932
 20
-6277.841578247885
  0
VERTEX
  8
0
 10
40008.15638001722
 20
-6277.961896500249
  0
VERTEX
  8
0
 10
40009.423514059
 20
-6278.082939577213
  0
VERTEX
  8
0
 10
40010.69056036507
 20
-6278.204712536154
  0
VERTEX
  8
0
 10
40011.95752159573
 20
-6278.327220434451
  0
VERTEX
  8
0
 10
40013.22440041138
 20
-6278.450468329484
  0
VERTEX
  8
0
 10
40014.49119947236
 20
-6278.574461278632
  0
VERTEX
  8
0
 10
40015.75792143903
 20
-6278.699204339275
  0
VERTEX
  8
0
 10
40017.02456897173
 20
-6278.82470256879
  0
VERTEX
  8
0
 10
40018.29114473084
 20
-6278.950961024557
  0
VERTEX
  8
0
 10
40019.55765137671
 20
-6279.077984763957
  0
VERTEX
  8
0
 10
40020.82409156969
 20
-6279.205778844367
  0
VERTEX
  8
0
 10
40022.09046797014
 20
-6279.334348323167
  0
VERTEX
  8
0
 10
40023.35678323842
 20
-6279.463698257735
  0
VERTEX
  8
0
 10
40024.62304003488
 20
-6279.593833705452
  0
VERTEX
  8
0
 10
40025.88924101989
 20
-6279.724759723696
  0
VERTEX
  8
0
 10
40027.15538885379
 20
-6279.856481369847
  0
VERTEX
  8
0
 10
40028.42148619694
 20
-6279.989003701282
  0
VERTEX
  8
0
 10
40029.68753570972
 20
-6280.122331775383
  0
VERTEX
  8
0
 10
40030.95354005245
 20
-6280.256470649528
  0
VERTEX
  8
0
 10
40032.21950188551
 20
-6280.391425381095
  0
VERTEX
  8
0
 10
40033.48542386924
 20
-6280.527201027465
  0
VERTEX
  8
0
 10
40034.75130866402
 20
-6280.663802646016
  0
VERTEX
  8
0
 10
40036.0171589302
 20
-6280.801235294128
  0
VERTEX
  8
0
 10
40037.28297732812
 20
-6280.939504029179
  0
VERTEX
  8
0
 10
40038.54876651815
 20
-6281.078613908549
  0
VERTEX
  8
0
 10
40039.81452916066
 20
-6281.218569989616
  0
VERTEX
  8
0
 10
40041.08026791597
 20
-6281.359377329761
  0
VERTEX
  8
0
 10
40042.34598544446
 20
-6281.501040986362
  0
VERTEX
  8
0
 10
40043.6116844065
 20
-6281.643566016798
  0
VERTEX
  8
0
 10
40044.87736746241
 20
-6281.786957478448
  0
VERTEX
  8
0
 10
40046.14300706192
 20
-6281.931212844159
  0
VERTEX
  8
0
 10
40047.40853658757
 20
-6282.0763154616
  0
VERTEX
  8
0
 10
40048.67395341049
 20
-6282.222260730918
  0
VERTEX
  8
0
 10
40049.93925769929
 20
-6282.36904466433
  0
VERTEX
  8
0
 10
40051.20444962259
 20
-6282.516663274056
  0
VERTEX
  8
0
 10
40052.46952934899
 20
-6282.665112572317
  0
VERTEX
  8
0
 10
40053.73449704712
 20
-6282.814388571329
  0
VERTEX
  8
0
 10
40054.99935288559
 20
-6282.964487283315
  0
VERTEX
  8
0
 10
40056.264097033
 20
-6283.115404720493
  0
VERTEX
  8
0
 10
40057.52872965799
 20
-6283.267136895081
  0
VERTEX
  8
0
 10
40058.79325092916
 20
-6283.4196798193
  0
VERTEX
  8
0
 10
40060.05766101511
 20
-6283.573029505369
  0
VERTEX
  8
0
 10
40061.32196008448
 20
-6283.727181965507
  0
VERTEX
  8
0
 10
40062.58614830587
 20
-6283.882133211934
  0
VERTEX
  8
0
 10
40063.8502258479
 20
-6284.037879256868
  0
VERTEX
  8
0
 10
40065.11419287918
 20
-6284.19441611253
  0
VERTEX
  8
0
 10
40066.37804956832
 20
-6284.351739791139
  0
VERTEX
  8
0
 10
40067.64179608394
 20
-6284.509846304913
  0
VERTEX
  8
0
 10
40068.90543259466
 20
-6284.668731666074
  0
VERTEX
  8
0
 10
40070.16895926907
 20
-6284.828391886837
  0
VERTEX
  8
0
 10
40071.43237627582
 20
-6284.988822979427
  0
VERTEX
  8
0
 10
40072.6956837835
 20
-6285.150020956058
  0
VERTEX
  8
0
 10
40073.95888196073
 20
-6285.311981828953
  0
VERTEX
  8
0
 10
40075.22197097613
 20
-6285.47470161033
  0
VERTEX
  8
0
 10
40076.48495099831
 20
-6285.638176312409
  0
VERTEX
  8
0
 10
40077.74782219587
 20
-6285.802401947409
  0
VERTEX
  8
0
 10
40079.01058473745
 20
-6285.967374527548
  0
VERTEX
  8
0
 10
40080.27323879165
 20
-6286.133090065046
  0
VERTEX
  8
0
 10
40081.53578452708
 20
-6286.299544572125
  0
VERTEX
  8
0
 10
40082.79822211236
 20
-6286.466734061
  0
VERTEX
  8
0
 10
40084.0605517161
 20
-6286.634654543896
  0
VERTEX
  8
0
 10
40085.32277350693
 20
-6286.803302033027
  0
VERTEX
  8
0
 10
40086.58488765344
 20
-6286.972672540614
  0
VERTEX
  8
0
 10
40087.84689432426
 20
-6287.142762078876
  0
VERTEX
  8
0
 10
40089.10879368801
 20
-6287.313566660035
  0
VERTEX
  8
0
 10
40090.37058591329
 20
-6287.485082296308
  0
VERTEX
  8
0
 10
40091.63227116872
 20
-6287.657304999914
  0
VERTEX
  8
0
 10
40092.8938496229
 20
-6287.830230783074
  0
VERTEX
  8
0
 10
40094.15532144447
 20
-6288.003855658007
  0
VERTEX
  8
0
 10
40095.41668680203
 20
-6288.178175636931
  0
VERTEX
  8
0
 10
40096.6779458642
 20
-6288.353186732065
  0
VERTEX
  8
0
 10
40097.93909879958
 20
-6288.528884955631
  0
VERTEX
  8
0
 10
40099.20014579357
 20
-6288.705266322406
  0
VERTEX
  8
0
 10
40100.46108718205
 20
-6288.882326870134
  0
VERTEX
  8
0
 10
40101.72192338038
 20
-6289.060062648688
  0
VERTEX
  8
0
 10
40102.98265480468
 20
-6289.238469708054
  0
VERTEX
  8
0
 10
40104.24328187104
 20
-6289.417544098213
  0
VERTEX
  8
0
 10
40105.50380499553
 20
-6289.597281869148
  0
VERTEX
  8
0
 10
40106.76422459426
 20
-6289.777679070842
  0
VERTEX
  8
0
 10
40108.0245410833
 20
-6289.958731753281
  0
VERTEX
  8
0
 10
40109.28475487876
 20
-6290.140435966446
  0
VERTEX
  8
0
 10
40110.54486639177
 20
-6290.322787759607
  0
VERTEX
  8
0
 10
40111.80487571155
 20
-6290.505783135838
  0
VERTEX
  8
0
 10
40113.06478241419
 20
-6290.689418024575
  0
VERTEX
  8
0
 10
40114.32458602994
 20
-6290.873688348669
  0
VERTEX
  8
0
 10
40115.58428608905
 20
-6291.058590030972
  0
VERTEX
  8
0
 10
40116.84388212176
 20
-6291.244118994341
  0
VERTEX
  8
0
 10
40118.10337365833
 20
-6291.430271161628
  0
VERTEX
  8
0
 10
40119.36276022901
 20
-6291.617042455685
  0
VERTEX
  8
0
 10
40120.62204136404
 20
-6291.804428799368
  0
VERTEX
  8
0
 10
40121.88121659368
 20
-6291.992426115527
  0
VERTEX
  8
0
 10
40123.13774998388
 20
-6292.180655929141
  0
VERTEX
  8
0
 10
40124.3888410764
 20
-6292.368671007351
  0
VERTEX
  8
0
 10
40125.63599109264
 20
-6292.55663962935
  0
VERTEX
  8
0
 10
40126.88073685054
 20
-6292.744735244268
  0
VERTEX
  8
0
 10
40128.12461516802
 20
-6292.933131301231
  0
VERTEX
  8
0
 10
40129.36916286302
 20
-6293.122001249369
  0
VERTEX
  8
0
 10
40130.61591675345
 20
-6293.311518537808
  0
VERTEX
  8
0
 10
40131.86641365724
 20
-6293.501856615678
  0
VERTEX
  8
0
 10
40133.12219039233
 20
-6293.693188932105
  0
VERTEX
  8
0
 10
40134.38451946243
 20
-6293.885648671451
  0
VERTEX
  8
0
 10
40135.64863586776
 20
-6294.078448659761
  0
VERTEX
  8
0
 10
40136.91229059016
 20
-6294.27118344305
  0
VERTEX
  8
0
 10
40138.17553449619
 20
-6294.463797696973
  0
VERTEX
  8
0
 10
40139.43841845245
 20
-6294.656236097183
  0
VERTEX
  8
0
 10
40140.70099332552
 20
-6294.848443319333
  0
VERTEX
  8
0
 10
40141.963309982
 20
-6295.040364039074
  0
VERTEX
  8
0
 10
40143.22541928846
 20
-6295.231942932061
  0
VERTEX
  8
0
 10
40144.48737211149
 20
-6295.423124673949
  0
VERTEX
  8
0
 10
40145.74921931767
 20
-6295.613853940388
  0
VERTEX
  8
0
 10
40147.0110117736
 20
-6295.804075407033
  0
VERTEX
  8
0
 10
40148.27279999982
 20
-6295.993733697102
  0
VERTEX
  8
0
 10
40149.53447142035
 20
-6296.182748778867
  0
VERTEX
  8
0
 10
40150.79589622118
 20
-6296.371038325245
  0
VERTEX
  8
0
 10
40152.05709125409
 20
-6296.558542338546
  0
VERTEX
  8
0
 10
40153.31807357362
 20
-6296.745200851873
  0
VERTEX
  8
0
 10
40154.57886023429
 20
-6296.930953898333
  0
VERTEX
  8
0
 10
40155.83946829067
 20
-6297.115741511031
  0
VERTEX
  8
0
 10
40157.09991479729
 20
-6297.29950372307
  0
VERTEX
  8
0
 10
40158.36021680869
 20
-6297.482180567556
  0
VERTEX
  8
0
 10
40159.62039137943
 20
-6297.663712077592
  0
VERTEX
  8
0
 10
40160.88045556403
 20
-6297.844038286285
  0
VERTEX
  8
0
 10
40162.14042641706
 20
-6298.023099226738
  0
VERTEX
  8
0
 10
40163.40032099304
 20
-6298.200834932057
  0
VERTEX
  8
0
 10
40164.66015634653
 20
-6298.377185435345
  0
VERTEX
  8
0
 10
40165.91994953206
 20
-6298.552090769709
  0
VERTEX
  8
0
 10
40167.17971760417
 20
-6298.725490968252
  0
VERTEX
  8
0
 10
40168.43947761743
 20
-6298.897326064079
  0
VERTEX
  8
0
 10
40169.69924662635
 20
-6299.067536090294
  0
VERTEX
  8
0
 10
40170.95904168549
 20
-6299.236061080004
  0
VERTEX
  8
0
 10
40172.21887984939
 20
-6299.402841066312
  0
VERTEX
  8
0
 10
40173.4787781726
 20
-6299.567816082324
  0
VERTEX
  8
0
 10
40174.73898527877
 20
-6299.730956107285
  0
VERTEX
  8
0
 10
40176.00757275499
 20
-6299.893231783027
  0
VERTEX
  8
0
 10
40177.2860240724
 20
-6300.054730976399
  0
VERTEX
  8
0
 10
40178.57090886716
 20
-6300.2149008916
  0
VERTEX
  8
0
 10
40179.85879677549
 20
-6300.373188732831
  0
VERTEX
  8
0
 10
40181.14625743358
 20
-6300.529041704292
  0
VERTEX
  8
0
 10
40182.42986047761
 20
-6300.68190701018
  0
VERTEX
  8
0
 10
40183.70617554378
 20
-6300.831231854697
  0
VERTEX
  8
0
 10
40184.97177226827
 20
-6300.976463442043
  0
VERTEX
  8
0
 10
40186.2283866842
 20
-6301.117653107338
  0
VERTEX
  8
0
 10
40187.48436028966
 20
-6301.255610237756
  0
VERTEX
  8
0
 10
40188.7399514104
 20
-6301.390187588145
  0
VERTEX
  8
0
 10
40189.99519732026
 20
-6301.521211929206
  0
VERTEX
  8
0
 10
40191.25013529303
 20
-6301.64851003165
  0
VERTEX
  8
0
 10
40192.50480260252
 20
-6301.771908666183
  0
VERTEX
  8
0
 10
40193.75923232074
 20
-6301.891234233784
  0
VERTEX
  8
0
 10
40195.01337292744
 20
-6302.006305788888
  0
VERTEX
  8
0
 10
40196.26719361525
 20
-6302.116945186383
  0
VERTEX
  8
0
 10
40197.5207270153
 20
-6302.222980430137
  0
VERTEX
  8
0
 10
40198.77400658717
 20
-6302.324239603869
  0
VERTEX
  8
0
 10
40200.02706579049
 20
-6302.420550791297
  0
VERTEX
  8
0
 10
40201.27993808486
 20
-6302.511742076139
  0
VERTEX
  8
0
 10
40202.53265692987
 20
-6302.597641542116
  0
VERTEX
  8
0
 10
40203.78525578515
 20
-6302.678077272948
  0
VERTEX
  8
0
 10
40205.03776202346
 20
-6302.752877146397
  0
VERTEX
  8
0
 10
40206.29017815571
 20
-6302.821868199
  0
VERTEX
  8
0
 10
40207.54250034711
 20
-6302.884877252686
  0
VERTEX
  8
0
 10
40208.79472737267
 20
-6302.941731434375
  0
VERTEX
  8
0
 10
40210.04686612866
 20
-6302.992258820096
  0
VERTEX
  8
0
 10
40211.29892508649
 20
-6303.036287669963
  0
VERTEX
  8
0
 10
40212.55091271759
 20
-6303.073646244087
  0
VERTEX
  8
0
 10
40213.80283749339
 20
-6303.104162802585
  0
VERTEX
  8
0
 10
40215.05467309085
 20
-6303.127662369996
  0
VERTEX
  8
0
 10
40216.30598905616
 20
-6303.14391120648
  0
VERTEX
  8
0
 10
40217.55657082352
 20
-6303.1526471291
  0
VERTEX
  8
0
 10
40218.80631814284
 20
-6303.153612161638
  0
VERTEX
  8
0
 10
40220.05513076402
 20
-6303.146548327876
  0
VERTEX
  8
0
 10
40221.30290843696
 20
-6303.131197651594
  0
VERTEX
  8
0
 10
40222.54955091154
 20
-6303.107302156574
  0
VERTEX
  8
0
 10
40223.79495793768
 20
-6303.074603866598
  0
VERTEX
  8
0
 10
40225.03902926525
 20
-6303.032844805448
  0
VERTEX
  8
0
 10
40226.28166464418
 20
-6302.981766996904
  0
VERTEX
  8
0
 10
40227.52268852553
 20
-6302.921116379991
  0
VERTEX
  8
0
 10
40228.76175457479
 20
-6302.850651425456
  0
VERTEX
  8
0
 10
40229.99874201302
 20
-6302.770123251363
  0
VERTEX
  8
0
 10
40231.23355064901
 20
-6302.679282097455
  0
VERTEX
  8
0
 10
40232.46608029155
 20
-6302.57787820347
  0
VERTEX
  8
0
 10
40233.69623074943
 20
-6302.465661809149
  0
VERTEX
  8
0
 10
40234.92390183142
 20
-6302.342383154233
  0
VERTEX
  8
0
 10
40236.14899334632
 20
-6302.207792478459
  0
VERTEX
  8
0
 10
40237.37140510292
 20
-6302.06164002157
  0
VERTEX
  8
0
 10
40238.59103690999
 20
-6301.903676023305
  0
VERTEX
  8
0
 10
40239.80778857633
 20
-6301.733650723402
  0
VERTEX
  8
0
 10
40241.02155991072
 20
-6301.551314361604
  0
VERTEX
  8
0
 10
40242.23225072194
 20
-6301.356417177649
  0
VERTEX
  8
0
 10
40243.43976081879
 20
-6301.148709411276
  0
VERTEX
  8
0
 10
40244.64396139727
 20
-6300.927947009755
  0
VERTEX
  8
0
 10
40245.84464455787
 20
-6300.693902638513
  0
VERTEX
  8
0
 10
40247.04170072947
 20
-6300.44633223272
  0
VERTEX
  8
0
 10
40248.23504525084
 20
-6300.1849873083
  0
VERTEX
  8
0
 10
40249.42477893004
 20
-6299.909574038335
  0
VERTEX
  8
0
 10
40250.61429483969
 20
-6299.618965053201
  0
VERTEX
  8
0
 10
40251.80249751548
 20
-6299.313058202894
  0
VERTEX
  8
0
 10
40252.98620749115
 20
-6298.99225015599
  0
VERTEX
  8
0
 10
40254.16224530042
 20
-6298.65693758106
  0
VERTEX
  8
0
 10
40255.32761388346
 20
-6298.307463341577
  0
VERTEX
  8
0
 10
40256.48346222749
 20
-6297.942929542429
  0
VERTEX
  8
0
 10
40257.63041344199
 20
-6297.562550366814
  0
VERTEX
  8
0
 10
40258.76791137697
 20
-6297.165881794764
  0
VERTEX
  8
0
 10
40259.89539988245
 20
-6296.752479806307
  0
VERTEX
  8
0
 10
40261.01232280842
 20
-6296.321900381472
  0
VERTEX
  8
0
 10
40262.1181240049
 20
-6295.873699500291
  0
VERTEX
  8
0
 10
40263.21224732189
 20
-6295.407433142793
  0
VERTEX
  8
0
 10
40264.2941366094
 20
-6294.922657289007
  0
VERTEX
  8
0
 10
40265.36323571744
 20
-6294.418927918962
  0
VERTEX
  8
0
 10
40266.41890094511
 20
-6293.895848959917
  0
VERTEX
  8
0
 10
40267.45678006855
 20
-6293.355094470925
  0
VERTEX
  8
0
 10
40268.47623644626
 20
-6292.796418989486
  0
VERTEX
  8
0
 10
40269.47940869701
 20
-6292.218077873184
  0
VERTEX
  8
0
 10
40270.46843543958
 20
-6291.618326479591
  0
VERTEX
  8
0
 10
40271.44545529277
 20
-6290.995420166286
  0
VERTEX
  8
0
 10
40272.41147053555
 20
-6290.348633540342
  0
VERTEX
  8
0
 10
40273.36544199182
 20
-6289.679238158933
  0
VERTEX
  8
0
 10
40274.30723885429
 20
-6288.987810701771
  0
VERTEX
  8
0
 10
40275.2367516024
 20
-6288.274909661648
  0
VERTEX
  8
0
 10
40276.15387071559
 20
-6287.541093531353
  0
VERTEX
  8
0
 10
40277.05848667329
 20
-6286.786920803675
  0
VERTEX
  8
0
 10
40277.95034611773
 20
-6286.013077539909
  0
VERTEX
  8
0
 10
40278.82901649962
 20
-6285.220434591646
  0
VERTEX
  8
0
 10
40279.69436946198
 20
-6284.409616667746
  0
VERTEX
  8
0
 10
40280.54628928058
 20
-6283.581237772393
  0
VERTEX
  8
0
 10
40281.38466023114
 20
-6282.735911909773
  0
VERTEX
  8
0
 10
40282.20936658939
 20
-6281.874253084069
  0
VERTEX
  8
0
 10
40283.0202926311
 20
-6280.996875299467
  0
VERTEX
  8
0
 10
40283.81732263198
 20
-6280.104392560151
  0
VERTEX
  8
0
 10
40284.60034086779
 20
-6279.197418870304
  0
VERTEX
  8
0
 10
40285.36923161428
 20
-6278.276568234112
  0
VERTEX
  8
0
 10
40286.12387914716
 20
-6277.34245465576
  0
VERTEX
  8
0
 10
40286.86416774219
 20
-6276.395692139432
  0
VERTEX
  8
0
 10
40287.58990871856
 20
-6275.436990713796
  0
VERTEX
  8
0
 10
40288.30100473253
 20
-6274.467014880922
  0
VERTEX
  8
0
 10
40288.99772286381
 20
-6273.486021620399
  0
VERTEX
  8
0
 10
40289.68034365525
 20
-6272.494251950599
  0
VERTEX
  8
0
 10
40290.34914764971
 20
-6271.491946889892
  0
VERTEX
  8
0
 10
40291.00441539005
 20
-6270.479347456645
  0
VERTEX
  8
0
 10
40291.64642741909
 20
-6269.456694669233
  0
VERTEX
  8
0
 10
40292.27546427972
 20
-6268.424229546024
  0
VERTEX
  8
0
 10
40292.89180651475
 20
-6267.382193105387
  0
VERTEX
  8
0
 10
40293.49573466706
 20
-6266.330826365695
  0
VERTEX
  8
0
 10
40294.08752927001
 20
-6265.27037036269
  0
VERTEX
  8
0
 10
40294.66734368868
 20
-6264.201303048205
  0
VERTEX
  8
0
 10
40295.23531880846
 20
-6263.124146995349
  0
VERTEX
  8
0
 10
40295.79174227178
 20
-6262.039163314644
  0
VERTEX
  8
0
 10
40296.3369020478
 20
-6260.946612523283
  0
VERTEX
  8
0
 10
40296.8710861057
 20
-6259.846755138461
  0
VERTEX
  8
0
 10
40297.39458241465
 20
-6258.739851677372
  0
VERTEX
  8
0
 10
40297.90767894383
 20
-6257.626162657209
  0
VERTEX
  8
0
 10
40298.41066366241
 20
-6256.505948595165
  0
VERTEX
  8
0
 10
40298.90382453957
 20
-6255.379470008435
  0
VERTEX
  8
0
 10
40299.38744954447
 20
-6254.246987414215
  0
VERTEX
  8
0
 10
40299.86182664629
 20
-6253.108761329695
  0
VERTEX
  8
0
 10
40300.32724381419
 20
-6251.965052272072
  0
VERTEX
  8
0
 10
40300.78398901736
 20
-6250.816120758538
  0
VERTEX
  8
0
 10
40301.23235022498
 20
-6249.662227306289
  0
VERTEX
  8
0
 10
40301.6726154062
 20
-6248.503632432516
  0
VERTEX
  8
0
 10
40302.1050725302
 20
-6247.340596654415
  0
VERTEX
  8
0
 10
40302.52981815972
 20
-6246.173854317964
  0
VERTEX
  8
0
 10
40302.94682153415
 20
-6245.004212966342
  0
VERTEX
  8
0
 10
40303.35629738811
 20
-6243.831713848884
  0
VERTEX
  8
0
 10
40303.75846258544
 20
-6242.656392297173
  0
VERTEX
  8
0
 10
40304.15353398996
 20
-6241.478283642787
  0
VERTEX
  8
0
 10
40304.54172846553
 20
-6240.29742321731
  0
VERTEX
  8
0
 10
40304.92326287598
 20
-6239.113846352323
  0
VERTEX
  8
0
 10
40305.29835408514
 20
-6237.927588379405
  0
VERTEX
  8
0
 10
40305.66721895686
 20
-6236.73868463014
  0
VERTEX
  8
0
 10
40306.03007435497
 20
-6235.547170436107
  0
VERTEX
  8
0
 10
40306.38713714331
 20
-6234.353081128887
  0
VERTEX
  8
0
 10
40306.73862418573
 20
-6233.156452040061
  0
VERTEX
  8
0
 10
40307.08475234605
 20
-6231.957318501211
  0
VERTEX
  8
0
 10
40307.42573848813
 20
-6230.755715843919
  0
VERTEX
  8
0
 10
40307.76179947579
 20
-6229.551679399764
  0
VERTEX
  8
0
 10
40308.09315217287
 20
-6228.345244500328
  0
VERTEX
  8
0
 10
40308.42001344322
 20
-6227.136446477191
  0
VERTEX
  8
0
 10
40308.74260015068
 20
-6225.925320661937
  0
VERTEX
  8
0
 10
40309.06112915906
 20
-6224.711902386143
  0
VERTEX
  8
0
 10
40309.3758172176
 20
-6223.496227444517
  0
VERTEX
  8
0
 10
40309.68678397234
 20
-6222.278728466081
  0
VERTEX
  8
0
 10
40309.99417141197
 20
-6221.05976615945
  0
VERTEX
  8
0
 10
40310.29821379673
 20
-6219.839333090528
  0
VERTEX
  8
0
 10
40310.59914538685
 20
-6218.617421825144
  0
VERTEX
  8
0
 10
40310.89720044259
 20
-6217.394024929124
  0
VERTEX
  8
0
 10
40311.19261322421
 20
-6216.169134968298
  0
VERTEX
  8
0
 10
40311.48561799194
 20
-6214.942744508494
  0
VERTEX
  8
0
 10
40311.77644900604
 20
-6213.71484611554
  0
VERTEX
  8
0
 10
40312.06534052677
 20
-6212.485432355265
  0
VERTEX
  8
0
 10
40312.35252681437
 20
-6211.254495793496
  0
VERTEX
  8
0
 10
40312.63824212908
 20
-6210.022028996063
  0
VERTEX
  8
0
 10
40312.92272073117
 20
-6208.788024528794
  0
VERTEX
  8
0
 10
40313.20619688087
 20
-6207.552474957517
  0
VERTEX
  8
0
 10
40313.48890483845
 20
-6206.31537284806
  0
VERTEX
  8
0
 10
40313.77107886414
 20
-6205.076710766251
  0
VERTEX
  8
0
 10
40314.0529532182
 20
-6203.83648127792
  0
VERTEX
  8
0
 10
40314.33478059067
 20
-6202.594599283148
  0
VERTEX
  8
0
 10
40314.61684945763
 20
-6201.350846875723
  0
VERTEX
  8
0
 10
40314.89933815777
 20
-6200.105495056591
  0
VERTEX
  8
0
 10
40315.18241280599
 20
-6198.858867761695
  0
VERTEX
  8
0
 10
40315.46623951715
 20
-6197.611288926978
  0
VERTEX
  8
0
 10
40315.75098440617
 20
-6196.36308248838
  0
VERTEX
  8
0
 10
40316.0368135879
 20
-6195.114572381844
  0
VERTEX
  8
0
 10
40316.32389317726
 20
-6193.866082543312
  0
VERTEX
  8
0
 10
40316.61163481338
 20
-6192.621245334647
  0
VERTEX
  8
0
 10
40316.89826578225
 20
-6191.388507868191
  0
VERTEX
  8
0
 10
40317.18504974851
 20
-6190.162568678545
  0
VERTEX
  8
0
 10
40317.47348477984
 20
-6188.9370820434
  0
VERTEX
  8
0
 10
40317.76506894389
 20
-6187.705702240447
  0
VERTEX
  8
0
 10
40318.06130030833
 20
-6186.46208354738
  0
VERTEX
  8
0
 10
40318.36149970379
 20
-6185.209077503916
  0
VERTEX
  8
0
 10
40318.66331092771
 20
-6183.956562793041
  0
VERTEX
  8
0
 10
40318.96669588391
 20
-6182.704590326994
  0
VERTEX
  8
0
 10
40319.27163000889
 20
-6181.453153761225
  0
VERTEX
  8
0
 10
40319.57808873917
 20
-6180.202246751183
  0
VERTEX
  8
0
 10
40319.88604751125
 20
-6178.951862952316
  0
VERTEX
  8
0
 10
40320.19548176166
 20
-6177.701996020075
  0
VERTEX
  8
0
 10
40320.50636692692
 20
-6176.452639609906
  0
VERTEX
  8
0
 10
40320.81867844352
 20
-6175.203787377261
  0
VERTEX
  8
0
 10
40321.13239174799
 20
-6173.955432977586
  0
VERTEX
  8
0
 10
40321.44748227683
 20
-6172.70757006633
  0
VERTEX
  8
0
 10
40321.76392654389
 20
-6171.460188214515
  0
VERTEX
  8
0
 10
40322.08171193385
 20
-6170.213235852527
  0
VERTEX
  8
0
 10
40322.40081839028
 20
-6168.966689949692
  0
VERTEX
  8
0
 10
40322.72122095105
 20
-6167.720546165919
  0
VERTEX
  8
0
 10
40323.04289465374
 20
-6166.474800162065
  0
VERTEX
  8
0
 10
40323.365814536
 20
-6165.229447598991
  0
VERTEX
  8
0
 10
40323.68995563539
 20
-6163.984484137562
  0
VERTEX
  8
0
 10
40324.01529298953
 20
-6162.739905438636
  0
VERTEX
  8
0
 10
40324.34180163605
 20
-6161.495707163077
  0
VERTEX
  8
0
 10
40324.66945661253
 20
-6160.251884971747
  0
VERTEX
  8
0
 10
40324.99823295659
 20
-6159.008434525505
  0
VERTEX
  8
0
 10
40325.32810570582
 20
-6157.765351485214
  0
VERTEX
  8
0
 10
40325.65904989785
 20
-6156.522631511735
  0
VERTEX
  8
0
 10
40325.99104057027
 20
-6155.280270265931
  0
VERTEX
  8
0
 10
40326.32405276069
 20
-6154.038263408661
  0
VERTEX
  8
0
 10
40326.65806150671
 20
-6152.796606600789
  0
VERTEX
  8
0
 10
40326.99304184596
 20
-6151.555295503175
  0
VERTEX
  8
0
 10
40327.32896881601
 20
-6150.314325776681
  0
VERTEX
  8
0
 10
40327.66581745451
 20
-6149.073693082169
  0
VERTEX
  8
0
 10
40328.00356279903
 20
-6147.833393080501
  0
VERTEX
  8
0
 10
40328.34217988719
 20
-6146.593421432537
  0
VERTEX
  8
0
 10
40328.68164375659
 20
-6145.353773799139
  0
VERTEX
  8
0
 10
40329.02192944485
 20
-6144.114445841169
  0
VERTEX
  8
0
 10
40329.36301198958
 20
-6142.875433219489
  0
VERTEX
  8
0
 10
40329.70486642836
 20
-6141.636731594958
  0
VERTEX
  8
0
 10
40330.0474677988
 20
-6140.398336628441
  0
VERTEX
  8
0
 10
40330.39079113854
 20
-6139.160243980798
  0
VERTEX
  8
0
 10
40330.73481148516
 20
-6137.922449312889
  0
VERTEX
  8
0
 10
40331.07950387626
 20
-6136.684948285578
  0
VERTEX
  8
0
 10
40331.42484334946
 20
-6135.447736559725
  0
VERTEX
  8
0
 10
40331.77080494237
 20
-6134.210809796193
  0
VERTEX
  8
0
 10
40332.11736369258
 20
-6132.974163655842
  0
VERTEX
  8
0
 10
40332.46449463772
 20
-6131.737793799534
  0
VERTEX
  8
0
 10
40332.81217281538
 20
-6130.501695888132
  0
VERTEX
  8
0
 10
40333.16037326316
 20
-6129.265865582495
  0
VERTEX
  8
0
 10
40333.50907101869
 20
-6128.030298543486
  0
VERTEX
  8
0
 10
40333.85824111955
 20
-6126.794990431967
  0
VERTEX
  8
0
 10
40334.20785860336
 20
-6125.559936908799
  0
VERTEX
  8
0
 10
40334.55789850772
 20
-6124.325133634841
  0
VERTEX
  8
0
 10
40334.90833587025
 20
-6123.09057627096
  0
VERTEX
  8
0
 10
40335.25914572855
 20
-6121.856260478013
  0
VERTEX
  8
0
 10
40335.61030312021
 20
-6120.622181916863
  0
VERTEX
  8
0
 10
40335.96178308286
 20
-6119.388336248372
  0
VERTEX
  8
0
 10
40336.3135606541
 20
-6118.154719133401
  0
VERTEX
  8
0
 10
40336.66561087153
 20
-6116.921326232812
  0
VERTEX
  8
0
 10
40337.01790877276
 20
-6115.688153207466
  0
VERTEX
  8
0
 10
40337.37042939539
 20
-6114.455195718225
  0
VERTEX
  8
0
 10
40337.72314777704
 20
-6113.22244942595
  0
VERTEX
  8
0
 10
40338.07603895531
 20
-6111.989909991502
  0
VERTEX
  8
0
 10
40338.42907796781
 20
-6110.757573075744
  0
VERTEX
  8
0
 10
40338.78223985212
 20
-6109.525434339537
  0
VERTEX
  8
0
 10
40339.1354996459
 20
-6108.293489443743
  0
VERTEX
  8
0
 10
40339.48883238671
 20
-6107.061734049223
  0
VERTEX
  8
0
 10
40339.84221311216
 20
-6105.830163816838
  0
VERTEX
  8
0
 10
40340.19561685988
 20
-6104.598774407449
  0
VERTEX
  8
0
 10
40340.54901866746
 20
-6103.36756148192
  0
SEQEND
  8
0
  0
POLYLINE
  8
0
 66
     1
  0
VERTEX
  8
0
 10
40348.19504582174
 20
-6078.761675090157
  0
VERTEX
  8
0
 10
40348.71222433193
 20
-6077.246980974343
  0
VERTEX
  8
0
 10
40349.22947175383
 20
-6075.732316938163
  0
VERTEX
  8
0
 10
40349.74685699921
 20
-6074.217713061249
  0
VERTEX
  8
0
 10
40350.26444897977
 20
-6072.703199423236
  0
VERTEX
  8
0
 10
40350.78231660725
 20
-6071.188806103753
  0
VERTEX
  8
0
 10
40351.30052879338
 20
-6069.674563182438
  0
VERTEX
  8
0
 10
40351.81915444989
 20
-6068.16050073892
  0
VERTEX
  8
0
 10
40352.33826248851
 20
-6066.646648852836
  0
VERTEX
  8
0
 10
40352.85792182097
 20
-6065.133037603816
  0
VERTEX
  8
0
 10
40353.378201359
 20
-6063.619697071493
  0
VERTEX
  8
0
 10
40353.89917001433
 20
-6062.106657335504
  0
VERTEX
  8
0
 10
40354.42089669869
 20
-6060.593948475478
  0
VERTEX
  8
0
 10
40354.94345032381
 20
-6059.081600571051
  0
VERTEX
  8
0
 10
40355.46689980142
 20
-6057.569643701854
  0
VERTEX
  8
0
 10
40355.99131404324
 20
-6056.058107947522
  0
VERTEX
  8
0
 10
40356.51676196102
 20
-6054.547023387687
  0
VERTEX
  8
0
 10
40357.04331246647
 20
-6053.036420101982
  0
VERTEX
  8
0
 10
40357.57103447134
 20
-6051.526328170041
  0
VERTEX
  8
0
 10
40358.09999688734
 20
-6050.016777671496
  0
VERTEX
  8
0
 10
40358.63026862622
 20
-6048.507798685981
  0
VERTEX
  8
0
 10
40359.16191859969
 20
-6046.999421293129
  0
VERTEX
  8
0
 10
40359.6950157195
 20
-6045.491675572574
  0
VERTEX
  8
0
 10
40360.22962889736
 20
-6043.984591603947
  0
VERTEX
  8
0
 10
40360.765827045
 20
-6042.478199466884
  0
VERTEX
  8
0
 10
40361.30367907418
 20
-6040.972529241016
  0
VERTEX
  8
0
 10
40361.84325389659
 20
-6039.467611005976
  0
VERTEX
  8
0
 10
40362.38462042399
 20
-6037.963474841398
  0
VERTEX
  8
0
 10
40362.92784756809
 20
-6036.460150826916
  0
VERTEX
  8
0
 10
40363.47300424064
 20
-6034.957669042162
  0
VERTEX
  8
0
 10
40364.02015935336
 20
-6033.456059566769
  0
VERTEX
  8
0
 10
40364.56938181796
 20
-6031.95535248037
  0
VERTEX
  8
0
 10
40365.12074054621
 20
-6030.4555778626
  0
VERTEX
  8
0
 10
40365.67430444981
 20
-6028.95676579309
  0
VERTEX
  8
0
 10
40366.23014244049
 20
-6027.458946351473
  0
VERTEX
  8
0
 10
40366.78832342844
 20
-6025.962149616591
  0
VERTEX
  8
0
 10
40367.34889711678
 20
-6024.466395883506
  0
VERTEX
  8
0
 10
40367.91184611294
 20
-6022.971671269745
  0
VERTEX
  8
0
 10
40368.47713838206
 20
-6021.477954434275
  0
VERTEX
  8
0
 10
40369.04474188927
 20
-6019.985224036059
  0
VERTEX
  8
0
 10
40369.6146245997
 20
-6018.493458734066
  0
VERTEX
  8
0
 10
40370.1867544785
 20
-6017.002637187258
  0
VERTEX
  8
0
 10
40370.7610994908
 20
-6015.512738054605
  0
VERTEX
  8
0
 10
40371.33762760173
 20
-6014.023739995068
  0
VERTEX
  8
0
 10
40371.91630677645
 20
-6012.535621667617
  0
VERTEX
  8
0
 10
40372.49710498007
 20
-6011.048361731215
  0
VERTEX
  8
0
 10
40373.07999017773
 20
-6009.561938844828
  0
VERTEX
  8
0
 10
40373.66493033458
 20
-6008.076331667422
  0
VERTEX
  8
0
 10
40374.25189341573
 20
-6006.591518857964
  0
VERTEX
  8
0
 10
40374.84084738636
 20
-6005.107479075417
  0
VERTEX
  8
0
 10
40375.43176021157
 20
-6003.624190978748
  0
VERTEX
  8
0
 10
40376.0245998565
 20
-6002.141633226924
  0
VERTEX
  8
0
 10
40376.6193342863
 20
-6000.659784478909
  0
VERTEX
  8
0
 10
40377.2159314661
 20
-5999.17862339367
  0
VERTEX
  8
0
 10
40377.81435936104
 20
-5997.698128630171
  0
VERTEX
  8
0
 10
40378.41458593625
 20
-5996.218278847378
  0
VERTEX
  8
0
 10
40379.01657915687
 20
-5994.739052704258
  0
VERTEX
  8
0
 10
40379.62030698803
 20
-5993.260428859776
  0
VERTEX
  8
0
 10
40380.22573739487
 20
-5991.782385972897
  0
VERTEX
  8
0
 10
40380.83283834253
 20
-5990.304902702587
  0
VERTEX
  8
0
 10
40381.44157779614
 20
-5988.827957707813
  0
VERTEX
  8
0
 10
40382.05192372086
 20
-5987.351529647539
  0
VERTEX
  8
0
 10
40382.66384408178
 20
-5985.875597180731
  0
VERTEX
  8
0
 10
40383.27730684408
 20
-5984.400138966355
  0
VERTEX
  8
0
 10
40383.89227997287
 20
-5982.925133663378
  0
VERTEX
  8
0
 10
40384.50873143329
 20
-5981.450559930764
  0
VERTEX
  8
0
 10
40385.1266291905
 20
-5979.976396427479
  0
VERTEX
  8
0
 10
40385.74594120961
 20
-5978.502621812488
  0
VERTEX
  8
0
 10
40386.36663545576
 20
-5977.029214744757
  0
VERTEX
  8
0
 10
40386.98867989409
 20
-5975.556153883254
  0
VERTEX
  8
0
 10
40387.61204248973
 20
-5974.083417886941
  0
VERTEX
  8
0
 10
40388.23669120783
 20
-5972.610985414786
  0
VERTEX
  8
0
 10
40388.86259401352
 20
-5971.138835125754
  0
VERTEX
  8
0
 10
40389.48971887193
 20
-5969.66694567881
  0
VERTEX
  8
0
 10
40390.11803374821
 20
-5968.195295732922
  0
VERTEX
  8
0
 10
40390.74750660749
 20
-5966.723863947054
  0
VERTEX
  8
0
 10
40391.37810541489
 20
-5965.252628980171
  0
VERTEX
  8
0
 10
40392.00979813558
 20
-5963.781569491241
  0
VERTEX
  8
0
 10
40392.64255273467
 20
-5962.310664139228
  0
VERTEX
  8
0
 10
40393.2763371773
 20
-5960.839891583097
  0
VERTEX
  8
0
 10
40393.91111942861
 20
-5959.369230481814
  0
VERTEX
  8
0
 10
40394.54686745373
 20
-5957.898659494347
  0
VERTEX
  8
0
 10
40395.18354921781
 20
-5956.428157279659
  0
VERTEX
  8
0
 10
40395.82113268598
 20
-5954.957702496717
  0
VERTEX
  8
0
 10
40396.45958582337
 20
-5953.487273804485
  0
VERTEX
  8
0
 10
40397.09887659513
 20
-5952.016849861932
  0
VERTEX
  8
0
 10
40397.73897296638
 20
-5950.546409328021
  0
VERTEX
  8
0
 10
40398.37984290226
 20
-5949.075930861717
  0
VERTEX
  8
0
 10
40399.02145436792
 20
-5947.605393121989
  0
VERTEX
  8
0
 10
40399.66377532847
 20
-5946.1347747678
  0
VERTEX
  8
0
 10
40400.30677374908
 20
-5944.664054458118
  0
VERTEX
  8
0
 10
40400.95041759485
 20
-5943.193210851905
  0
VERTEX
  8
0
 10
40401.59467483095
 20
-5941.722222608129
  0
VERTEX
  8
0
 10
40402.2395134225
 20
-5940.251068385756
  0
VERTEX
  8
0
 10
40402.88490133463
 20
-5938.77972684375
  0
VERTEX
  8
0
 10
40403.53082442128
 20
-5937.308188985238
  0
VERTEX
  8
0
 10
40404.17756016407
 20
-5935.836647051182
  0
VERTEX
  8
0
 10
40404.82562346172
 20
-5934.365457112285
  0
VERTEX
  8
0
 10
40405.47553611566
 20
-5932.89498000245
  0
VERTEX
  8
0
 10
40406.12781992724
 20
-5931.425576555583
  0
VERTEX
  8
0
 10
40406.7829966979
 20
-5929.957607605586
  0
VERTEX
  8
0
 10
40407.44158822901
 20
-5928.491433986361
  0
VERTEX
  8
0
 10
40408.10411632199
 20
-5927.027416531814
  0
VERTEX
  8
0
 10
40408.77110277823
 20
-5925.565916075849
  0
VERTEX
  8
0
 10
40409.44306939912
 20
-5924.107293452368
  0
VERTEX
  8
0
 10
40410.12053798607
 20
-5922.651909495276
  0
VERTEX
  8
0
 10
40410.80403034048
 20
-5921.200125038477
  0
VERTEX
  8
0
 10
40411.49406826373
 20
-5919.752300915874
  0
VERTEX
  8
0
 10
40412.19117355724
 20
-5918.308797961371
  0
VERTEX
  8
0
 10
40412.8958680224
 20
-5916.869977008872
  0
VERTEX
  8
0
 10
40413.6086734606
 20
-5915.436198892279
  0
VERTEX
  8
0
 10
40414.33011167325
 20
-5914.007824445498
  0
VERTEX
  8
0
 10
40415.06070446175
 20
-5912.585214502432
  0
VERTEX
  8
0
 10
40415.80097362749
 20
-5911.168729896983
  0
VERTEX
  8
0
 10
40416.55144097187
 20
-5909.758731463058
  0
VERTEX
  8
0
 10
40417.31262829631
 20
-5908.355580034558
  0
VERTEX
  8
0
 10
40418.08505740217
 20
-5906.959636445387
  0
VERTEX
  8
0
 10
40418.86925009087
 20
-5905.571261529451
  0
VERTEX
  8
0
 10
40419.66572816381
 20
-5904.190816120651
  0
VERTEX
  8
0
 10
40420.47501342239
 20
-5902.818661052893
  0
VERTEX
  8
0
 10
40421.297627668
 20
-5901.455157160079
  0
VERTEX
  8
0
 10
40422.13409270204
 20
-5900.100665276113
  0
VERTEX
  8
0
 10
40422.98493032591
 20
-5898.755546234898
  0
VERTEX
  8
0
 10
40423.85061654936
 20
-5897.420116816841
  0
VERTEX
  8
0
 10
40424.73128848275
 20
-5896.094367766836
  0
VERTEX
  8
0
 10
40425.62693115645
 20
-5894.778143522401
  0
VERTEX
  8
0
 10
40426.53752887949
 20
-5893.471287827121
  0
VERTEX
  8
0
 10
40427.46306596093
 20
-5892.173644424574
  0
VERTEX
  8
0
 10
40428.40352670981
 20
-5890.885057058345
  0
VERTEX
  8
0
 10
40429.35889543516
 20
-5889.605369472011
  0
VERTEX
  8
0
 10
40430.32915644605
 20
-5888.334425409158
  0
VERTEX
  8
0
 10
40431.3142940515
 20
-5887.072068613365
  0
VERTEX
  8
0
 10
40432.31429256057
 20
-5885.818142828215
  0
VERTEX
  8
0
 10
40433.32913628231
 20
-5884.572491797288
  0
VERTEX
  8
0
 10
40434.35880952576
 20
-5883.334959264168
  0
VERTEX
  8
0
 10
40435.40329659995
 20
-5882.105388972435
  0
VERTEX
  8
0
 10
40436.46258181394
 20
-5880.88362466567
  0
VERTEX
  8
0
 10
40437.53697654315
 20
-5879.670141898532
  0
VERTEX
  8
0
 10
40438.62991301145
 20
-5878.471444930267
  0
VERTEX
  8
0
 10
40439.74655446676
 20
-5877.297381929056
  0
VERTEX
  8
0
 10
40440.89208261367
 20
-5876.157836716708
  0
VERTEX
  8
0
 10
40442.07167915679
 20
-5875.062693115035
  0
VERTEX
  8
0
 10
40443.29052580066
 20
-5874.021834945855
  0
VERTEX
  8
0
 10
40444.55380424988
 20
-5873.045146030977
  0
VERTEX
  8
0
 10
40445.86669620904
 20
-5872.142510192215
  0
VERTEX
  8
0
 10
40447.23438338271
 20
-5871.323811251384
  0
VERTEX
  8
0
 10
40456.5719012244
 20
-5868.640312296231
  0
VERTEX
  8
0
 10
40495.56918411725
 20
-5888.574087089348
  0
VERTEX
  8
0
 10
40494.92152996536
 20
-5892.221838653571
  0
VERTEX
  8
0
 10
40469.75291783953
 20
-5880.105848260994
  0
VERTEX
  8
0
 10
40455.93458074273
 20
-5873.459315474195
  0
VERTEX
  8
0
 10
40454.33906075486
 20
-5873.735929594425
  0
VERTEX
  8
0
 10
40452.78141453331
 20
-5874.092748316759
  0
VERTEX
  8
0
 10
40451.28336989187
 20
-5874.575784246438
  0
VERTEX
  8
0
 10
40449.86271602062
 20
-5875.222153707012
  0
VERTEX
  8
0
 10
40448.51735413054
 20
-5876.024051476277
  0
VERTEX
  8
0
 10
40447.23892247472
 20
-5876.959526010434
  0
VERTEX
  8
0
 10
40446.01905698112
 20
-5878.006620513819
  0
VERTEX
  8
0
 10
40444.8493935777
 20
-5879.143378190763
  0
VERTEX
  8
0
 10
40443.7215681924
 20
-5880.3478422456
  0
VERTEX
  8
0
 10
40442.62721675319
 20
-5881.598055882665
  0
VERTEX
  8
0
 10
40441.55797518802
 20
-5882.872062306292
  0
VERTEX
  8
0
 10
40440.5065995808
 20
-5884.151007660816
  0
VERTEX
  8
0
 10
40439.47119920745
 20
-5885.430866948635
  0
VERTEX
  8
0
 10
40438.4514806646
 20
-5886.712039904569
  0
VERTEX
  8
0
 10
40437.44715082785
 20
-5887.994927036159
  0
VERTEX
  8
0
 10
40436.45791657277
 20
-5889.279928850945
  0
VERTEX
  8
0
 10
40435.48348477494
 20
-5890.567445856468
  0
VERTEX
  8
0
 10
40434.52356230998
 20
-5891.857878560269
  0
VERTEX
  8
0
 10
40433.57785605345
 20
-5893.151627469889
  0
VERTEX
  8
0
 10
40432.64607288095
 20
-5894.449093092866
  0
VERTEX
  8
0
 10
40431.72791966806
 20
-5895.750675936743
  0
VERTEX
  8
0
 10
40430.82310329037
 20
-5897.05677650906
  0
VERTEX
  8
0
 10
40429.93133062347
 20
-5898.367795317357
  0
VERTEX
  8
0
 10
40429.05230854295
 20
-5899.684132869176
  0
VERTEX
  8
0
 10
40428.18574392439
 20
-5901.006189672056
  0
VERTEX
  8
0
 10
40427.33134364337
 20
-5902.334366233538
  0
VERTEX
  8
0
 10
40426.4888145755
 20
-5903.669063061163
  0
VERTEX
  8
0
 10
40425.65786359635
 20
-5905.010680662472
  0
VERTEX
  8
0
 10
40424.83819758151
 20
-5906.359619545003
  0
VERTEX
  8
0
 10
40424.02952340657
 20
-5907.7162802163
  0
VERTEX
  8
0
 10
40423.23154679048
 20
-5909.081054239367
  0
VERTEX
  8
0
 10
40422.44393286114
 20
-5910.454019278923
  0
VERTEX
  8
0
 10
40421.66629641647
 20
-5911.834863787975
  0
VERTEX
  8
0
 10
40420.89824912163
 20
-5913.223251993595
  0
VERTEX
  8
0
 10
40420.13940264182
 20
-5914.618848122856
  0
VERTEX
  8
0
 10
40419.38936864222
 20
-5916.02131640283
  0
VERTEX
  8
0
 10
40418.647758788
 20
-5917.430321060589
  0
VERTEX
  8
0
 10
40417.91418474435
 20
-5918.845526323204
  0
VERTEX
  8
0
 10
40417.18825817644
 20
-5920.266596417751
  0
VERTEX
  8
0
 10
40416.46959074948
 20
-5921.693195571302
  0
VERTEX
  8
0
 10
40415.75779412861
 20
-5923.124988010924
  0
VERTEX
  8
0
 10
40415.05247997906
 20
-5924.561637963696
  0
VERTEX
  8
0
 10
40414.35325996597
 20
-5926.002809656687
  0
VERTEX
  8
0
 10
40413.65974575454
 20
-5927.448167316968
  0
VERTEX
  8
0
 10
40412.97154900993
 20
-5928.897375171616
  0
VERTEX
  8
0
 10
40412.28828139736
 20
-5930.3500974477
  0
VERTEX
  8
0
 10
40411.60955458198
 20
-5931.805998372293
  0
VERTEX
  8
0
 10
40410.93498022898
 20
-5933.264742172467
  0
VERTEX
  8
0
 10
40410.26417000355
 20
-5934.725993075296
  0
VERTEX
  8
0
 10
40409.59673557086
 20
-5936.189415307851
  0
VERTEX
  8
0
 10
40408.9322885961
 20
-5937.654673097205
  0
VERTEX
  8
0
 10
40408.27044074445
 20
-5939.12143067043
  0
VERTEX
  8
0
 10
40407.61080368108
 20
-5940.589352254598
  0
VERTEX
  8
0
 10
40406.95298907119
 20
-5942.058102076782
  0
VERTEX
  8
0
 10
40406.29660857994
 20
-5943.527344364055
  0
VERTEX
  8
0
 10
40405.64127387254
 20
-5944.996743343488
  0
VERTEX
  8
0
 10
40404.98663891492
 20
-5946.465998878618
  0
VERTEX
  8
0
 10
40404.33263302404
 20
-5947.935042803441
  0
VERTEX
  8
0
 10
40403.6792957164
 20
-5949.40389979006
  0
VERTEX
  8
0
 10
40403.02666680058
 20
-5950.872594756589
  0
VERTEX
  8
0
 10
40402.37478608514
 20
-5952.341152621152
  0
VERTEX
  8
0
 10
40401.72369337865
 20
-5953.809598301863
  0
VERTEX
  8
0
 10
40401.07342848967
 20
-5955.277956716842
  0
VERTEX
  8
0
 10
40400.42403122676
 20
-5956.746252784207
  0
VERTEX
  8
0
 10
40399.7755413985
 20
-5958.214511422077
  0
VERTEX
  8
0
 10
40399.12799881344
 20
-5959.682757548567
  0
VERTEX
  8
0
 10
40398.48144328015
 20
-5961.151016081799
  0
VERTEX
  8
0
 10
40397.8359146072
 20
-5962.619311939889
  0
VERTEX
  8
0
 10
40397.19145260313
 20
-5964.087670040956
  0
VERTEX
  8
0
 10
40396.54809707654
 20
-5965.556115303119
  0
VERTEX
  8
0
 10
40395.90588783596
 20
-5967.024672644493
  0
VERTEX
  8
0
 10
40395.26486468999
 20
-5968.4933669832
  0
VERTEX
  8
0
 10
40394.62506744717
 20
-5969.962223237357
  0
VERTEX
  8
0
 10
40393.98653591608
 20
-5971.43126632508
  0
VERTEX
  8
0
 10
40393.34930990525
 20
-5972.900521164491
  0
VERTEX
  8
0
 10
40392.71342922329
 20
-5974.370012673706
  0
VERTEX
  8
0
 10
40392.07893367873
 20
-5975.839765770843
  0
VERTEX
  8
0
 10
40391.44586308015
 20
-5977.30980537402
  0
VERTEX
  8
0
 10
40390.81425723612
 20
-5978.780156401356
  0
VERTEX
  8
0
 10
40390.1841559552
 20
-5980.25084377097
  0
VERTEX
  8
0
 10
40389.55559904594
 20
-5981.721892400979
  0
VERTEX
  8
0
 10
40388.92862631692
 20
-5983.1933272095
  0
VERTEX
  8
0
 10
40388.3032775767
 20
-5984.665173114654
  0
VERTEX
  8
0
 10
40387.67959263385
 20
-5986.137455034557
  0
VERTEX
  8
0
 10
40387.05761129692
 20
-5987.610197887329
  0
VERTEX
  8
0
 10
40386.43737337449
 20
-5989.083426591086
  0
VERTEX
  8
0
 10
40385.81891867511
 20
-5990.557166063948
  0
VERTEX
  8
0
 10
40385.20228700736
 20
-5992.031441224033
  0
VERTEX
  8
0
 10
40384.5875181798
 20
-5993.506276989458
  0
VERTEX
  8
0
 10
40383.97465200098
 20
-5994.981698278342
  0
VERTEX
  8
0
 10
40383.36372827948
 20
-5996.457730008804
  0
VERTEX
  8
0
 10
40382.75478682386
 20
-5997.934397098961
  0
VERTEX
  8
0
 10
40382.14786744268
 20
-5999.411724466932
  0
VERTEX
  8
0
 10
40381.54300994452
 20
-6000.889737030835
  0
VERTEX
  8
0
 10
40380.94025413793
 20
-6002.368459708787
  0
VERTEX
  8
0
 10
40380.33963983147
 20
-6003.847917418907
  0
VERTEX
  8
0
 10
40379.74120683372
 20
-6005.328135079315
  0
VERTEX
  8
0
 10
40379.14499495323
 20
-6006.809137608126
  0
VERTEX
  8
0
 10
40378.55104399858
 20
-6008.29094992346
  0
VERTEX
  8
0
 10
40377.95939377832
 20
-6009.773596943435
  0
VERTEX
  8
0
 10
40377.37008410102
 20
-6011.257103586171
  0
VERTEX
  8
0
 10
40376.78315477525
 20
-6012.741494769783
  0
VERTEX
  8
0
 10
40376.19864560956
 20
-6014.226795412391
  0
VERTEX
  8
0
 10
40375.61659641252
 20
-6015.713030432112
  0
VERTEX
  8
0
 10
40375.03704699271
 20
-6017.200224747065
  0
VERTEX
  8
0
 10
40374.46003715867
 20
-6018.688403275369
  0
VERTEX
  8
0
 10
40373.88560671899
 20
-6020.17759093514
  0
VERTEX
  8
0
 10
40373.31379548221
 20
-6021.667812644499
  0
VERTEX
  8
0
 10
40372.74464325691
 20
-6023.159093321561
  0
VERTEX
  8
0
 10
40372.17818985165
 20
-6024.651457884448
  0
VERTEX
  8
0
 10
40371.614475075
 20
-6026.144931251276
  0
VERTEX
  8
0
 10
40371.0535387355
 20
-6027.639538340162
  0
VERTEX
  8
0
 10
40370.49542064175
 20
-6029.135304069227
  0
VERTEX
  8
0
 10
40369.94016060229
 20
-6030.632253356587
  0
VERTEX
  8
0
 10
40369.3877984257
 20
-6032.13041112036
  0
VERTEX
  8
0
 10
40368.83837392052
 20
-6033.629802278667
  0
VERTEX
  8
0
 10
40368.29192689534
 20
-6035.130451749624
  0
VERTEX
  8
0
 10
40367.74849693922
 20
-6036.632384345807
  0
VERTEX
  8
0
 10
40367.20808114595
 20
-6038.135604447203
  0
VERTEX
  8
0
 10
40366.67058370758
 20
-6039.640071764756
  0
VERTEX
  8
0
 10
40366.13589653694
 20
-6041.145740105277
  0
VERTEX
  8
0
 10
40365.60391154676
 20
-6042.652563275573
  0
VERTEX
  8
0
 10
40365.07452064986
 20
-6044.160495082455
  0
VERTEX
  8
0
 10
40364.54761575901
 20
-6045.669489332729
  0
VERTEX
  8
0
 10
40364.02308878698
 20
-6047.179499833208
  0
VERTEX
  8
0
 10
40363.50083164656
 20
-6048.690480390698
  0
VERTEX
  8
0
 10
40362.98073625053
 20
-6050.202384812009
  0
VERTEX
  8
0
 10
40362.46269451167
 20
-6051.71516690395
  0
VERTEX
  8
0
 10
40361.94659834276
 20
-6053.22878047333
  0
VERTEX
  8
0
 10
40361.43233965658
 20
-6054.743179326956
  0
VERTEX
  8
0
 10
40360.91981036591
 20
-6056.25831727164
  0
VERTEX
  8
0
 10
40360.40890238352
 20
-6057.774148114189
  0
VERTEX
  8
0
 10
40359.89950762221
 20
-6059.290625661413
  0
VERTEX
  8
0
 10
40359.39151799476
 20
-6060.807703720121
  0
VERTEX
  8
0
 10
40358.88482541393
 20
-6062.325336097121
  0
VERTEX
  8
0
 10
40358.37932179253
 20
-6063.843476599222
  0
VERTEX
  8
0
 10
40357.87489904331
 20
-6065.362079033234
  0
VERTEX
  8
0
 10
40357.37144907907
 20
-6066.881097205965
  0
VERTEX
  8
0
 10
40356.86886381259
 20
-6068.400484924225
  0
VERTEX
  8
0
 10
40356.36703515664
 20
-6069.920195994821
  0
VERTEX
  8
0
 10
40355.86585502401
 20
-6071.440184224563
  0
VERTEX
  8
0
 10
40355.36521532747
 20
-6072.960403420261
  0
VERTEX
  8
0
 10
40354.86500797982
 20
-6074.480807388723
  0
VERTEX
  8
0
 10
40354.36512489381
 20
-6076.00134993676
  0
VERTEX
  8
0
 10
40353.86545798225
 20
-6077.521984871177
  0
VERTEX
  8
0
 10
40353.36589915791
 20
-6079.042665998784
  0
SEQEND
  8
0
  0
POLYLINE
  8
0
 66
     1
  0
VERTEX
  8
0
 10
40492.48228193842
 20
-5892.471978795762
  0
VERTEX
  8
0
 10
40503.10508393239
 20
-5936.863899195405
  0
VERTEX
  8
0
 10
40501.32388227867
 20
-5940.373406863694
  0
VERTEX
  8
0
 10
40499.5436909663
 20
-5943.883349014476
  0
VERTEX
  8
0
 10
40497.7651030243
 20
-5947.393980670116
  0
VERTEX
  8
0
 10
40495.98871148165
 20
-5950.905556852977
  0
VERTEX
  8
0
 10
40494.21510936738
 20
-5954.418332585423
  0
VERTEX
  8
0
 10
40492.44488971052
 20
-5957.932562889818
  0
VERTEX
  8
0
 10
40490.67864554004
 20
-5961.448502788524
  0
VERTEX
  8
0
 10
40488.916969885
 20
-5964.966407303907
  0
VERTEX
  8
0
 10
40487.16045577438
 20
-5968.486531458329
  0
VERTEX
  8
0
 10
40485.40969623721
 20
-5972.009130274156
  0
VERTEX
  8
0
 10
40483.66528430251
 20
-5975.534458773751
  0
VERTEX
  8
0
 10
40481.92781299927
 20
-5979.062771979477
  0
VERTEX
  8
0
 10
40480.19787535651
 20
-5982.5943249137
  0
VERTEX
  8
0
 10
40478.47606440325
 20
-5986.129372598782
  0
VERTEX
  8
0
 10
40476.7629731685
 20
-5989.668170057086
  0
VERTEX
  8
0
 10
40475.05919468128
 20
-5993.210972310978
  0
VERTEX
  8
0
 10
40473.36532197059
 20
-5996.758034382821
  0
VERTEX
  8
0
 10
40471.68194806544
 20
-6000.30961129498
  0
VERTEX
  8
0
 10
40470.00966599487
 20
-6003.865958069816
  0
VERTEX
  8
0
 10
40468.34906878787
 20
-6007.427329729695
  0
VERTEX
  8
0
 10
40466.70074947345
 20
-6010.993981296981
  0
VERTEX
  8
0
 10
40465.06530108063
 20
-6014.566167794038
  0
VERTEX
  8
0
 10
40463.44331663843
 20
-6018.144144243228
  0
VERTEX
  8
0
 10
40461.83538917586
 20
-6021.728165666916
  0
VERTEX
  8
0
 10
40460.24211172193
 20
-6025.318487087467
  0
VERTEX
  8
0
 10
40458.66407730564
 20
-6028.915363527242
  0
VERTEX
  8
0
 10
40457.10187895603
 20
-6032.519050008607
  0
VERTEX
  8
0
 10
40455.55598697244
 20
-6036.12974877605
  0
VERTEX
  8
0
 10
40454.02610469536
 20
-6039.747332255988
  0
VERTEX
  8
0
 10
40452.511639776
 20
-6043.371545718501
  0
VERTEX
  8
0
 10
40451.01199923906
 20
-6047.00213416426
  0
VERTEX
  8
0
 10
40449.52659010924
 20
-6050.638842593938
  0
VERTEX
  8
0
 10
40448.05481941123
 20
-6054.281416008201
  0
VERTEX
  8
0
 10
40446.59609416977
 20
-6057.929599407722
  0
VERTEX
  8
0
 10
40445.14982140953
 20
-6061.58313779317
  0
VERTEX
  8
0
 10
40443.71540815522
 20
-6065.241776165215
  0
VERTEX
  8
0
 10
40442.29226143155
 20
-6068.905259524528
  0
VERTEX
  8
0
 10
40440.87978826323
 20
-6072.573332871778
  0
VERTEX
  8
0
 10
40439.47739567495
 20
-6076.245741207636
  0
VERTEX
  8
0
 10
40438.08449069141
 20
-6079.922229532772
  0
VERTEX
  8
0
 10
40436.70048033732
 20
-6083.602542847855
  0
VERTEX
  8
0
 10
40435.3247716374
 20
-6087.286426153558
  0
VERTEX
  8
0
 10
40433.95677161632
 20
-6090.973624450548
  0
VERTEX
  8
0
 10
40432.5958872988
 20
-6094.663882739496
  0
VERTEX
  8
0
 10
40431.24152570955
 20
-6098.356946021073
  0
VERTEX
  8
0
 10
40429.89309387328
 20
-6102.052559295948
  0
VERTEX
  8
0
 10
40428.54999881466
 20
-6105.750467564792
  0
VERTEX
  8
0
 10
40427.21164755843
 20
-6109.450415828276
  0
VERTEX
  8
0
 10
40425.87744712926
 20
-6113.152149087068
  0
VERTEX
  8
0
 10
40424.54680455189
 20
-6116.85541234184
  0
VERTEX
  8
0
 10
40423.21912685099
 20
-6120.559950593261
  0
VERTEX
  8
0
 10
40421.89382105127
 20
-6124.265508842002
  0
VERTEX
  8
0
 10
40420.57029417745
 20
-6127.971832088731
  0
VERTEX
  8
0
 10
40419.24795325423
 20
-6131.678665334121
  0
VERTEX
  8
0
 10
40417.9262053063
 20
-6135.385753578839
  0
SEQEND
  8
0
  0
POLYLINE
  8
0
 66
     1
  0
VERTEX
  8
0
 10
40449.9585093987
 20
-6429.966095349504
 42
0.005170957985
  0
VERTEX
  8
0
 10
40503.0131591054
 20
-6665.171750003316
  0
VERTEX
  8
0
 10
40527.45414861038
 20
-6660.02588920099
 42
0.011971501176
  0
VERTEX
  8
0
 10
40411.31384783609
 20
-6107.213014514097
  0
SEQEND
  8
0
  0
DIMENSION
  8
1DIM
  2
*D459
 10
38548.09253500205
 20
-6664.82651730407
 11
38499.09253500205
 21
-6466.891798345221
 70
    32
  1
400
 13
38698.09253500205
 23
-6268.957079386373
 33
0.0
 14
38698.09253500205
 24
-6664.82651730407
 34
0.0
 50
90.0
  0
ENDSEC
  0
EOF
